osu file format v5

[General]
AudioFilename: Work Guy.mp3
AudioLeadIn: 0
PreviewTime: -1
Countdown: 1
SampleSet: Normal
StackLeniency: 0.2
Mode: 0
LetterboxInBreaks: 1

[Metadata]
Title:Work Guy (TV Size)
Artist:Yoshiki Fukuyama
Creator:Sushi971
Version:Kabuki (Hard)
Source:Kamen no Maid Guy Ending
Tags:Kamen, Maid, Guy

[Difficulty]
HPDrainRate:6
CircleSize:5
OverallDifficulty:5
SliderMultiplier:1.5
SliderTickRate:2

[Events]
//Background and Video events
0,0,"Work Guy2.jpg"
//Break Periods
2,48418,55318
//Storyboard Layer 0 (Background)
//Storyboard Layer 1 (Failing)
//Storyboard Layer 2 (Passing)
//Storyboard Layer 3 (Foreground)
//Storyboard Sound Samples
//Background Colour Transformations
3,100,163,162,255

[TimingPoints]
6350,250,4,1,0,76,1

[Colours]
Combo1 : 0,255,255
Combo2 : 255,255,0
Combo3 : 0,255,0
Combo4 : 255,128,0

[HitObjects]
256,32,6350,1,0
256,104,6600,1,8
256,176,6850,1,0
256,248,7100,1,8
256,248,7225,1,2
192,344,7600,2,2,L|344:344,2,150,0|0|0
120,344,8350,5,0
64,296,8600,1,8
120,248,8850,1,0
64,200,9100,1,8
64,200,9225,1,2
160,136,9600,2,0,B|256:80|464:136,1,300
464,208,10350,5,0
408,256,10600,1,8
352,304,10850,1,0
296,352,11100,1,8
296,352,11225,1,2
272,240,11600,2,0,B|176:280|240:384,2,150,0|0|0
344,240,12350,6,0,B|344:160,1,75
344,165,12600,2,0,B|262:165,1,75
269,165,12850,2,0,B|269:88,1,75
269,90,13100,1,0
224,24,13350,6,2,B|-24:192|312:360,2,450
336,24,15225,2,2,B|336:104|336:104|408:104|408:104|408:176|408:176|336:176|336:176|336:256|336:256|264:256|264:256|264:176|264:176|192:176|192:176|192:104|192:104|112:104|112:104|112:328|112:328|264:328,1,1125
336,328,17350,5,0
408,328,17600,1,0
408,256,17850,1,0
336,256,18100,1,0
336,184,18350,1,2
408,184,18600,2,2,B|432:72|224:80,1,225,2|2
176,80,19225,5,0
176,80,19350,1,0
120,128,19600,1,0
72,184,19850,2,2,B|72:336|72:336,1,150,2|2
72,334,20225,2,2,B|72:174|192:86|288:486|48:62|384:86,1,450,2|2
408,192,21350,5,0
408,264,21600,1,0
336,264,21850,1,0
336,336,22100,1,0
264,336,22350,1,0
152,336,22725,1,2
256,304,23100,5,0
256,232,23350,1,4
256,120,23725,1,2
256,232,24100,2,4,B|256:72|392:72|392:304|392:336|104:312|48:208|88:80|224:72|216:200,1,600,4|4
256,112,25350,5,0
328,112,25600,1,8
400,112,25850,1,0
472,96,26100,1,8
472,136,26225,1,2
472,248,26600,2,2,B|336:304|336:304|216:184,1,300,2|2
168,240,27350,5,0
128,176,27600,1,8
56,176,27850,1,0
96,112,28100,1,8
96,112,28225,1,4
144,40,29350,6,0,L|184:104|224:40|264:104|304:40|344:104|384:40|424:104,1,525
416,216,30600,2,0,B|240:216,2,150
456,280,31350,2,0,L|408:336|328:336|288:280|208:280|160:336|88:336|40:272|40:272,1,525
376,264,33350,5,0
304,264,33600,1,0
336,192,33850,1,0
264,192,34100,1,0
296,120,34350,2,2,B|376:120,2,75
184,120,34975,1,0
128,24,35350,5,0
128,96,35600,1,0
128,168,35850,2,0,L|40:168,2,75
128,168,36225,2,0,B|128:328|296:328|328:320|368:240,1,300
344,208,36975,6,0,B|448:208,2,75
344,208,37350,1,0
344,136,37600,1,0
272,136,37850,1,0
200,136,38100,1,0
128,136,38350,2,2,B|128:232,3,75
136,320,39100,5,0
208,320,39350,1,0
320,320,39725,1,2
224,256,40100,2,2,B|416:216|464:128|457:22|128:56|144:216|336:232|440:232,1,600
360,280,41350,6,0,B|320:344|320:344|248:344|248:344|216:272|216:272|184:344|184:344|112:344|112:344|88:272|88:272|56:352,1,525,0|0
64,224,42600,1,8
64,152,42850,1,8
64,80,43100,1,8
128,112,43350,2,0,L|168:176|192:104|264:104|288:32|312:104|384:104|424:192,1,525,0|0
392,264,44600,2,0,B|48:264,1,300,4|0
80,192,45350,5,4
152,192,45600,2,8,B|248:192,2,75
152,264,46100,5,0
152,264,46225,1,0
152,264,46350,1,8
224,264,46600,6,0,B|328:264,4,75
256,192,47350,5,0
256,192,47475,1,0
256,192,47600,1,8
256,192,47725,1,0
256,192,47850,1,0
256,192,47975,1,0
256,192,48100,1,8
256,192,48225,1,4
256,192,56225,5,4
368,192,56600,1,0
368,120,56850,1,0
296,120,57100,1,0
224,120,57350,1,0
152,120,57600,1,2
152,120,57725,1,2
64,192,58100,5,0
64,264,58350,1,0
136,264,58600,1,0
208,264,58850,1,0
208,264,58975,1,0
280,264,59225,1,0
32,192,60225,5,4
144,192,60600,1,0
144,120,60850,1,0
144,48,61100,1,0
216,48,61350,2,0,L|336:168,1,150,0|0
322,154,61725,2,0,B|408:240|320:368,1,225
248,360,62350,5,0
176,360,62600,1,0
176,288,62850,1,0
176,288,62975,1,0
176,216,63225,1,0
368,80,64225,5,4
256,80,64600,1,0
312,136,64850,1,0
256,80,65100,1,0
200,136,65350,1,0
256,80,65600,1,2
256,80,65725,1,2
256,192,66100,5,0
256,264,66350,1,0
256,336,66600,1,0
184,336,66850,1,0
184,336,66975,1,0
112,336,67225,1,0
256,192,68225,5,0
144,192,68600,1,0
144,120,68850,1,0
144,120,68975,1,0
216,120,69225,1,0
288,120,69475,1,0
360,120,69725,1,2
256,192,70350,12,4,71850
424,192,72350,6,0,B|424:360|48:360|48:136|48:64|224:32,2,600
424,120,74600,1,2
424,120,74725,1,2
312,120,75100,1,0
248,184,75350,2,0,B|64:352,1,225,0|0
80,200,76100,1,2
80,136,76350,2,0,B|24:8|496:40|472:384,1,600
248,352,78100,5,0
248,352,78350,2,0,B|208:280|104:224|288:208,2,225
248,352,79350,2,2,B|64:104,1,300
56,256,80350,6,0,B|0:360|168:384|416:280|232:32|72:96|72:208|168:272|264:328|368:280|320:168|352:120|272:40|72:40|80:104|208:160|272:152|472:8|480:280,1,900
478,254,82100,1,0
400,256,82350,1,0
328,256,82600,1,2
328,256,82725,1,2
216,256,83100,1,0
144,256,83350,1,0
144,144,83725,1,0
256,144,84100,1,0
400,112,84350,6,2,B|336:160|336:160|400:208,6,150
248,112,86350,5,0
136,112,86725,1,0
24,112,87100,1,4
24,184,87350,5,0
136,184,87725,1,0
248,184,88100,1,4
216,248,88350,2,0,B|312:96|384:104|424:304|216:184,1,300,0|0
256,64,89350,5,4
256,64,89475,1,4
256,64,89600,1,4
256,64,89725,1,4
256,64,89850,1,4
