osu file format v5

[General]
AudioFilename: Best_VGM_40_-_Duck_Tales_-_The_Moon.mp3
AudioLeadIn: 1015
PreviewTime: -1
Countdown: 1
SampleSet: Normal
StackLeniency: 0.5
Mode: 0
LetterboxInBreaks: 1
EditorBookmarks: 2715,15780,25933,36502,50316,60552,71120

[Metadata]
Title:Moon Level
Artist:Yoshihiro Sakaguchi
Creator:kingcobra52
Version:Insane
Source:DuckTales
Tags:Capcom duck tales

[Difficulty]
HPDrainRate:6
CircleSize:4
OverallDifficulty:7
SliderMultiplier:1.6
SliderTickRate:2

[Events]
//Background and Video events
0,0,"dt.png"
//Break Periods
//Storyboard Layer 0 (Background)
//Storyboard Layer 1 (Failing)
//Storyboard Layer 2 (Passing)
//Storyboard Layer 3 (Foreground)
//Storyboard Sound Samples
//Background Colour Transformations
3,100,163,162,255

[TimingPoints]
12862,332.778702163062,4,1,1,90,1

[Colours]
Combo1 : 226,226,226
Combo2 : 91,91,91
Combo3 : 192,192,192

[HitObjects]
64,64,382,1,0
152,64,549,1,0
240,64,715,1,0
328,64,881,1,0
416,64,1048,5,0
416,152,1214,1,0
416,240,1381,1,0
416,328,1547,1,0
328,328,1713,5,0
240,328,1880,1,0
152,328,2046,1,0
64,328,2213,1,0
64,240,2379,5,0
64,152,2545,1,0
64,64,2712,1,0
152,64,2878,5,4
400,320,3377,1,4
64,328,3876,2,0,B|124:353|164:352|232:312,1,160,4|0
296,272,4376,1,0
368,216,4542,1,0
440,160,4708,2,0,B|476:150|476:94,1,80
416,32,5041,2,0,B|362:29|344:80,1,80
256,64,5374,5,4
64,328,5707,1,0
64,240,5873,1,4
64,152,6040,2,0,C|72:100|137:100|138:144|203:143|208:96|278:99|284:147|335:149|336:112,1,480,4|0
424,136,7204,2,0,B|424:232,1,80
424,304,7537,2,4,B|320:304,1,80,0|0
256,304,7870,5,4
80,56,8369,1,4
448,56,8868,2,0,B|416:123|348:139|269:120|208:64,1,240,4|0
176,152,9534,1,0
232,224,9700,1,0
320,224,9866,1,0
384,288,10033,1,0
256,192,10199,12,2,12362
48,40,12695,5,2
48,128,12862,2,0,B|48:224,1,80,2|0
120,256,13194,2,0,B|120:160,1,80,8|0
192,128,13527,2,0,B|192:216,1,80
264,256,13860,2,0,B|264:168,1,80,8|0
336,128,14193,2,0,B|336:224,1,80
408,256,14525,2,0,B|408:168,1,80,8|0
480,128,14858,2,0,B|480:224,1,80
32,128,15191,2,0,B|32:216,1,80,8|0
64,288,15524,2,0,B|144:352,1,80
216,328,15857,2,0,B|312:320,1,80,8|0
376,288,16189,5,0
440,224,16356,1,0
416,136,16522,1,0
352,72,16688,2,0,B|275:22|192:88,1,160
120,120,17188,6,0,B|24:168,1,80,8|0
48,248,17520,2,0,B|120:304,1,80
192,336,17853,2,0,B|288:304,1,80,8|0
344,272,18186,1,0
464,136,18519,1,0
432,48,18685,1,0
168,280,19018,5,0
168,192,19184,2,0,B|96:152,1,80,8|0
96,64,19517,2,0,B|184:40,1,80
264,48,19850,2,0,B|360:96,1,80,8|0
400,144,20183,2,0,B|360:224,1,80
320,288,20515,5,0
232,288,20682,1,0
144,288,20848,2,0,B|136:242|176:216,2,80
56,288,21347,1,0
56,200,21514,1,0
56,112,21680,1,0
144,104,21847,2,0,B|216:40,1,80,8|0
296,48,22179,2,0,B|392:48,1,80
376,136,22512,2,0,B|447:175,1,80,8|0
448,264,22845,2,0,B|376:304,1,80
288,304,23178,5,0
224,240,23344,1,0
160,304,23510,1,0
32,168,23843,6,0,B|104:104,1,80
160,64,24176,1,0
232,112,24342,2,4,B|296:56,2,80
304,168,24842,2,0,B|341:203|384:184,1,80
384,96,25174,2,0,B|472:96,1,80,8|0
464,184,25507,2,0,B|464:272,1,80,0|0
392,312,25840,2,0,B|288:344,1,80,8|0
224,336,26173,6,0,B|56:280,1,160
72,192,26672,1,0
152,160,26838,1,0
72,112,27005,2,0,B|24:112|8:72,1,80
80,24,27337,1,0
152,72,27504,2,0,B|184:102|232:80,1,80
312,80,27837,1,0
312,168,28003,1,0
400,168,28169,1,2
400,80,28336,1,0
488,80,28502,1,2
488,168,28668,1,0
480,256,28835,6,2,B|392:304,1,80
328,328,29168,1,0
240,328,29334,1,2
240,240,29500,1,2
112,120,29833,2,0,B|77:84|40:120,2,80,8|0|0
200,120,30332,1,0
288,120,30499,2,0,B|285:168|336:184,1,80,8|0
408,136,30832,6,0,B|404:88|344:80,1,80
288,24,31164,2,0,B|192:24,1,80
120,24,31497,2,0,B|32:24,1,80
40,112,31830,1,0
40,200,31996,1,0
472,48,32329,2,0,B|376:48,1,80
304,48,32662,1,0
304,136,32828,1,0
216,136,32995,1,0
216,224,33161,1,0
128,224,33327,1,0
128,312,33494,1,0
40,312,33660,1,0
472,312,34159,5,4
40,312,34659,1,4
256,32,35158,1,4
256,312,35657,1,0
256,312,35823,1,0
256,312,35990,1,0
256,312,36156,1,0
256,312,36322,1,0
256,312,36489,1,0
256,312,36655,1,0
328,288,36822,5,2
328,288,36988,1,2
416,272,37154,1,0
456,192,37321,1,0
392,128,37487,1,2
392,128,37654,1,2
296,72,37820,1,0
296,160,37986,2,2,B|236:163|219:207|197:262|154:276|72:264,1,240
96,176,38652,1,0
456,56,38985,5,0
384,112,39151,1,0
456,160,39317,1,0
384,216,39484,1,0
240,320,39817,5,0
152,320,39983,1,0
48,176,40316,1,0
152,32,40649,2,0,B|240:32,1,80
232,120,40981,1,0
320,120,41148,2,0,B|360:200,1,80,8|0
400,264,41480,2,0,B|480:264,1,80
408,320,41813,2,0,B|328:320,1,80,8|0
240,320,42146,5,2
240,320,42312,1,2
272,232,42479,1,0
248,144,42645,1,0
200,72,42812,1,2
200,72,42978,1,2
112,56,43144,1,0
112,144,43311,2,0,B|70:133|51:185,1,80,2|0
48,272,43644,1,0
112,328,43810,1,0
176,272,43976,2,0,B|162:224|200:200,1,80
288,200,44309,5,0
376,200,44475,1,0
464,200,44642,1,0
48,112,44975,1,0
120,64,45141,2,0,B|208:104,1,80
280,112,45474,1,0
360,72,45640,2,0,B|448:24,1,80,0|2
480,104,45973,1,2
464,192,46139,2,0,B|456:240|392:256,1,80
328,280,46472,1,0
240,288,46639,2,0,B|202:304|168:264,1,80
104,200,46971,1,2
56,128,47138,1,2
256,192,47304,12,2,48802
88,312,49467,5,4
424,312,49800,1,4
256,56,50133,1,4
88,312,50798,5,0
152,248,50965,1,0
240,248,51131,1,0
304,192,51297,2,0,B|381:142|464:208,1,160
456,112,51797,6,0,B|384:32,1,80,8|0
312,56,52129,2,0,B|248:136,1,80
176,120,52462,2,0,B|120:48,1,80,8|0
40,56,52795,1,0
40,232,53128,1,0
128,232,53294,1,0
432,312,53627,1,0
432,224,53793,2,0,B|360:184,1,80,8|0
352,96,54126,2,0,B|440:72,1,80
352,96,54459,2,0,B|272:48,1,80,8|0
352,96,54792,2,0,B|312:176,1,80
264,240,55124,5,0
208,304,55291,1,0
144,240,55457,2,0,B|136:194|176:168,2,80
80,304,55956,1,0
32,232,56123,1,0
64,152,56289,1,0
128,88,56456,2,0,B|144:39|200:48,1,80,8|0
272,48,56788,2,0,B|368:48,1,80
416,112,57121,2,0,B|312:112,1,80,8|0
272,168,57454,2,0,B|360:168,1,80
352,256,57787,5,0
288,320,57953,1,0
232,256,58119,1,0
56,248,58452,6,0,B|56:152,1,80
56,80,58785,1,0
144,80,58951,2,4,B|232:80,2,80
152,168,59451,2,0,B|189:203|232:184,1,80
312,160,59783,2,0,B|350:125|392:152,1,80,8|0
424,224,60116,2,0,B|392:263|344:248,1,80,0|0
352,336,60449,2,0,B|256:336,1,80,8|0
184,312,60782,6,0,B|16:256,1,160
56,184,61281,1,0
136,208,61447,1,0
216,232,61614,2,0,B|312:264,1,80
376,288,61946,1,0
440,232,62113,2,0,B|460:190|432:152,1,80
392,80,62446,1,0
304,80,62612,1,0
392,80,62778,1,2
304,80,62945,1,0
392,80,63111,1,2
304,80,63277,1,0
216,80,63444,6,2,B|179:42|128:64,1,80
64,104,63777,1,0
64,192,63943,1,2
128,248,64109,1,2
288,176,64442,2,0,B|324:142|359:178,2,80,8|0|0
256,256,64941,1,0
344,256,65108,2,0,B|341:304|392:320,1,80,8|0
456,264,65441,6,0,B|452:216|392:208,1,80
376,128,65773,2,0,B|424:48,1,80
328,40,66106,2,0,B|288:112,1,80
200,112,66439,1,0
112,112,66605,1,0
416,280,66938,2,0,B|416:176,1,80
416,112,67271,1,0
328,112,67437,1,0
240,112,67604,1,0
328,112,67770,1,0
240,112,67936,1,0
152,112,68103,1,0
240,112,68269,1,0
24,32,68768,5,4
256,352,69267,1,4
480,32,69767,1,4
256,352,70266,1,0
256,352,70432,1,0
256,352,70599,1,0
256,352,70765,1,0
256,352,70931,1,0
256,352,71098,1,0
256,352,71264,1,0
320,288,71431,5,2
320,288,71597,1,2
408,272,71763,1,0
440,192,71930,1,0
384,120,72096,1,2
384,120,72262,1,2
304,88,72429,1,0
216,72,72595,2,2,B|157:63|128:91|119:142|93:175|16:184,1,240
24,272,73261,1,0
408,272,73594,5,0
408,184,73760,1,0
408,96,73926,1,0
320,96,74093,1,0
144,96,74426,5,0
56,96,74592,1,0
128,256,74925,1,0
288,328,75258,2,0,B|368:296,1,80
360,208,75590,1,0
360,120,75757,2,0,B|456:120,1,80,8|0
440,32,76089,2,0,B|344:32,1,80
288,80,76422,2,0,B|384:80,1,80,8|0
288,80,76755,5,2
288,80,76921,1,2
224,48,77088,1,0
136,56,77254,1,0
80,128,77421,1,2
80,128,77587,1,2
112,208,77753,1,0
184,256,77920,2,0,B|209:296|264:288,1,80,2|0
336,272,78253,1,0
400,216,78419,1,0
448,144,78585,2,0,B|484:122|472:72,1,80
384,72,78918,5,0
296,72,79084,1,0
240,136,79251,1,0
64,136,79584,1,0
64,224,79750,2,0,B|160:224,1,80
232,224,80083,1,0
232,312,80249,2,0,B|320:312,1,80,0|2
400,312,80582,1,2
408,224,80748,2,0,B|451:215|459:167,1,80
472,80,81081,1,0
384,72,81248,2,0,B|346:88|312:48,1,80
224,48,81580,1,2
136,48,81747,1,2
256,192,81913,12,2,84742
