osu file format v9

[General]
AudioFilename: Sky High yorukichi.mp3
AudioLeadIn: 0
PreviewTime: 20633
Countdown: 0
SampleSet: Soft
StackLeniency: 0.4
Mode: 0
LetterboxInBreaks: 0

[Editor]
Bookmarks: 35734,49956,64178,127512,128178,131734
DistanceSpacing: 1.1
BeatDivisor: 4
GridSize: 4

[Metadata]
Title:Sky High
Artist:Yorukichi
Creator:Lanttu
Version:TR
Source:
Tags:UTAU Kasane Teto Utattemita nico nakano4 TakamuraRin electro

[Difficulty]
HPDrainRate:5
CircleSize:4
OverallDifficulty:5
ApproachRate:7
SliderMultiplier:1.7
SliderTickRate:2

[Events]
//Background and Video events
0,0,"bg.png"
//Break Periods
//Storyboard Layer 0 (Background)
//Storyboard Layer 1 (Fail)
//Storyboard Layer 2 (Pass)
//Storyboard Layer 3 (Foreground)
//Storyboard Sound Samples
//Background Colour Transformations
3,100,255,255,255

[TimingPoints]
7290,444.444444444444,4,2,1,75,1,0
8623,-100,4,2,2,55,0,0
8734,-100,4,2,1,75,0,0
12178,-100,4,2,2,55,0,0
12289,-100,4,2,1,75,0,0
13956,-100,4,2,1,45,0,0
14067,-100,4,2,1,75,0,0
19289,-100,4,2,2,55,0,0
19401,-100,4,2,1,75,0,0
21067,-100,4,2,1,45,0,0
21178,-100,4,2,1,75,0,0
22845,-100,4,2,2,55,0,0
22956,-100,4,2,1,75,0,0
26401,-100,4,2,2,55,0,0
26512,-100,4,2,1,75,0,0
28178,-100,4,2,1,45,0,0
28289,-100,4,2,1,75,0,0
29956,-100,4,2,2,55,0,0
30067,-100,4,2,1,75,0,0
33512,-100,4,2,2,55,0,0
33623,-100,4,2,1,75,0,0
35734,-200,4,2,1,40,0,0
36956,-200,4,2,2,30,0,0
37178,-200,4,2,1,40,0,0
40623,-200,4,2,2,30,0,0
40734,-200,4,2,1,40,0,0
42401,-200,4,2,1,35,0,0
42512,-200,4,2,1,40,0,0
44178,-200,4,2,2,30,0,0
44289,-200,4,2,1,40,0,0
46401,-200,4,2,1,35,0,0
46512,-200,4,2,1,30,0,0
46623,-200,4,2,1,25,0,0
46734,-200,4,2,1,20,0,0
46845,-200,4,2,1,15,0,0
46956,-200,4,2,1,10,0,0
47067,-200,4,2,1,5,0,0
47956,-200,4,2,1,15,0,0
48178,-200,4,2,1,25,0,0
48401,-200,4,2,1,35,0,0
48623,-200,4,2,1,45,0,0
48845,-200,4,2,1,55,0,0
49067,-100,4,2,1,65,0,0
49289,-100,4,2,1,75,0,0
51289,-100,4,2,2,55,0,0
51401,-100,4,2,1,75,0,0
54845,-100,4,2,2,55,0,0
54956,-100,4,2,1,75,0,0
56623,-100,4,2,1,45,0,0
56734,-100,4,2,1,75,0,0
58401,-100,4,2,2,55,0,0
58512,-100,4,2,1,75,0,0
61956,-100,4,2,2,55,0,0
62067,-100,4,2,1,75,0,0
63734,-100,4,2,1,45,0,0
63845,-100,4,2,1,75,0,0
64623,-200,4,2,1,45,0,0
67289,-200,4,2,1,25,0,0
67512,-200,4,2,1,35,0,0
67734,-200,4,2,1,45,0,0
68178,-200,4,2,1,25,0,0
68401,-200,4,2,1,35,0,0
68623,-200,4,2,1,45,0,0
71734,-133.333333333333,4,2,1,60,0,0
74401,-133.333333333333,4,2,1,40,0,0
74623,-133.333333333333,4,2,1,50,0,0
74845,-133.333333333333,4,2,1,60,0,0
75289,-133.333333333333,4,2,1,40,0,0
75512,-133.333333333333,4,2,1,50,0,0
75734,-133.333333333333,4,2,1,60,0,0
77067,-100,4,2,1,75,0,0
81956,-100,4,2,1,90,0,1
82067,-100,4,2,1,80,0,1
82623,-100,4,2,1,100,0,1
82734,-100,4,2,1,80,0,1
83067,-100,4,2,1,100,0,1
83178,-100,4,2,1,80,0,1
83512,-100,4,2,1,100,0,1
83623,-100,4,2,1,80,0,1
83956,-100,4,2,1,100,0,1
84067,-100,4,2,1,80,0,1
84401,-100,4,2,1,100,0,1
84512,-100,4,2,1,80,0,1
84845,-100,4,2,1,100,0,1
84956,-100,4,2,1,80,0,1
85512,-100,4,2,1,90,0,1
85623,-100,4,2,1,80,0,1
86178,-100,4,2,1,100,0,1
86289,-100,4,2,1,80,0,1
86623,-100,4,2,1,100,0,1
86734,-100,4,2,1,80,0,1
87067,-100,4,2,1,100,0,1
87178,-100,4,2,1,80,0,1
87512,-100,4,2,1,100,0,1
87623,-100,4,2,1,80,0,1
87956,-100,4,2,1,100,0,1
88067,-100,4,2,1,80,0,1
89067,-100,4,2,1,90,0,1
89178,-100,4,2,1,80,0,1
89734,-100,4,2,1,100,0,1
89845,-100,4,2,1,80,0,1
90178,-100,4,2,1,100,0,1
90289,-100,4,2,1,80,0,1
90623,-100,4,2,1,100,0,1
90734,-100,4,2,1,80,0,1
91067,-100,4,2,1,100,0,1
91178,-100,4,2,1,80,0,1
91512,-100,4,2,1,100,0,1
91623,-100,4,2,1,80,0,1
91956,-100,4,2,1,100,0,1
92067,-100,4,2,1,80,0,1
92623,-100,4,2,1,90,0,1
92734,-100,4,2,1,80,0,1
93289,-100,4,2,1,100,0,1
93401,-100,4,2,1,80,0,1
93734,-100,4,2,1,100,0,1
93845,-100,4,2,1,80,0,1
94178,-100,4,2,1,100,0,1
94289,-100,4,2,1,80,0,1
94401,-100,4,2,1,90,0,1
94512,-100,4,2,1,80,0,1
94623,-100,4,2,1,100,0,1
94734,-100,4,2,1,80,0,1
94845,-100,4,2,1,90,0,1
94956,-100,4,2,1,80,0,1
95067,-100,4,2,1,100,0,1
95178,-100,4,2,1,80,0,1
95289,-100,4,2,1,90,0,1
95401,-100,4,2,1,80,0,1
95512,-100,4,2,1,90,0,1
95623,-100,4,2,1,80,0,1
95734,-100,4,2,1,80,0,0
96178,-100,4,2,1,90,0,1
96289,-100,4,2,1,80,0,1
96845,-100,4,2,1,100,0,1
96956,-100,4,2,1,80,0,1
97289,-100,4,2,1,100,0,1
97401,-100,4,2,1,80,0,1
97734,-100,4,2,1,100,0,1
97845,-100,4,2,1,80,0,1
98178,-100,4,2,1,100,0,1
98289,-100,4,2,1,80,0,1
98623,-100,4,2,1,100,0,1
98734,-100,4,2,1,80,0,1
99512,-100,4,2,1,100,0,1
99623,-100,4,2,1,80,0,1
99734,-100,4,2,1,90,0,1
99845,-100,4,2,1,80,0,1
100401,-100,4,2,1,100,0,1
100512,-100,4,2,1,80,0,1
100845,-100,4,2,1,100,0,1
100956,-100,4,2,1,80,0,1
101289,-100,4,2,1,100,0,1
101401,-100,4,2,1,80,0,1
101734,-100,4,2,1,100,0,1
101845,-100,4,2,1,80,0,1
102178,-100,4,2,1,100,0,1
102289,-100,4,2,1,80,0,1
103289,-100,4,2,1,90,0,1
103401,-100,4,2,1,80,0,1
103956,-100,4,2,1,100,0,1
104067,-100,4,2,1,80,0,1
104401,-100,4,2,1,100,0,1
104512,-100,4,2,1,80,0,1
104845,-100,4,2,1,100,0,1
104956,-100,4,2,1,80,0,1
105289,-100,4,2,1,100,0,1
105401,-100,4,2,1,80,0,1
105734,-100,4,2,1,100,0,1
105845,-100,4,2,1,80,0,1
106178,-100,4,2,1,100,0,1
106289,-100,4,2,1,80,0,1
106845,-100,4,2,1,90,0,1
106956,-100,4,2,1,80,0,1
107512,-100,4,2,1,100,0,1
107623,-100,4,2,1,80,0,1
108401,-100,4,2,1,100,0,1
108512,-100,4,2,1,80,0,1
108623,-100,4,2,1,90,0,1
108734,-100,4,2,1,80,0,1
108845,-100,4,2,1,100,0,1
108956,-100,4,2,1,80,0,1
109067,-100,4,2,1,90,0,1
109178,-100,4,2,1,80,0,1
109289,-100,4,2,1,100,0,1
109401,-100,4,2,1,80,0,1
109512,-100,4,2,1,90,0,1
109623,-100,4,2,1,80,0,1
109734,-100,4,2,1,90,0,1
109845,-100,4,2,1,80,0,1
109956,-100,4,2,1,90,0,0
110178,-100,4,2,1,75,0,0
110401,-100,4,2,1,85,0,0
110512,-100,4,2,1,75,0,0
111734,-100,4,2,2,55,0,0
111845,-100,4,2,1,75,0,0
115289,-100,4,2,2,55,0,0
115401,-100,4,2,1,75,0,0
118845,-100,4,2,2,55,0,0
118956,-100,4,2,1,75,0,0
122401,-100,4,2,2,55,0,0
122512,-100,4,2,1,75,0,0
127512,-100,4,2,1,70,0,0
127623,-100,4,2,1,68,0,0
127734,-100,4,2,1,66,0,0
127845,-100,4,2,1,64,0,0
127956,-100,4,2,1,62,0,0
128067,-100,4,2,1,60,0,0
128178,-100,4,2,1,58,0,0
128289,-100,4,2,1,56,0,0
128401,-100,4,2,1,54,0,0
128512,-100,4,2,1,52,0,0
128623,-100,4,2,1,50,0,0
128734,-100,4,2,1,48,0,0
128845,-100,4,2,1,46,0,0
128956,-100,4,2,1,44,0,0
129067,-100,4,2,1,42,0,0
129178,-100,4,2,1,40,0,0
129289,-100,4,2,1,38,0,0
129401,-100,4,2,1,36,0,0
129512,-100,4,2,1,34,0,0
129623,-100,4,2,1,32,0,0
129734,-100,4,2,1,30,0,0
129845,-100,4,2,1,32,0,0
129956,-100,4,2,1,34,0,0
130067,-100,4,2,1,36,0,0
130178,-100,4,2,1,38,0,0
130289,-100,4,2,1,40,0,0
130401,-100,4,2,1,42,0,0
130512,-100,4,2,1,44,0,0
130623,-100,4,2,1,46,0,0
130734,-100,4,2,1,48,0,0
130845,-100,4,2,1,50,0,0
130956,-100,4,2,1,52,0,0
131067,-100,4,2,1,54,0,0
131178,-100,4,2,1,56,0,0
131289,-100,4,2,1,58,0,0
131401,-100,4,2,1,60,0,0
131512,-100,4,2,1,62,0,0
131623,-100,4,2,1,64,0,0
131734,-100,4,2,1,5,0,0

[Colours]
Combo1 : 80,215,245
Combo2 : 240,240,240
Combo3 : 48,48,48

[HitObjects]
256,112,7289,1,8
328,48,7512,1,0
360,136,7734,2,0,B|472:136,2,85,8|0|8
256,112,8401,1,2
188,48,8623,2,0,B|84:144,1,127.5,8|0
52,152,9067,6,0,B|116:116|184:156,1,127.5
256,196,9623,1,0
256,244,9734,2,0,B|256:292,2,42.5,0|0|8
344,276,10178,2,0,B|388:296|436:272,1,85,2|8
492,208,10623,1,0
400,192,10845,22,0,B|420:148|396:100,1,85,8|0
340,40,11289,2,0,B|256:80|168:36,1,170,8|8
100,92,11956,1,2
180,140,12178,2,0,B|292:160,1,85,8|0
252,248,12623,6,0,B|277:182|362:149,2,127.5
344,252,13512,2,0,B|392:216,4,42.5,0|0|0|0|4
424,300,14178,1,0
340,340,14401,22,0,B|256:368|164:336,1,170,8|8
80,340,15067,2,0,B|128:264,2,85,0|8|2
24,264,15734,2,0,B|104:152,1,127.5
56,144,16178,6,0,B|120:176|196:136,1,127.5,0|0
264,104,16734,1,0
264,104,16845,2,0,B|264:48,2,42.5,0|0|8
216,184,17289,2,0,B|268:168|320:192,1,85,2|8
388,148,17734,1,0
380,240,17956,22,0,B|292:271|261:358,1,170,8|8
216,276,18623,2,0,B|292:184,2,85,0|8|2
160,352,19289,2,0,B|96:312|28:360,1,127.5,8|0
40,304,19734,6,0,B|40:200,1,85
28,128,20178,1,8
112,84,20401,1,0
180,148,20623,1,0
132,228,20845,2,0,B|172:240|220:228,2,85,0|4|0
184,308,21512,22,0,B|240:308|268:280|268:280|372:268,1,170,8|8
440,288,22178,1,0
484,204,22401,1,8
408,152,22623,1,2
328,196,22845,2,0,B|164:224,1,127.5,8|0
160,240,23289,6,0,B|216:198|224:120,1,127.5
256,44,23845,1,0
300,32,23956,2,0,B|348:32,2,42.5,0|0|8
368,96,24401,2,0,B|387:53|435:33,2,85,2|0|0
460,112,25067,22,0,B|460:184|460:184|344:248,1,170,8|8
424,312,25734,2,0,B|508:268,2,85,0|8|2
336,340,26401,1,8
256,292,26623,1,0
176,340,26845,6,0,B|72:340,1,85
136,256,27289,2,0,B|40:256,1,85,8|0
88,172,27734,2,0,B|4:172,2,85,0|0|4
168,120,28401,1,0
244,68,28623,22,0,B|328:68,1,85
412,28,29067,2,8,B|315:50|296:155,1,170
392,128,29734,2,0,B|356:216,2,85,2|8|0
460,192,30401,6,0,B|412:316,1,127.5
324,288,30956,1,0
280,304,31067,2,0,B|212:304,2,42.5,0|0|8
256,212,31512,1,0
176,164,31734,1,8
92,120,31956,1,0
8,76,32178,22,0,B|8:256,1,170,8|8
12,340,32845,1,0
88,288,33067,2,0,B|132:268|176:292,1,85,8|2
132,204,33512,2,0,B|224:228,1,85,8|0
256,144,33956,6,0,B|344:184|428:140,1,170,8|8
488,208,34623,1,0
400,236,34845,2,0,B|284:244,3,85,8|0|4|0
256,316,35734,22,0,B|172:352|80:312,1,170,2|2
116,228,37067,1,8
92,136,37512,6,0,B|180:100|268:140,1,170,2|2
300,116,38623,1,8
344,96,38845,2,0,B|420:96,1,63.75,0|0
424,80,39289,22,0,B|388:160|428:256,1,170,10|0
332,224,40623,2,0,B|352:296,1,63.75,10|0
356,308,41067,6,0,B|192:308,1,148.75,2|2
140,332,42178,2,0,B|104:376,2,42.5,0|4|0
104,304,42845,22,0,B|123:259|102:217,1,85,2|0
12,248,43734,2,0,B|-7:203|14:161,1,85,2|8
68,92,44623,6,0,B|152:124|248:88,1,170,2|2
328,100,45956,1,0
264,168,46401,2,0,B|188:180,2,63.75,10|2|2
140,324,47956,21,0
184,336,48179,1,0
232,344,48401,1,0
280,344,48623,1,0
336,336,48845,1,0
380,324,49067,1,0
124,84,49956,6,0,B|176:96|236:76,1,85,12|0
252,72,50289,2,0,B|252:168,1,85,0|0
116,184,50845,1,8
68,264,51067,1,2
160,256,51289,2,0,B|252:268,1,85,8|0
188,340,51734,22,0,B|344:356,1,127.5
392,300,52289,1,0
420,264,52401,2,0,B|452:224,2,42.5,0|0|8
388,176,52845,2,0,B|336:248,2,85,0|8|0
340,96,53512,6,0,B|256:136|168:92,1,170,8|8
108,160,54178,2,0,B|212:196,2,85,0|8|2
184,216,54845,1,8
256,272,55067,1,0
332,216,55289,22,0,B|416:252|500:216,2,170,0|8|8
264,280,56401,2,0,B|352:324,2,85,0|4|0
196,216,57067,6,0,B|112:180|28:216,2,170,8|8|8
244,136,58178,2,0,B|160:112,2,85,2|8|0
216,48,58845,21,8
336,120,59178,1,0
428,124,59401,2,0,B|472:96,2,42.5
440,168,59734,2,0,B|464:256,1,85,8|0
408,328,60178,2,0,B|360:308|300:335,1,85,8|0
336,232,60623,6,0,B|172:272,1,170,8|8
96,328,61289,1,0
84,236,61512,2,0,B|102:194|82:148,2,85,8|2|8
172,268,62178,1,0
172,184,62401,22,0,B|148:96,1,85,8|0
214,35,62845,2,0,B|258:55|330:27,1,85,8|8
362,101,63289,2,0,B|340:184,1,85,8|10
344,276,63734,1,4
256,300,63956,1,0
168,276,64178,5,0
156,88,64623,22,0,B|60:144,1,85,0|0
72,224,65512,1,0
156,184,65956,5,8
212,260,66401,2,0,B|260:280|312:252,1,85,8|8
388,240,67289,1,0
404,196,67512,1,0
388,152,67734,21,8
300,116,68178,1,0
256,132,68401,1,0
212,116,68623,1,8
124,148,69067,1,0
140,192,69289,1,0
124,236,69512,6,0,B|64:272|64:272|88:316|48:368,1,170
144,360,70845,1,0
200,288,71289,21,8
191,147,71734,2,0,B|259:179|336:136,1,127.499996200204,0|8
428,66,72623,1,0
314,147,73067,5,8
316,288,73512,2,0,B|248:256|173:298,1,127.499996200204,0|8
64,345,74401,1,0
192,288,74845,21,8
192,148,75289,1,0
256,176,75512,1,0
320,148,75734,1,8
452,192,76178,2,0,B|412:264,1,63.749998100102
480,284,76623,6,0,B|416:256|348:288,1,127.499996200204,0|8
391,100,77512,1,0
303,68,77734,1,8
211,68,77956,1,0
123,100,78178,1,8
123,100,78401,21,8
424,324,79289,1,8
76,192,80178,5,8
256,236,80623,1,8
436,188,81067,2,0,B|480:228,4,42.5,8|0|0|0|8
312,48,81956,6,0,B|136:48,1,170,4|8
184,132,82623,1,0
228,216,82845,1,0
276,296,83067,2,0,B|360:296,2,85,0|8|0
324,216,83734,6,0,B|356:184|356:136,1,85
444,108,84178,2,0,B|428:204,2,85,8|0|0
372,52,84845,1,0
280,56,85067,1,8
280,56,85512,6,0,B|200:88|108:52,1,170,4|8
140,144,86178,2,0,B|40:108,2,85
84,220,86845,1,8
84,220,87067,1,0
20,288,87289,6,0,B|120:324,1,85
183,354,87734,1,0
222,271,87956,1,0
138,232,88178,1,0
256,88,88623,1,0
256,88,89067,6,0,B|336:88|336:88|360:40|436:40,1,170,4|8
416,136,89734,2,0,B|500:100,2,85
336,184,90401,1,8
256,236,90623,1,0
176,184,90845,5,0
210,97,91067,1,0
303,97,91289,2,0,B|303:13,2,85,8|0|0
212,80,91956,1,0
120,60,92178,1,8
260,184,92623,6,0,B|224:240|224:240|224:348,1,170,4|8
296,284,93289,2,0,B|296:376,2,85
376,236,93956,1,8
456,188,94178,1,0
460,96,94401,6,0,B|368:96,1,85,4|0
300,40,94845,2,0,B|253:60|200:34,1,85,4|0
140,96,95289,2,0,B|48:96,1,85,4|4
32,188,95734,1,4
32,188,96178,6,0,B|32:252|32:252|84:260|120:312,1,170,4|8
136,216,96845,2,0,B|172:240|196:280,2,85
168,128,97512,1,8
256,96,97734,1,0
344,128,97956,5,0
376,216,98178,2,0,B|340:240|316:280,2,85
394,309,98845,2,0,B|428:260|480:252|480:252|480:188,1,170,0|8
400,140,99512,1,0
336,72,99734,6,0,B|256:88|256:88|168:72,1,170
80,48,100401,2,0,B|12:96,2,85
108,136,101067,1,8
176,72,101289,1,0
108,136,101512,6,0,B|40:184,1,85
168,208,101956,1,8
92,264,102178,1,0
12,312,102401,1,0
196,292,102845,1,0
196,292,103289,6,0,B|276:256|276:256|360:296,1,170,4|8
340,200,103956,2,0,B|420:244,2,85
360,108,104623,1,8
304,184,104845,1,0
360,108,105067,5,0
280,156,105289,1,0
298,63,105512,2,0,B|250:79|190:55,2,85,8|0|0
389,46,106178,1,0
480,27,106401,1,8
298,63,106845,6,0,B|218:98|122:59,1,170,4|8
92,144,107512,1,0
132,228,107734,2,0,B|212:193|308:232,1,170,0|8
248,308,108401,1,0
306,224,108623,6,0,B|402:224,1,85,4|0
396,229,109067,2,0,B|466:182,1,85,4|0
460,177,109512,2,0,B|460:82,1,85,4|4
380,48,109956,1,4
380,48,110401,22,0,B|269:48|269:48|224:88,1,170,12|8
312,124,111067,2,0,B|412:124,2,85,0|8|2
256,200,111734,1,8
148,48,112178,22,0,B|124:137|29:163,1,170
80,244,112845,2,0,B|164:196,2,85,0|8|2
164,288,113512,1,8
256,308,113734,1,0
348,288,113956,6,0,B|436:316|520:284,2,170,8|8|8
304,204,115067,1,2
260,120,115289,1,8
316,44,115512,1,0
216,36,115734,22,0,B|128:8|44:40,2,170,0|0|8
156,108,116845,2,0,B|272:124,2,85,2|8|0
64,124,117512,6,0,B|32:292,2,170,8|8|8
140,180,118623,1,2
140,180,118845,2,0,B|124:264,1,85,8|0
172,344,119289,22,0,B|256:308|348:348,1,170,0|8
387,263,119956,1,2
387,263,120178,2,0,B|372:180,1,85,8|0
460,148,120623,1,10
424,60,120845,1,0
336,88,121067,5,8
172,176,121512,2,0,B|256:204|344:176,1,170,8|8
316,268,122178,1,2
256,340,122401,1,8
196,268,122623,1,0
256,196,122845,22,0,B|256:104,1,85,8|0
336,60,123289,2,0,B|336:168,1,85,0|8
416,100,123734,2,0,B|416:8,2,85,8|0|8
440,192,124401,1,8
468,280,124623,5,0
396,320,124956,21,2
304,216,125289,5,2
248,164,125623,21,0
188,288,125956,5,0
124,332,126289,21,2
112,192,126623,5,2
80,124,126956,1,0
256,192,127512,12,0,131734
