osu file format v9

[General]
AudioFilename: Sky High yorukichi.mp3
AudioLeadIn: 0
PreviewTime: 20633
Countdown: 0
SampleSet: Soft
StackLeniency: 0.4
Mode: 0
LetterboxInBreaks: 0

[Editor]
Bookmarks: 7300,21522,35744,49966,64188,78411,81966,96188,110411,124633
DistanceSpacing: 1
BeatDivisor: 4
GridSize: 4

[Metadata]
Title:Sky High
Artist:Yorukichi
Creator:Lanttu
Version:Normal
Source:
Tags:UTAU Kasane Teto Utattemita nico nakano4 TakamuraRin electro

[Difficulty]
HPDrainRate:4
CircleSize:3
OverallDifficulty:4
ApproachRate:5
SliderMultiplier:1.2
SliderTickRate:2

[Events]
//Background and Video events
0,0,"bg.png"
//Break Periods
2,46601,48756
//Storyboard Layer 0 (Background)
//Storyboard Layer 1 (Fail)
//Storyboard Layer 2 (Pass)
//Storyboard Layer 3 (Foreground)
//Storyboard Sound Samples
//Background Colour Transformations
3,100,255,255,255

[TimingPoints]
7290,444.444444444444,4,2,1,60,1,0
8623,-100,4,2,2,60,0,0
8845,-100,4,2,1,60,0,0
12178,-100,4,2,2,60,0,0
12401,-100,4,2,1,60,0,0
15734,-100,4,2,2,60,0,0
15956,-100,4,2,1,60,0,0
19289,-100,4,2,2,60,0,0
19512,-100,4,2,1,60,0,0
21512,-100,4,2,1,40,0,0
21734,-100,4,2,1,60,0,0
22845,-100,4,2,2,60,0,0
23067,-100,4,2,1,60,0,0
26401,-100,4,2,2,60,0,0
26623,-100,4,2,1,60,0,0
29956,-100,4,2,2,60,0,0
30178,-100,4,2,1,60,0,0
33512,-100,4,2,2,60,0,0
33734,-100,4,2,1,60,0,0
35734,-200,4,2,2,30,0,0
36623,-200,4,2,2,15,0,0
36845,-200,4,2,2,30,0,0
38401,-200,4,2,2,15,0,0
38623,-200,4,2,2,30,0,0
49956,-100,4,2,1,60,0,0
51289,-100,4,2,2,60,0,0
51512,-100,4,2,1,60,0,0
54845,-100,4,2,2,60,0,0
55067,-100,4,2,1,60,0,0
58401,-100,4,2,2,60,0,0
58623,-100,4,2,1,60,0,0
61956,-100,4,2,2,60,0,0
62178,-100,4,2,1,60,0,0
64178,-133.333333333333,4,2,1,60,0,0
78401,-200,4,2,1,30,0,0
81956,-100,4,2,1,100,0,1
95734,-100,4,2,1,100,0,0
96178,-100,4,2,1,100,0,1
109956,-100,4,2,1,50,0,0
110401,-100,4,2,1,60,0,0
111734,-100,4,2,2,60,0,0
111956,-100,4,2,1,60,0,0
115289,-100,4,2,2,60,0,0
115512,-100,4,2,1,60,0,0
118845,-100,4,2,2,60,0,0
119067,-100,4,2,1,60,0,0
122401,-100,4,2,2,60,0,0
122623,-100,4,2,1,60,0,0
124623,-100,4,2,1,50,0,0
128623,-100,4,2,0,5,0,0
129956,-100,4,2,0,10,0,0
130401,-100,4,2,0,15,0,0
130845,-100,4,2,0,20,0,0
131289,-100,4,2,0,25,0,0
131734,-100,4,2,0,5,0,0

[Colours]
Combo1 : 80,215,245
Combo2 : 240,240,240
Combo3 : 48,48,48

[HitObjects]
288,107,7289,2,0,B|407:83,1,120,0|8
392,204,8178,2,0,B|452:192,2,60,0|2|8
444,312,9067,2,0,B|472:348|516:364,2,90,0|8|0
412,260,9956,2,0,B|352:272,2,60,0|2|8
308,200,10845,6,0,B|276:256|208:264,1,120,0|8
104,320,11734,2,0,B|132:264,2,60,0|2|8
64,208,12623,2,0,B|23:288,2,90,0|8|0
92,156,13512,2,0,B|64:136|56:104,1,60,2|0
40,52,13956,1,10
160,72,14401,22,0,B|196:64|243:102|280:92,1,120,0|8
192,176,15289,2,0,B|200:208|200:248,2,60,0|2|8
308,208,16178,2,0,B|328:252|380:264,2,90,0|8|0
344,160,17067,2,0,B|380:112,2,60,0|2|8
464,164,17956,5,0
496,280,18401,1,8
376,264,18845,2,0,B|384:296|368:328,2,60,0|2|8
256,280,19734,22,0,B|132:320,1,120,0|8
40,256,20623,2,0,B|164:216,1,120,0|8
212,200,21289,1,0
268,180,21512,6,0,B|268:132|328:128|328:80,1,120,4|8
448,80,22401,2,0,B|464:48|488:32,2,60,0|2|8
448,200,23289,2,0,B|448:236|468:252|468:288,2,90,0|8|0
391,220,24178,2,0,B|334:240,1,60,0|2
276,260,24623,1,8
208,356,25067,22,0,B|219:289|168:248,1,120,0|8
96,336,25956,2,0,B|28:368,2,60,0|2|8
124,280,26623,2,0,B|124:240|56:228|56:184,1,120
56,128,27289,2,0,B|56:62,1,60,8|0
212,149,27956,2,0,B|179:199,2,60,0|8|0
244,100,28623,5,0
356,60,29067,1,8
408,168,29512,2,0,B|480:156,2,60,0|2|8
400,288,30401,2,0,B|440:308|468:344,2,90,0|8|0
344,272,31289,2,0,B|288:324,1,60,0|2
252,280,31734,2,0,B|196:300,1,60,8|0
140,320,32178,21,0
140,320,32623,1,8
112,204,33067,2,0,B|80:260,1,60,0|2
48,308,33512,2,0,B|0:260,2,60,8|0|0
28,188,34401,6,0,B|12:124,1,60,8|2
72,124,34845,2,0,B|80:60,1,60,0|2
136,80,35289,2,0,B|200:96|260:84,1,120,10|2
372,60,36623,21,2
476,120,37512,1,2
372,180,38401,1,2
372,60,39289,1,2
460,216,40623,5,8
404,280,41067,2,0,B|368:324|308:324,1,105,2|2
248,324,42178,2,0,B|220:324,3,30,0|0|0|2
144,232,43734,21,0
40,172,44623,1,2
144,112,45512,1,2
144,232,46401,1,2
144,232,49956,6,0,B|40:172,1,120,4|8
68,56,50845,2,0,B|40:48|20:24,2,60,0|2|8
188,60,51734,2,0,B|152:88|136:132,2,90,0|8|0
244,40,52623,2,0,B|276:96,2,60,0|2|8
364,36,53512,22,0,B|423:140,1,120,0|8
512,60,54401,2,0,B|505:139,1,60,0|2
501,179,54845,2,0,B|494:250,1,60,8|0
488,296,55289,2,0,B|448:296|428:352|384:352,1,120,0|8
352,236,56178,2,0,B|332:212|296:212,2,60,0|0|10
276,332,57067,6,0,B|216:324|152:352,1,120,0|8
96,248,57956,2,0,B|80:304,2,60,0|2|8
128,132,58845,2,0,B|84:148|40:148,2,90,0|8|0
184,108,59734,2,0,B|188:76|204:52,1,60,0|2
260,68,60178,2,0,B|280:44|312:40,2,60,8|0|0
340,160,61067,21,8
424,76,61512,1,0
435,196,61956,2,0,B|441:255,1,60,8|0
448,316,62401,2,0,B|412:264|344:260,1,120,0|8
240,316,63289,2,0,B|260:256,2,60,0|2|8
136,344,64178,5,0
136,344,64623,2,0,B|165:256,1,89.9999973177911,2|0
64,300,65512,2,0,B|93:212,1,89.9999973177911,2|0
36,124,66401,2,0,B|7:209,1,89.9999973177911,2|0
108,168,67290,2,0,B|137:80,1,89.9999973177911,2|0
200,168,68178,22,0,B|229:80,1,89.9999973177911,2|0
304,140,69067,6,0,B|336:104,2,44.9999986588955,2|0|0
412,160,69956,2,0,B|464:144,2,44.9999986588955,2|0|0
488,236,70845,2,0,B|544:244,2,44.9999986588955,2|0|0
472,344,71734,22,0,B|400:292,1,89.9999973177911,2|0
308,352,72623,6,0,B|292:252,1,89.9999973177911,2|0
188,284,73512,22,0,B|208:196,1,89.9999973177911,2|0
108,156,74401,6,0,B|176:92,1,89.9999973177911,2|0
76,52,75289,22,0,B|8:116,1,89.9999973177911,2|0
48,215,76178,6,0,B|67:269,2,44.9999986588955,2|0|0
148,176,77067,2,0,B|196:200,2,44.9999986588955,2|0|0
224,100,77956,2,0,B|276:100,2,44.9999986588955,2|0|0
224,100,79289,21,0
356,300,80178,2,0,B|416:276,1,60
300,236,81067,2,0,B|360:212,1,60
468,256,81956,22,0,B|357:300,1,120,4|8
276,212,82845,1,2
228,248,83067,1,0
172,264,83289,1,8
68,320,83734,2,0,B|48:256|72:204,1,120,2|8
176,144,84623,2,0,B|148:136|128:112,1,60,2|0
92,64,85067,1,8
204,24,85512,6,0,B|292:108,1,120,4|8
384,28,86401,1,2
416,80,86623,1,0
464,112,86845,1,8
360,172,87289,2,0,B|399:223|460:230,1,120,2|8
488,348,88178,2,0,B|464:324|428:316,1,60,2|0
376,308,88623,1,8
292,224,89067,22,0,B|292:264|228:280|228:320,1,120,4|8
208,200,89956,1,2
152,180,90178,1,0
104,148,90401,1,8
56,40,90845,2,0,B|40:100|-16:136,1,120,2|8
104,148,91734,6,0,B|128:120|136:92,1,60,2|0
188,124,92178,2,0,B|200:96|200:64,1,60,8|0
160,20,92623,22,0,B|216:40|280:40,1,120,4|8
396,32,93512,1,2
356,76,93734,1,0
328,128,93956,1,8
448,112,94401,6,0,B|416:164|412:228,1,120,2|8
460,336,95289,1,2
408,304,95512,1,0
348,296,95734,1,8
236,336,96178,22,0,B|260:212,1,120,4|8
280,100,97067,1,2
236,140,97289,1,0
180,164,97512,1,8
152,280,97956,2,0,B|108:240|96:172,1,120,2|8
56,288,98845,2,0,B|36:260|28:224,1,60,2|0
16,176,99289,2,0,B|8:140|20:96,1,60,8|0
32,59,99734,6,0,B|156:79,1,120,4|8
100,188,100623,1,2
160,176,100845,1,0
220,164,101067,1,8
268,52,101512,2,0,B|308:100|364:120,1,120,2|8
484,112,102401,2,0,B|476:80|460:56,1,60,2|0
420,16,102845,1,8
364,120,103289,22,0,B|376:184|428:216,1,120,4|8
460,332,104178,1,2
480,276,104401,1,0
512,224,104623,1,8
392,288,105067,2,0,B|340:320|272:320,1,120,2|8
156,320,105956,6,0,B|184:248,1,60,2|0
120,248,106401,2,0,B|120:176,1,60,8|0
64,164,106845,22,0,B|100:112|100:48,1,120,4|8
220,36,107734,1,2
220,96,107956,1,0
204,152,108178,1,8
316,196,108623,2,0,B|372:224|432:232,1,120,2|8
488,236,109289,2,0,B|496:204|516:184,1,60,0|2
420,112,109956,5,2
420,112,110401,2,0,B|432:232,1,120,4|8
444,352,111289,2,0,B|524:320,2,60,0|2|8
352,276,112178,2,0,B|320:308|272:316,2,90,0|8|0
312,232,113067,2,0,B|272:188,1,60,0|2
232,144,113512,1,8
200,260,113956,6,0,B|92:192,1,120,0|8
104,308,114845,2,0,B|40:316,2,60,0|2|8
20,220,115734,2,0,B|-3:120,2,90,0|8|0
80,212,116623,2,0,B|128:72,1,120,0|8
240,96,117512,21,4
148,20,117956,1,8
268,20,118401,2,0,B|344:20,2,60,0|2|8
340,116,119289,2,0,B|372:144|428:148,2,90,0|8|0
324,172,120178,2,0,B|308:232,1,60,0|2
292,288,120623,1,8
408,260,121067,6,0,B|472:264|520:216,1,120,0|8
424,148,121956,2,0,B|396:92,2,60,0|2|8
408,260,122845,22,0,B|356:228|356:228|332:176,1,120,0|8
180,174,123734,2,0,B|156:228|156:228|104:260,1,120,0|8
36,160,124623,6,0,B|120:124,1,90,0|2
181,57,125289,2,0,B|256:108,1,90,0|2
256,108,125956,2,0,B|330:57,1,90,0|2
393,124,126623,2,0,B|476:160,1,90,0|2
476,160,127512,1,2
256,192,128623,12,0,131734
