osu file format v9

[General]
AudioFilename: Sky High yorukichi.mp3
AudioLeadIn: 0
PreviewTime: 20633
Countdown: 0
SampleSet: Soft
StackLeniency: 0.4
Mode: 0
LetterboxInBreaks: 0

[Editor]
Bookmarks: 7300,21522,35744,49966,64188,78411,81966,96188,110411,124633
DistanceSpacing: 1
BeatDivisor: 6
GridSize: 4

[Metadata]
Title:Sky High
Artist:Yorukichi
Creator:Lanttu
Version:Insane
Source:
Tags:UTAU Kasane Teto Utattemita nico nakano4 TakamuraRin electro

[Difficulty]
HPDrainRate:7
CircleSize:4
OverallDifficulty:7
ApproachRate:8
SliderMultiplier:1.6
SliderTickRate:2

[Events]
//Background and Video events
0,0,"bg.png"
//Break Periods
//Storyboard Layer 0 (Background)
//Storyboard Layer 1 (Fail)
//Storyboard Layer 2 (Pass)
//Storyboard Layer 3 (Foreground)
//Storyboard Sound Samples
//Background Colour Transformations
3,100,255,255,255

[TimingPoints]
7290,444.444444444444,4,2,1,60,1,0
8623,-100,4,2,2,60,0,0
8845,-100,4,2,1,60,0,0
12178,-100,4,2,2,60,0,0
12401,-100,4,2,1,60,0,0
15734,-100,4,2,2,60,0,0
15956,-100,4,2,1,60,0,0
19289,-100,4,2,2,60,0,0
19512,-100,4,2,1,60,0,0
21512,-100,4,2,1,40,0,0
21734,-100,4,2,1,60,0,0
22845,-100,4,2,2,60,0,0
23067,-100,4,2,1,60,0,0
26401,-100,4,2,2,60,0,0
26623,-100,4,2,1,60,0,0
29956,-100,4,2,2,60,0,0
30178,-100,4,2,1,60,0,0
33512,-100,4,2,2,60,0,0
33734,-100,4,2,1,60,0,0
35734,-200,4,2,2,30,0,0
47956,-200,4,2,2,20,0,0
49956,-100,4,2,1,60,0,0
51289,-100,4,2,2,60,0,0
51512,-100,4,2,1,60,0,0
54845,-100,4,2,2,60,0,0
55067,-100,4,2,1,60,0,0
58401,-100,4,2,2,60,0,0
58623,-100,4,2,1,60,0,0
61956,-100,4,2,2,60,0,0
62178,-100,4,2,1,60,0,0
64178,-200,4,2,1,60,0,0
65512,-166.666666666667,4,2,1,60,0,0
66401,-142.857142857143,4,2,1,60,0,0
67289,-125,4,2,1,60,0,0
68178,-100,4,2,1,60,0,0
71734,-200,4,2,1,60,0,0
72623,-166.666666666667,4,2,1,60,0,0
73512,-142.857142857143,4,2,1,60,0,0
74401,-125,4,2,1,60,0,0
75289,-100,4,2,1,60,0,0
78401,-200,4,2,1,30,0,0
81956,-100,4,2,1,100,0,1
95734,-100,4,2,1,100,0,0
96178,-100,4,2,1,100,0,1
109956,-200,4,2,1,100,0,0
110401,-100,4,2,1,60,0,0
111734,-100,4,2,2,60,0,0
111956,-100,4,2,1,60,0,0
115289,-100,4,2,2,60,0,0
115512,-100,4,2,1,60,0,0
118845,-100,4,2,2,60,0,0
119067,-100,4,2,1,60,0,0
122401,-100,4,2,2,60,0,0
122623,-100,4,2,1,60,0,0
124623,-100,4,2,0,50,0,0
128623,-100,4,2,0,5,0,0
129956,-100,4,2,0,10,0,0
130401,-100,4,2,0,15,0,0
130845,-100,4,2,0,20,0,0
131289,-100,4,2,0,25,0,0
131734,-100,4,2,0,5,0,0

[Colours]
Combo1 : 80,215,245
Combo2 : 240,240,240
Combo3 : 48,48,48

[HitObjects]
288,108,7289,2,0,B|444:76,2,160,0|8|0
220,64,8401,1,2
140,60,8623,2,0,B|152:148|232:184,1,160,8|0
348,216,9401,6,0,B|304:216|272:244,1,80,8|0
256,264,9734,2,0,B|268:304,2,40
230,183,10178,1,2
180,244,10401,1,8
108,280,10623,1,0
28,288,10845,22,0,B|48:124,2,160,0|8|0
20,368,11956,1,0
28,288,12178,2,0,B|92:240|180:244,1,160,8|0
292,288,12956,1,8
178,243,13289,1,0
256,216,13512,5,0
292,288,13734,2,0,B|310:324,2,40,0|0|8
372,288,14178,2,0,B|405:310,2,40
504,376,14845,21,8
512,216,15289,1,0
508,296,15512,1,2
440,252,15734,2,0,B|400:176|312:168,1,160,8|0
192,172,16512,6,0,B|232:160|252:124,1,80,8|0
264,100,16845,2,0,B|304:92,2,40
184,96,17289,1,2
116,52,17512,1,8
36,36,17734,1,0
44,116,17956,21,0
44,116,18401,1,8
44,116,18845,1,0
92,180,19067,1,2
124,252,19289,2,0,B|44:284|24:372,1,160,8|0
104,384,19956,6,0,B|116:344|156:324,1,80,0|8
236,328,20401,2,0,B|212:292|212:244,1,80
212,172,20845,2,0,B|150:197,2,40,0|0|10
288,152,21289,1,0
368,144,21512,22,0,B|392:196|468:192|492:244,1,160,4|8
368,344,22401,2,0,B|384:304|420:284,1,80,0|2
448,360,22845,2,0,B|364:360|300:300,1,160,8|0
292,184,23623,6,0,B|280:220|248:252,1,80,8|0
228,272,23956,2,0,B|196:244,2,40
160,316,24401,1,2
84,336,24623,1,8
4,340,24845,1,2
4,340,25067,21,0
68,192,25512,1,8
4,44,25956,1,0
36,116,26178,1,2
68,192,26401,1,8
140,156,26623,6,0,B|216:120|296:144,1,160
372,172,27289,1,8
312,224,27512,1,0
296,144,27734,2,0,B|316:104|356:92,1,80,2|0
432,80,28178,2,0,B|404:48|404:0,1,80,10|0
484,20,28623,22,0,B|512:44|524:96|500:136|460:156,1,160,0|8
488,312,29512,2,0,B|473:218,1,80,0|2
404,272,29956,2,0,B|348:220|256:224,1,160,8|0
184,320,30734,6,0,B|192:280|184:240,1,80,8|0
176,212,31067,2,0,B|168:188|152:168,2,40
108,256,31512,1,2
68,324,31734,1,8
8,272,31956,1,0
48,200,32178,21,0
48,200,32623,1,8
48,200,33067,1,0
96,136,33289,1,2
16,120,33512,1,8
64,56,33734,1,0
64,56,33956,6,0,B|104:64|148:56,1,80
224,48,34401,2,0,B|208:84|200:128,1,80,8|0
196,204,34845,1,2
238,310,35067,1,0
162,278,35289,1,10
270,235,35512,1,0
372,192,35734,21,2
500,24,36623,1,0
488,92,36845,2,0,B|481:133,1,40,2|8
460,248,37512,1,2
224,280,38401,6,0,B|264:274,1,40,0|2
332,266,38845,2,0,B|365:262,4,20
332,266,40401,22,0,B|292:271,1,40,2|0
176,292,41067,1,2
76,308,41512,1,0
56,216,41734,2,0,B|48:189,2,20,0|0|2
132,200,42178,5,2
116,132,42401,1,2
100,64,42623,2,0,B|94:42,2,20
100,64,43734,21,0
168,67,43956,2,0,B|209:70,1,40,2|8
328,80,44623,6,0,B|380:36,2,60,0|2|0
376,132,45512,2,0,B|412:100,1,40,0|2
452,160,45956,2,0,B|480:136,4,20
452,160,47956,22,0,B|418:189,1,40
420,280,48401,2,0,B|454:251,1,40
356,240,48845,2,0,B|322:269,1,40
340,352,49289,2,0,B|355:338,2,20,0|0|2
340,352,49956,6,0,B|308:328|264:320,1,80,4|0
188,320,50401,2,0,B|152:164,1,160,8|0
80,200,51067,1,2
8,236,51289,1,8
8,236,51734,21,0
8,116,52067,2,0,B|40:88|84:88,1,80,8|0
107,88,52401,2,0,B|118:46,2,40
88,164,52845,1,2
164,144,53067,1,8
244,156,53289,1,0
244,156,53401,1,0
244,156,53512,6,0,B|288:232|376:240,1,160,0|8
424,84,54401,2,0,B|402:45|357:42,1,80,0|2
316,112,54845,2,0,B|337:150|382:154,1,80,8|0
400,156,55178,1,0
420,156,55289,22,0,B|416:220|464:268,1,120,0|0
484,284,55734,2,0,B|444:292|412:320,1,80,8|0
360,380,56178,1,0
304,320,56401,1,0
232,284,56623,1,10
152,276,56845,1,0
72,284,57067,6,0,B|72:224|4:204|4:144,1,160,0|8
72,284,57956,1,0
120,348,58178,1,2
152,276,58401,2,0,B|152:200|80:136,1,160,8|0
28,32,59178,22,0,B|60:56|104:56,1,80,8|0
132,56,59512,2,0,B|156:24,2,40
172,124,59956,1,0
224,64,60178,2,0,B|273:-1,1,80,8|0
308,72,60623,6,0,B|332:116|332:116|388:116|432:160,1,160,0|8
504,304,61512,2,0,B|464:228,1,80,0|2
384,220,61956,2,0,B|356:184|312:192,1,80,8|0
324,272,62401,22,0,B|292:352,1,80,0|2
167,260,62845,2,0,B|239:309,1,80,0|2
21,324,63289,2,0,B|92:288,1,80,0|2
96,248,63623,1,2
100,208,63734,1,8
204,200,63956,1,0
313,192,64178,1,2
196,80,64623,6,0,B|253:135,1,80,2|0
112,104,65512,2,0,B|184:172,1,96.0000022888184,2|0
32,132,66401,2,0,B|112:208,1,111.999997329712,2|0
124,336,67289,2,0,B|120:288|120:288|76:288|48:252,1,128,2|0
192,292,68178,21,2
256,244,68401,1,0
320,196,68623,1,0
440,300,69067,6,0,B|360:360,1,80,2|0
344,276,69512,2,0,B|320:196|352:120,1,160,0|2
432,112,70178,2,0,B|394:127|352:120,1,80
380,45,70623,2,0,B|339:42|304:19,2,80,0|2|0
461,41,71289,1,0
316,112,71734,22,0,B|232:80,1,80,2|0
268,176,72623,6,0,B|176:141,1,96.0000022888184,2|0
220,244,73512,22,0,B|116:204,1,111.999997329712,2|0
0,220,74401,6,0,B|48:240|48:240|68:272|112:280,1,128,2|0
184,172,75289,21,2
220,244,75512,1,0
256,316,75734,1,0
408,240,76178,6,0,B|328:216,1,80,2|0
256,196,76623,2,0,B|340:192|404:132,1,160,0|2
456,76,77289,1,0
476,152,77512,1,0
400,136,77734,1,0
332,96,77956,1,2
276,40,78178,1,0
256,120,78401,22,0,B|96:96,1,160
296,272,80178,2,0,B|256:266,1,40
392,248,80623,2,0,B|367:280,1,40
440,192,81067,2,0,B|460:195,3,20
440,192,81512,1,0
476,36,81956,22,0,B|440:88|376:92,1,120,4|0
336,92,82401,2,0,B|308:60|264:56,1,80,8|0
268,136,82845,1,2
272,216,83067,1,0
276,296,83289,2,0,B|234:292|206:260,1,80,8|0
128,184,83734,6,0,B|145:221|131:261,1,80,2|0
92,332,84178,1,8
92,332,84289,1,0
24,376,84512,1,0
24,376,84623,2,0,B|6:338|20:298,1,80,2|0
56,228,85067,1,8
56,228,85178,1,0
56,228,85289,1,0
32,112,85512,22,0,B|96:104|132:52,1,120,4|0
156,20,85956,2,0,B|176:56|220:64,1,80,8|0
296,40,86401,1,2
272,116,86623,1,0
268,196,86845,2,0,B|268:240|280:288,1,80,8|0
236,344,87289,6,0,B|284:304|348:312,1,120,2|0
388,320,87734,1,8
464,296,87956,2,0,B|492:312,2,26.6666666666667
464,296,88178,2,0,B|484:196,1,80,2|0
436,84,88623,2,0,B|416:184,1,80,8|0
448,8,89067,22,0,B|396:40|332:40,1,120,4|0
296,40,89512,2,0,B|316:124,1,80,8|0
332,196,89956,1,2
256,172,90178,1,0
176,164,90401,1,8
96,172,90623,1,0
24,32,90845,6,0,B|60:56|76:96,1,80,2|0
96,172,91289,1,8
96,172,91401,1,0
112,252,91623,1,0
112,252,91734,2,0,B|126:288|162:312,1,80,2|0
240,336,92178,1,8
240,336,92289,1,0
240,336,92401,1,0
212,220,92623,22,0,B|268:248|328:236,1,120,4|0
348,272,93067,2,0,B|372:240|412:224,1,80,8|0
488,204,93512,1,2
508,280,93734,1,0
432,300,93956,1,8
412,224,94178,1,0
436,148,94401,6,0,B|436:112|500:88|500:52,1,120,2|0
504,12,94845,2,0,B|468:36|428:36,1,80,8|0
396,36,95178,1,0
364,32,95289,2,0,B|340:28|320:20,2,40,0|2|0
316,96,95734,1,8
316,96,96178,22,0,B|260:80|188:96,1,120,4|0
160,104,96623,1,8
88,136,96845,1,0
36,44,97067,1,2
32,64,97178,1,0
28,84,97289,1,0
16,164,97512,1,8
0,244,97734,1,0
120,236,97956,6,0,B|88:260|68:304,1,80,2|0
52,376,98401,1,8
52,376,98512,1,0
128,356,98734,1,0
128,356,98845,2,0,B|204:336,1,80,2|0
284,316,99289,1,8
284,316,99401,1,0
284,316,99512,1,0
400,344,99734,22,0,B|356:304|364:232,1,120,4|0
372,196,100178,1,8
440,240,100401,1,0
440,240,100512,1,0
440,240,100623,1,2
508,284,100845,2,0,B|528:244|512:200,1,80,0|8
476,92,101289,1,0
452,108,101401,1,0
428,116,101512,6,0,B|376:136|308:120,1,120,2|0
284,112,101956,1,8
212,76,102178,2,0,B|224:52,4,20,0|0|0|0|2
172,148,102623,1,0
108,200,102845,1,8
108,200,103067,1,0
108,200,103289,22,0,B|56:232|36:296,1,120,4|0
28,332,103734,1,8
108,324,103956,1,0
108,324,104067,1,0
108,324,104178,2,0,B|200:372,1,80,2|0
268,324,104623,2,0,B|176:276,1,80,8|0
352,292,105067,6,0,B|444:340,1,80,2|0
496,360,105512,1,8
496,360,105623,1,0
488,280,105845,1,0
488,280,105956,1,2
480,200,106178,21,0
512,124,106401,1,8
464,56,106623,1,0
432,132,106845,6,0,B|400:160|352:144|320:168,1,120,4|0
316,208,107289,2,0,B|276:192|236:196,1,80,8|0
196,200,107623,1,0
156,212,107734,2,0,B|108:132,1,80,2|0
36,156,108178,2,0,B|84:236,1,80,8|0
88,304,108623,22,0,B|148:276|156:212,1,120,2|0
196,200,109067,2,0,B|208:160|236:132,1,80,8|0
300,84,109512,1,2
300,84,109623,1,0
300,84,109734,1,0
372,48,109956,6,0,B|420:116,1,80,0|4
418,113,110845,1,8
418,113,111289,1,0
472,172,111512,1,2
488,252,111734,2,0,B|404:260|352:332,1,160,8|0
272,240,112512,6,0,B|244:276|204:292,1,80,8|0
184,296,112845,2,0,B|164:244,2,40
208,372,113289,1,2
128,352,113512,2,0,B|48:332,1,80,8|0
100,272,113956,22,0,B|-12:160,2,160,0|8|0
128,196,115067,1,2
156,120,115289,1,8
100,64,115512,5,2
100,64,115623,1,0
100,64,115734,1,0
220,56,116067,1,8
212,176,116401,1,0
268,232,116623,2,0,B|304:268,2,40
344,204,117067,1,8
344,204,117512,21,0
472,112,117956,1,8
328,44,118401,1,0
372,108,118623,1,2
416,172,118845,2,0,B|512:312,1,160,8|0
386,303,119623,6,0,B|344:304|308:284,1,80,8|0
284,272,119956,2,0,B|296:224,2,40
212,236,120401,1,2
140,204,120623,2,0,B|104:184|64:188,1,80,8|0
88,264,121067,21,0
88,264,121512,1,8
88,264,121956,1,0
116,340,122178,1,2
36,328,122401,2,0,B|8:296|8:256,1,80,8|0
88,264,122845,6,0,B|140:204,1,80,0|2
204,256,123289,2,0,B|256:196,1,80,8|2
324,240,123734,2,0,B|376:180,1,80,0|2
436,232,124178,2,0,B|488:172,1,80,8|2
488,92,124623,21,0
376,44,124956,1,2
392,164,125289,1,0
316,256,125623,1,2
196,256,125956,1,0
120,164,126289,1,2
136,44,126623,1,0
24,92,126956,1,2
256,124,127512,5,2
256,192,128623,12,0,131734
