osu file format v9

[General]
AudioFilename: Sky High yorukichi.mp3
AudioLeadIn: 0
PreviewTime: 20633
Countdown: 0
SampleSet: Soft
StackLeniency: 0.4
Mode: 0
LetterboxInBreaks: 0

[Editor]
Bookmarks: 7300,21522,35744,49966,64188,78411,81966,96188,110411,124633
DistanceSpacing: 1
BeatDivisor: 4
GridSize: 4

[Metadata]
Title:Sky High
Artist:Yorukichi
Creator:Lanttu
Version:Easy
Source:
Tags:UTAU Kasane Teto Utattemita nico nakano4 TakamuraRin electro

[Difficulty]
HPDrainRate:2
CircleSize:3
OverallDifficulty:2
ApproachRate:3
SliderMultiplier:0.9
SliderTickRate:2

[Events]
//Background and Video events
0,0,"bg.png"
//Break Periods
2,46601,48516
//Storyboard Layer 0 (Background)
//Storyboard Layer 1 (Fail)
//Storyboard Layer 2 (Pass)
//Storyboard Layer 3 (Foreground)
//Storyboard Sound Samples
//Background Colour Transformations
3,100,255,255,255

[TimingPoints]
7290,444.444444444444,4,2,1,60,1,0
8623,-100,4,2,2,60,0,0
8845,-100,4,2,1,60,0,0
12178,-100,4,2,2,60,0,0
12401,-100,4,2,1,60,0,0
15734,-100,4,2,2,60,0,0
15956,-100,4,2,1,60,0,0
19289,-100,4,2,2,60,0,0
19512,-100,4,2,1,60,0,0
21512,-100,4,2,1,40,0,0
21734,-100,4,2,1,60,0,0
22845,-100,4,2,2,60,0,0
23067,-100,4,2,1,60,0,0
26401,-100,4,2,2,60,0,0
26623,-100,4,2,1,60,0,0
29956,-100,4,2,2,60,0,0
30178,-100,4,2,1,60,0,0
33512,-100,4,2,2,60,0,0
33734,-100,4,2,1,60,0,0
35734,-200,4,2,2,30,0,0
36623,-200,4,2,2,15,0,0
36845,-200,4,2,2,30,0,0
38401,-200,4,2,2,15,0,0
38623,-200,4,2,2,30,0,0
49956,-100,4,2,1,60,0,0
51289,-100,4,2,2,60,0,0
51512,-100,4,2,1,60,0,0
54845,-100,4,2,2,60,0,0
55067,-100,4,2,1,60,0,0
58401,-100,4,2,2,60,0,0
58623,-100,4,2,1,60,0,0
61956,-100,4,2,2,60,0,0
62178,-100,4,2,1,60,0,0
64178,-133.333333333333,4,2,1,60,0,0
78401,-200,4,2,1,30,0,0
81956,-100,4,2,1,100,0,1
95734,-100,4,2,1,100,0,0
96178,-100,4,2,1,100,0,1
109956,-100,4,2,1,100,0,0
110401,-100,4,2,1,60,0,0
111734,-100,4,2,2,60,0,0
111956,-100,4,2,1,60,0,0
115289,-100,4,2,2,60,0,0
115512,-100,4,2,1,60,0,0
118845,-100,4,2,2,60,0,0
119067,-100,4,2,1,60,0,0
122401,-100,4,2,2,60,0,0
122623,-100,4,2,1,60,0,0
124623,-100,4,2,1,50,0,0
124734,-100,4,2,1,5,0,0
125178,-100,4,2,1,50,0,0
125401,-100,4,2,1,5,0,0
125845,-100,4,2,1,50,0,0
126734,-100,4,2,1,5,0,0
127401,-100,4,2,1,50,0,0
128623,-100,4,2,0,5,0,0
129956,-100,4,2,0,10,0,0
130401,-100,4,2,0,15,0,0
130845,-100,4,2,0,20,0,0
131289,-100,4,2,0,25,0,0
131734,-100,4,2,0,5,0,0

[Colours]
Combo1 : 80,215,245
Combo2 : 240,240,240
Combo3 : 48,48,48

[HitObjects]
376,88,7289,2,0,B|288:107,1,90,0|8
352,176,8178,2,0,B|439:158,1,90,0|8
412,244,9067,2,0,B|360:324|260:336,1,180,0|2
172,336,10401,1,8
84,324,10845,6,0,B|108:236,1,90,0|8
20,252,11734,2,0,B|43:165,1,90,0|8
68,80,12623,2,0,B|104:120|204:48|244:80,1,180,0|2
328,52,13956,1,10
420,52,14401,22,0,B|472:132,1,90,0|8
380,140,15289,2,0,B|400:236,1,90,0|8
488,244,16178,2,0,B|484:284|448:332|388:332|344:304,1,180,0|2
400,228,17512,1,10
312,220,17956,6,0,B|224:212,1,90,0|8
240,300,18845,2,0,B|148:324,1,90,0|8
64,344,19734,2,0,B|64:272|12:248|12:172,1,180
16,84,21067,1,8
92,36,21512,22,0,B|104:84|152:104,1,90,4|8
180,20,22401,2,0,B|220:44|268:44,1,90,0|8
320,116,23289,2,0,B|376:28,2,90,0|8|0
272,192,24623,1,8
360,188,25067,6,0,B|448:184,1,90,0|8
408,264,25956,2,0,B|268:272,2,135,0|2|8
436,352,27734,1,0
348,356,28178,1,10
260,360,28623,22,0,B|236:320|184:304,1,90,0|8
108,340,29512,2,0,B|120:240,1,90,0|8
32,276,30401,2,0,B|20:180,2,90,0|8|0
120,248,31734,1,8
128,160,32178,6,0,B|136:112|172:80,2,90,0|8|0
220,160,33512,2,0,B|256:128|304:120,1,90,8|0
360,52,34401,1,8
388,136,34845,1,0
416,220,35289,1,8
444,304,35734,21,2
356,280,36623,1,2
280,324,37512,1,2
192,300,38401,1,2
116,348,39289,1,2
116,348,40623,6,0,B|92:296,1,45,8|2
20,260,41956,2,0,B|0:216,2,45,2|0|2
84,196,43734,21,0
68,108,44623,1,2
156,92,45512,1,0
172,180,46401,1,2
172,180,49956,6,0,B|236:112|336:112,1,180,4|0
424,112,51289,1,8
444,200,51734,2,0,B|488:184|508:140,2,90,0|8|0
368,244,53067,1,8
292,292,53512,22,0,B|224:224,1,90,0|8
204,316,54401,2,0,B|136:248,1,90,0|8
76,316,55289,2,0,B|76:232|140:236|140:152,1,180,0|2
140,64,56623,1,10
60,16,57067,6,0,B|44:64|60:104,1,90,0|8
140,64,57956,2,0,B|220:20,1,90,0|8
240,108,58845,1,0
328,100,59289,1,8
416,92,59734,1,0
364,20,60178,1,8
328,100,60623,22,0,B|288:192,1,90,0|8
380,176,61512,2,0,B|390:265,1,90,0|8
472,300,62401,1,0
400,352,62845,1,8
316,324,63289,5,0
228,296,63734,1,8
140,268,64178,1,0
64,324,64623,22,0,B|48:244,1,67.4999979883433,2|0
140,268,65512,2,0,B|132:192,1,67.4999979883433,2|0
220,220,66401,6,0,B|220:152,1,67.4999979883433,2|0
304,184,67289,2,0,B|312:104,1,67.4999979883433,2|0
396,92,68178,22,0,B|388:172,1,67.4999979883433,2|0
380,248,69067,5,2
460,212,69512,2,0,B|488:292|432:348|352:364|300:288,1,269.999991953373
252,216,71734,22,0,B|208:268,1,67.4999979883433,2|0
160,196,72623,6,0,B|100:232,1,67.4999979883433,0|0
84,144,73512,22,0,B|16:156,1,67.4999979883433,2|0
36,68,74401,2,0,B|-24:36,2,67.4999979883433,2|0|2
116,104,75734,1,0
196,144,76178,5,2
276,184,76623,2,0,B|284:116|412:128|423:59,1,202.49999396503
492,120,78401,22,0,B|476:216,1,90
392,336,80178,2,0,B|401:277,1,45
316,296,81067,2,0,B|325:237,1,45
244,208,81956,22,0,B|216:236|176:236|176:236|168:316|92:296|76:224|20:256,1,270,4|8
16,164,83734,2,0,B|48:136|64:84,1,90,2|8
140,136,84623,2,0,B|160:92|144:44,1,90,2|8
232,24,85512,6,0,B|264:148|372:96|344:0|240:56|264:148|356:132|364:184,1,270,4|8
432,124,87289,2,0,B|460:84|508:84,1,90,2|8
508,176,88178,2,0,B|480:216|432:216,1,90,2|8
444,304,89067,22,0,B|372:324|352:240|322:284|322:284|274:207|208:232,1,270,4|8
232,320,90845,2,0,B|204:360|144:360,1,90,2|8
64,360,91734,1,2
76,272,92178,1,8
88,184,92623,6,0,B|92:132|36:112|36:112|92:112|92:40|144:16|184:32,1,270,4|8
264,60,94401,2,0,B|244:104|196:116,2,90,2|8|2
352,68,95734,1,8
436,36,96178,22,0,B|424:100|488:132|444:220|396:168|396:168|384:216|348:224,1,270,4|8
276,272,97956,2,0,B|304:312|352:312,1,90,2|8
432,356,98845,2,0,B|452:312|432:268,1,90,2|8
352,224,99734,6,0,B|316:168|236:172|200:220|200:220|164:192|140:220|104:200,1,270,4|8
36,252,101512,2,0,B|12:212|24:164,1,90,2|8
110,203,102401,1,2
100,116,102845,1,8
20,76,103289,22,0,B|56:28|108:20|152:48|152:48|192:40|192:40|212:76|260:84,1,270,4|8
344,92,105067,2,0,B|380:60|428:60,2,90,2|8|2
300,168,106401,1,8
388,168,106845,6,0,B|380:232|328:256|328:256|376:260|384:344|460:344,1,270,4|8
472,256,108623,2,0,B|492:164,2,90,2|8|2
452,344,109956,2,0,B|408:336|376:292,1,90,0|4
304,344,110845,6,0,B|288:300|252:272,2,90,8|0|8
216,352,112178,2,0,B|172:332|116:344,1,90,0|8
40,356,113067,1,0
72,272,113512,1,8
32,192,113956,22,0,B|64:104,1,90,0|8
132,164,114845,2,0,B|164:76,1,90,0|8
240,128,115734,1,0
312,72,116178,1,8
332,160,116623,1,0
260,212,117067,1,8
224,296,117512,6,0,B|312:288,1,90,4|8
372,356,118401,2,0,B|404:320|400:272,1,90,0|8
436,188,119289,2,0,B|468:100,2,90,0|8|0
485,261,120623,2,0,B|448:288|400:272,1,90,8|0
360,352,121512,21,8
284,304,121956,1,0
196,280,122401,1,8
108,284,122845,6,0,B|53:212,1,90,0|8
90,128,123734,2,0,B|144:199,1,90,0|8
196,128,124623,22,0,B|216:104|256:92|296:104|316:128,2,135,2|2|2
176,260,126623,2,0,B|202:291|255:307|309:291|335:260,1,180,2|2
256,192,128623,12,0,131734
