osu file format v14

[General]
AudioFilename: formybonita.mp3
AudioLeadIn: 0
PreviewTime: 5782
Countdown: 0
SampleSet: Soft
StackLeniency: 0.7
Mode: 0
LetterboxInBreaks: 0
WidescreenStoryboard: 0

[Editor]
Bookmarks: 18816,35415,50214,65001,83474,98254,113035,127815,140748,153681,183243,208658
DistanceSpacing: 1.1
BeatDivisor: 4
GridSize: 4
TimelineZoom: 0.9

[Metadata]
Title:ALWAYS
TitleUnicode:ALWAYS
Artist:Yoon Mirae
ArtistUnicode:윤미래
Creator:Natsu
Version:Advanced
Source:태양의 후예
Tags:t_Yoonmirae Descendant Of The Sun war love drama Song Joong Ki Kang Mo Yeon Yoo Shi Jin Hye Kyo Feel ghood Music 필굿뮤직 송혜교 송중기
BeatmapID:932201
BeatmapSetID:428156

[Difficulty]
HPDrainRate:4
CircleSize:3.5
OverallDifficulty:4
ApproachRate:5.5
SliderMultiplier:1.4
SliderTickRate:1

[Events]
//Background and Video events
Video,0,"Eunitatontitaandcute.avi"
0,0,"EUNITATA.jpg",0,0
//Break Periods
//Storyboard Layer 0 (Background)
//Storyboard Layer 1 (Fail)
//Storyboard Layer 2 (Pass)
//Storyboard Layer 3 (Foreground)
//Storyboard Sound Samples

[TimingPoints]
5900,470.588235294118,4,2,1,15,1,0
7782,452.830188679245,4,2,1,15,1,0
9593,459.770114942529,4,2,1,15,1,0
11432,463.320463320463,4,2,1,15,1,0
12358,447.761194029851,4,2,1,15,1,0
13253,470.588235294118,4,2,1,15,1,0
15135,461.538461538462,4,2,1,15,1,0
16981,458.891013384321,4,2,1,15,1,0
18816,462.42774566474,4,2,1,20,1,0
20665,460.652591170825,4,2,1,20,1,0
22507,454.545454545455,4,2,1,20,1,0
25234,480,4,2,1,20,1,0
25714,461.538461538462,4,2,1,20,1,0
26175,449.438202247191,4,2,1,20,1,0
27073,480,4,2,1,20,1,0
28033,460.652591170825,4,2,1,20,1,0
29875,465.116279069767,4,2,1,20,1,0
31735,464.2166344294,4,2,1,20,1,0
31851,-100,4,2,1,10,0,0
34288,436.363636363636,4,2,1,20,1,0
34506,454.545454545455,4,2,1,20,1,0
35415,472.44094488189,4,2,1,30,1,0
35887,461.538461538462,4,2,1,30,1,0
36348,470.588235294118,4,2,1,30,1,0
37289,458.015267175573,4,2,1,30,1,0
38205,465.116279069767,4,2,1,30,1,0
39135,462.42774566474,4,2,1,30,1,0
40522,-100,4,2,1,15,0,0
40753,-100,4,2,1,30,0,0
40984,465.116279069767,4,2,1,30,1,0
41914,461.538461538462,4,2,1,30,1,0
42837,454.545454545455,4,2,1,30,1,0
43746,458.015267175573,4,2,1,30,1,0
44662,458.891013384321,4,2,1,30,1,0
45579,464.2166344294,4,2,1,30,1,0
46508,461.538461538462,4,2,1,30,1,0
48354,465.116279069767,4,2,1,30,1,0
50214,455.407969639469,4,2,1,30,1,0
51124,465.116279069767,4,2,1,30,1,0
52054,463.320463320463,4,2,1,30,1,0
52980,470.588235294118,4,2,1,30,1,0
53921,456.273764258555,4,2,1,30,1,0
54833,466.926070038911,4,2,1,30,1,0
55766,459.770114942529,4,2,1,30,1,0
56686,461.538461538462,4,2,1,30,1,0
57609,453.686200378072,4,2,1,30,1,0
58516,465.116279069767,4,2,1,30,1,0
59446,466.926070038911,4,2,1,30,1,0
61313,461.538461538462,4,2,1,30,1,0
62236,431.654676258993,4,2,1,30,1,0
63099,475.718533201189,4,2,1,30,1,0
66904,461.538461538462,4,2,1,30,1,0
68288,-100,4,2,1,15,0,0
68750,458.015267175573,4,2,1,30,1,0
69666,476.190476190476,4,2,1,30,1,0
70618,444.444444444444,4,2,1,30,1,0
71506,470.588235294118,4,2,1,30,1,0
71976,444.444444444444,4,2,1,30,1,0
72420,456.273764258555,4,2,1,30,1,0
74245,459.770114942529,4,2,1,30,1,0
75624,485.82995951417,4,2,1,30,1,0
76109,454.545454545455,4,2,1,30,1,0
77018,472.44094488189,4,2,1,30,1,0
77962,470.588235294118,4,2,1,30,1,0
79373,465.116279069767,4,2,1,30,1,0
79838,436.363636363636,4,2,1,30,1,0
80710,461.538461538462,4,2,1,30,1,0
80920,461.538461538462,4,2,1,30,1,0
81381,500,4,2,1,30,1,0
81634,462.42774566474,4,2,1,30,1,0
82558,465.116279069767,4,2,1,30,1,0
83023,451.127819548872,4,2,1,30,1,0
83474,461.89376443418,4,2,1,40,1,0
98254,-100,4,2,1,50,0,0
148254,-100,4,2,1,20,0,0
152296,-100,4,2,1,50,0,0
153681,-100,4,2,1,60,0,1
183243,476.190476190476,4,2,1,40,1,0
184671,-100,4,2,1,30,0,0
185147,462.071621101271,4,2,1,30,1,0
185378,-100,4,2,1,5,0,0
190691,470.588235294118,4,2,1,20,1,0
191161,463.320463320463,4,2,1,20,1,0
191624,512.820512820513,4,2,1,20,1,0
192136,558.139534883721,4,2,1,20,1,0
192694,620.15503875969,4,2,1,20,1,0
193314,688.665710186514,4,2,1,20,1,0
194002,879.120879120879,4,2,1,20,1,0
194881,948.616600790514,4,2,1,20,1,0
195829,-100,4,2,1,10,0,0
196778,1080.00108000108,4,2,1,20,1,0
197048,-100,4,2,1,5,0,0

[Colours]
Combo1 : 157,255,255
Combo2 : 255,164,255

[HitObjects]
20,366,5900,22,0,L|20:296,1,70,4|0,0:0|0:0,0:0:0:0:
84,252,6370,1,0,0:0:0:0:
12,116,6841,1,0,0:0:0:0:
140,200,7311,1,2,0:0:0:0:
148,40,7782,1,4,0:0:0:0:
220,16,8008,1,0,0:0:0:0:
284,60,8234,2,0,B|260:124|316:124|287:195,1,140,2|0,0:0|0:0,0:0:0:0:
32,360,9593,6,0,P|26:327|32:292,1,70,4|0,0:0|0:0,0:0:0:0:
92,244,10052,1,2,0:0:0:0:
184,368,10512,2,0,L|324:368,1,140,2|2,0:0|0:0,0:0:0:0:
316,216,11432,1,4,0:0:0:0:
60,36,12358,2,0,P|79:101|51:164,1,140,2|2,0:0|0:0,0:0:0:0:
12,304,13253,5,4,0:0:0:0:
28,380,13488,1,0,0:0:0:0:
104,368,13723,2,0,P|166:339|230:362,2,140,2|0|2,0:0|0:0|0:0,0:0:0:0:
44,224,15135,1,4,0:0:0:0:
76,156,15365,1,0,0:0:0:0:
128,216,15596,2,0,P|192:240|264:208,1,140,2|0,0:0|0:0,0:0:0:0:
192,92,16519,1,2,0:0:0:0:
68,24,16981,1,4,0:0:0:0:
484,356,18816,5,4,0:0:0:0:
355,267,19278,1,0,0:0:0:0:
280,252,19509,1,0,0:0:0:0:
220,300,19740,2,0,L|220:388,2,70,2|0|2,0:0|0:0|0:0,0:0:0:0:
108,192,20665,6,0,L|108:120,2,70,4|0|2,0:0|0:0|0:0,0:0:0:0:
40,332,21586,2,0,P|104:307|170:326,1,140,2|2,0:0|0:0,0:0:0:0:
328,332,22507,1,2,0:0:0:0:
380,276,22734,1,0,0:0:0:0:
308,252,22961,2,0,B|308:112,1,140,2|2,0:0|0:0,0:0:0:0:
12,20,24325,6,0,P|3:53|11:87,2,70,4|0|2,0:0|0:0|0:0,0:0:0:0:
152,56,25234,2,0,P|176:120|153:185,1,140,2|2,0:0|0:0,0:0:0:0:
64,316,26175,2,0,P|128:293|193:317,1,140,4|0,0:0|0:0,0:0:0:0:
328,360,27073,1,2,0:0:0:0:
332,208,27553,1,2,0:0:0:0:
492,192,28033,5,2,0:0:0:0:
376,88,28493,2,0,B|324:60|276:92|276:92|257:63,2,140,2|2|2,0:0|0:0|0:0,0:0:0:0:
492,192,29875,1,4,0:0:0:0:
344,240,30340,1,2,0:0:0:0:
376,88,30805,2,0,P|428:40|460:88,1,140,2|2,0:0|0:0,0:0:0:0:
424,232,31735,1,4,0:0:0:0:
256,192,31851,12,4,34506,0:0:0:0:
172,144,35415,6,0,P|152:209|180:272,1,140,4|0,0:0|0:0,0:0:0:0:
331,272,36348,2,0,P|359:209|340:144,1,140,2|0,0:0|0:0,0:0:0:0:
212,52,37289,2,0,L|72:52,1,140,2|0,0:0|0:0,0:0:0:0:
12,192,38205,1,2,0:0:0:0:
88,324,38670,2,0,P|121:332|155:324,1,70,2|2,0:0|0:0,0:0:0:0:
212,271,39135,6,0,P|278:251|345:267,1,140,2|2,0:0|0:0,0:0:0:0:
476,352,40059,2,0,L|476:208,1,140,2|0,0:0|0:0,0:0:0:0:
476,136,40753,1,2,0:0:0:0:
476,136,40984,2,0,P|412:111|349:138,1,140,4|2,0:0|0:0,0:0:0:0:
256,264,41914,2,0,P|193:290|129:266,1,140,2|2,0:0|0:0,0:0:0:0:
72,216,42606,1,0,0:0:0:0:
72,216,42837,6,0,L|72:72,1,140,4|0,0:0|0:0,0:0:0:0:
212,16,43746,2,0,L|212:160,1,140,2|2,0:0|0:0,0:0:0:0:
220,308,44662,2,0,P|328:313|253:235,1,280,4|2,0:0|0:0,0:0:0:0:
100,236,46043,1,2,0:0:0:0:
28,100,46508,6,0,B|96:76|96:132|164:104,1,140,4|0,0:0|0:0,0:0:0:0:
240,120,47200,1,2,0:0:0:0:
308,156,47431,2,0,P|276:220|317:288,1,140,2|0,0:0|0:0,0:0:0:0:
356,333,48123,1,0,0:0:0:0:
359,339,48354,2,0,L|215:339,1,140,4|0,0:0|0:0,0:0:0:0:
76,288,49284,2,0,P|100:223|78:158,1,140,2|0,0:0|0:0,0:0:0:0:
12,16,50214,6,0,L|156:16,1,140,4|0,0:0|0:0,0:0:0:0:
256,124,51124,1,2,0:0:0:0:
256,200,51356,1,2,0:0:0:0:
332,216,51589,1,2,0:0:0:0:
400,72,52054,2,0,B|456:92|496:68|496:68|507:29,2,140,4|2|2,0:0|0:0|0:0,0:0:0:0:
256,20,53450,1,2,0:0:0:0:
220,88,53685,1,0,0:0:0:0:
184,160,53921,6,0,P|159:224|182:289,1,140,4|0,0:0|0:0,0:0:0:0:
329,289,54833,2,0,P|352:224|328:160,1,140,2|0,0:0|0:0,0:0:0:0:
200,68,55766,2,0,L|60:68,1,140,2|0,0:0|0:0,0:0:0:0:
20,216,56686,2,0,P|44:280|21:345,1,140,2|0,0:0|0:0,0:0:0:0:
176,364,57609,6,0,L|320:364,1,140,2|0,0:0|0:0,0:0:0:0:
468,364,58516,1,2,0:0:0:0:
336,284,58981,2,0,P|315:217|333:151,1,140,2|0,0:0|0:0,0:0:0:0:
392,100,59679,1,0,0:0:0:0:
464,68,59912,2,0,P|484:134|466:200,1,140,2|0,0:0|0:0,0:0:0:0:
336,284,60846,1,2,0:0:0:0:
212,192,61313,6,0,P|149:163|86:188,1,140,4|0,0:0|0:0,0:0:0:0:
88,352,62236,2,0,P|151:376|213:348,1,140,2|0,0:0|0:0,0:0:0:0:
336,284,63099,2,0,B|336:212|336:212|412:184|412:100|412:100|412:28,1,280,2|0,0:0|0:0,0:0:0:0:
260,32,64526,5,2,0:0:0:0:
260,32,65001,2,0,B|211:53|171:25|171:25|136:56,1,140,2|0,0:0|0:0,0:0:0:0:
252,352,66429,1,2,0:0:0:0:
252,352,66904,2,0,B|301:331|341:359|341:359|376:328,1,140,2|0,0:0|0:0,0:0:0:0:
476,44,68288,1,2,0:0:0:0:
432,108,68519,1,2,0:0:0:0:
392,176,68750,6,0,P|416:240|395:306,1,140,4|2,0:0|0:0,0:0:0:0:
256,360,69666,2,0,L|112:360,1,140,2|2,0:0|0:0,0:0:0:0:
24,224,70618,1,2,0:0:0:0:
24,224,70840,1,0,0:0:0:0:
24,224,71062,1,2,0:0:0:0:
164,264,71506,2,0,L|312:264,1,140,2|2,0:0|0:0,0:0:0:0:
446,325,72420,5,4,0:0:0:0:
506,183,72876,1,2,0:0:0:0:
364,123,73332,1,2,0:0:0:0:
304,264,73788,1,2,0:0:0:0:
456,240,74245,2,0,P|431:176|464:117,2,140,4|2|0,0:0|0:0|0:0,0:0:0:0:
340,335,75624,1,2,0:0:0:0:
264,344,75866,1,0,0:0:0:0:
208,284,76109,6,0,B|224:216|176:216|204:148,1,140,4|0,0:0|0:0,0:0:0:0:
320,56,77018,2,0,B|348:124|300:124|316:192,1,140,2|0,0:0|0:0,0:0:0:0:
256,336,77962,2,0,P|193:363|129:341,1,140,2|0,0:0|0:0,0:0:0:0:
52,208,78903,2,0,P|114:180|178:202,1,140,2|2,0:0|0:0,0:0:0:0:
244,244,79605,1,0,0:0:0:0:
312,292,79838,6,0,B|396:336|396:336|356:212|416:162,1,280,4|0,0:0|0:0,0:0:0:0:
480,120,80920,2,0,L|480:40,1,70,2|2,0:0|0:0,0:0:0:0:
408,16,81381,1,2,0:0:0:0:
332,36,81634,2,0,P|276:63|200:32,1,140,8|0,3:0|0:0,0:0:0:0:
128,24,82327,2,0,L|128:104,1,70,8|8,3:0|3:0,0:0:0:0:
144,248,83023,1,8,3:0:0:0:
255,347,83474,5,4,0:0:0:0:
255,347,83704,1,0,0:0:0:0:
255,347,83935,1,2,0:0:0:0:
144,248,84397,2,0,B|48:248|48:248|8:224,1,140,8|2,0:0|0:0,0:0:0:0:
12,72,85321,2,0,P|4:32|16:0,2,70,4|0|2,0:0|0:0|0:0,0:0:0:0:
148,144,86245,2,0,P|212:119|277:142,1,140,8|0,0:0|0:0,0:0:0:0:
356,276,87169,5,4,0:0:0:0:
360,352,87400,1,0,0:0:0:0:
436,340,87631,1,2,0:0:0:0:
484,192,88092,1,8,0:0:0:0:
348,120,88554,2,0,L|272:120,1,70,2|0,0:0|0:0,0:0:0:0:
208,156,89016,2,0,P|232:219|205:282,1,140,4|0,0:0|0:0,0:0:0:0:
64,344,89940,1,8,0:0:0:0:
80,192,90402,1,2,0:0:0:0:
205,282,90864,5,4,0:0:0:0:
220,128,91326,2,0,P|282:99|344:126,2,140,2|8|2,0:0|0:0|0:0,0:0:0:0:
205,282,92711,2,0,P|142:310|80:283,1,140,4|0,0:0|0:0,0:0:0:0:
24,140,93635,2,0,B|12:56|12:56|48:8,1,140,8|0,0:0|0:0,0:0:0:0:
152,124,94559,5,4,0:0:0:0:
256,12,95021,1,2,0:0:0:0:
360,123,95483,2,0,P|367:192|333:252,1,140,2|2,0:0|0:0,0:0:0:0:
178,252,96407,2,0,P|144:192|151:123,1,140,2|0,0:0|0:0,0:0:0:0:
200,64,97099,1,0,0:0:0:0:
256,12,97330,1,8,0:0:0:0:
256,168,97792,2,0,L|256:256,1,70,2|0,0:0|0:0,0:0:0:0:
208,300,98254,6,0,P|142:280|78:305,2,140,4|2|8,0:0|0:0|0:0,0:0:0:0:
344,372,99640,1,2,0:0:0:0:
364,220,100102,2,0,P|309:124|281:231,1,280,4|8,0:0|0:0,0:0:0:0:
344,372,101487,2,0,B|492:372,2,140,2|4|2,0:0|0:0|0:0,0:0:0:0:
196,324,102873,6,0,B|152:304|96:324|96:324|88:287,1,140,8|0,0:0|0:0,0:0:0:0:
60,136,103797,1,4,0:0:0:0:
204,192,104259,2,0,P|240:200|272:192,1,70,2|0,0:0|0:0,0:0:0:0:
348,172,104721,2,0,L|348:328,1,140,8|0,0:0|0:0,0:0:0:0:
200,356,105644,6,0,P|134:376|69:353,2,140,4|0|8,0:0|0:0|0:0,0:0:0:0:
256,212,107030,2,0,L|256:140,1,70,2|0,0:0|0:0,0:0:0:0:
296,76,107492,2,0,B|368:100|368:48|432:78,2,140,4|0|8,0:0|0:0|0:0,0:0:0:0:
148,28,108878,2,0,L|68:28,1,70,2|0,0:0|0:0,0:0:0:0:
32,92,109340,6,0,P|60:154|34:217,1,140,4|0,0:0|0:0,0:0:0:0:
56,292,110032,1,0,0:0:0:0:
116,340,110263,2,0,B|184:308|184:364|250:337,1,140,8|0,0:0|0:0,0:0:0:0:
324,308,110956,1,0,0:0:0:0:
396,276,111187,1,4,0:0:0:0:
268,192,111649,1,2,0:0:0:0:
260,116,111880,1,8,3:0:0:0:
304,52,112111,2,0,P|367:76|431:49,1,140,8|8,3:0|3:0,0:0:0:0:
500,188,113035,6,0,L|500:336,1,140,4|0,0:0|0:0,0:0:0:0:
352,368,113958,1,8,0:0:0:0:
352,368,114189,1,0,0:0:0:0:
352,368,114420,1,2,0:0:0:0:
320,216,114882,2,0,B|320:76,1,140,2|0,0:0|0:0,0:0:0:0:
396,60,115575,1,0,0:0:0:0:
464,24,115806,1,8,0:0:0:0:
320,76,116268,2,0,P|284:84|244:72,1,70,2|0,0:0|0:0,0:0:0:0:
180,104,116730,6,0,P|196:170|171:235,1,140,4|0,0:0|0:0,0:0:0:0:
36,312,117654,1,8,0:0:0:0:
36,156,118116,1,2,0:0:0:0:
171,235,118577,2,0,P|232:264|300:228,1,140,4|0,0:0|0:0,0:0:0:0:
376,104,119501,1,8,0:0:0:0:
464,232,119963,2,0,L|464:316,1,70,2|0,0:0|0:0,0:0:0:0:
396,340,120425,6,0,P|330:319|266:344,1,140,4|0,0:0|0:0,0:0:0:0:
116,376,121349,1,8,0:0:0:0:
164,232,121811,2,0,L|164:160,1,70,2|0,0:0|0:0,0:0:0:0:
220,108,122273,2,0,B|284:128|284:80|360:104,1,140,4|0,0:0|0:0,0:0:0:0:
480,192,123196,1,2,0:0:0:0:
464,344,123658,2,0,P|430:352|395:345,1,70,2|0,0:0|0:0,0:0:0:0:
331,303,124120,6,0,P|266:284|202:309,1,140,4|0,0:0|0:0,0:0:0:0:
56,364,125044,2,0,L|56:212,1,140,2|0,0:0|0:0,0:0:0:0:
120,108,125968,2,0,P|176:144|220:88,1,140,2|0,0:0|0:0,0:0:0:0:
284,56,126661,1,8,3:0:0:0:
284,56,126892,2,0,P|320:44|356:56,1,70,8|8,3:0|3:0,0:0:0:0:
320,124,127353,2,0,L|320:220,1,70,8|8,3:0|3:0,0:0:0:0:
319,272,127815,6,0,P|388:263|447:297,2,140,4|2|8,0:0|0:0|0:0,0:0:0:0:
184,344,129201,2,0,L|112:344,1,70,2|0,0:0|0:0,0:0:0:0:
60,287,129663,2,0,P|84:223|61:158,1,140,4|0,0:0|0:0,0:0:0:0:
152,32,130587,2,0,P|216:56|281:33,1,140,8|0,0:0|0:0,0:0:0:0:
428,84,131510,6,0,P|403:148|426:213,1,140,4|0,0:0|0:0,0:0:0:0:
336,339,132434,2,0,P|271:314|206:337,1,140,8|0,0:0|0:0,0:0:0:0:
128,336,133127,1,0,0:0:0:0:
80,276,133358,2,0,L|80:112,1,140,4|0,0:0|0:0,0:0:0:0:
184,28,134282,1,8,0:0:0:0:
256,164,134744,1,2,0:0:0:0:
351,44,135206,6,0,P|416:20|480:44,1,140,4|0,0:0|0:0,0:0:0:0:
384,164,136129,2,0,P|319:188|255:163,1,140,8|2,0:0|0:0,0:0:0:0:
152,48,137053,2,0,L|76:48,1,70,4|0,0:0|0:0,0:0:0:0:
40,112,137515,2,0,P|16:176|32:244,2,140,2|8|2,0:0|0:0|0:0,0:0:0:0:
176,188,138901,6,0,L|316:188,1,140,4|0,0:0|0:0,0:0:0:0:
472,188,139825,2,0,P|447:123|468:57,1,140,8|2,0:0|0:0,0:0:0:0:
396,28,140517,1,0,0:0:0:0:
320,36,140748,2,0,B|172:36,1,140,4|0,0:0|0:0,0:0:0:0:
112,72,141441,2,0,P|100:38|112:-4,2,70,8|8|8,3:0|3:0|3:0,0:0:0:0:
176,116,142134,2,0,L|176:188,1,70,8|8,3:0|3:0,0:0:0:0:
176,263,142596,6,0,P|244:251|313:263,2,140,4|2|8,0:0|0:0|0:0,0:0:0:0:
48,352,143982,1,2,0:0:0:0:
72,200,144443,2,0,P|96:135|74:70,1,140,4|0,0:0|0:0,0:0:0:0:
136,20,145136,1,8,3:0:0:0:
136,20,145367,2,0,L|290:21,1,140,2|8,0:0|3:0,0:0:0:0:
424,60,146291,6,0,L|424:140,1,70,8|8,3:0|3:0,0:0:0:0:
500,152,146753,2,0,L|500:236,1,70,8|8,3:0|3:0,0:0:0:0:
504,300,147215,1,0,0:0:0:0:
460,364,147446,2,0,P|428:376|388:364,1,70,8|0,3:0|0:0,0:0:0:0:
292,252,148139,6,0,B|304:291|354:308|437:291|471:258|471:141|437:109|354:75|304:92|254:192|254:192|204:291|155:308|55:274|22:241|22:124|55:92|155:75|204:92|217:130,1,980,6|2,0:0|0:0,0:0:0:0:
416,364,152296,6,0,B|516:364|516:364|492:316,2,140,2|12|6,0:0|0:0|0:0,0:0:0:0:
324,240,153681,6,0,P|280:296|204:316,2,140,4|2|8,0:0|0:0|0:0,0:0:0:0:
376,96,155067,1,2,0:0:0:0:
256,192,155529,2,0,P|180:228|224:120,1,280,4|8,0:0|0:0,0:0:0:0:
376,96,156915,2,0,B|468:96|468:96|512:128,2,140,2|4|2,0:0|0:0|0:0,0:0:0:0:
232,156,158300,6,0,P|208:220|232:292,1,140,8|2,0:0|0:0,0:0:0:0:
292,328,158993,1,0,0:0:0:0:
364,360,159224,2,0,L|524:356,1,140,4|2,0:0|0:0,0:0:0:0:
484,280,159917,1,0,0:0:0:0:
444,216,160148,2,0,P|420:152|444:84,1,140,8|2,0:0|0:0,0:0:0:0:
300,24,161072,6,0,B|136:24,1,140,4|0,0:0|0:0,0:0:0:0:
4,24,161995,2,0,P|25:89|1:153,1,140,8|2,0:0|0:0,0:0:0:0:
88,276,162919,1,4,0:0:0:0:
16,304,163150,2,0,L|17:379,2,70,8|0|2,3:0|0:0|0:0,0:0:0:0:
88,276,163843,2,0,P|152:251|217:274,1,140,8|8,0:0|3:0,0:0:0:0:
284,312,164536,1,8,3:0:0:0:
352,352,164767,6,0,P|416:374|481:350,1,140,4|0,0:0|0:0,0:0:0:0:
480,196,165691,2,0,P|455:131|473:64,1,140,8|0,0:0|0:0,0:0:0:0:
408,28,166383,1,0,0:0:0:0:
340,68,166614,2,0,L|196:68,1,140,2|2,0:0|0:0,0:0:0:0:
144,16,167307,1,2,0:0:0:0:
124,92,167538,2,0,P|141:158|117:223,1,140,8|2,0:0|0:0,0:0:0:0:
64,368,168462,6,0,P|129:344|197:368,1,140,4|0,0:0|0:0,0:0:0:0:
348,360,169386,1,8,0:0:0:0:
424,352,169617,1,0,0:0:0:0:
472,292,169848,1,2,0:0:0:0:
343,211,170310,2,0,P|316:149|332:82,1,140,4|0,0:0|0:0,0:0:0:0:
476,24,171233,1,8,0:0:0:0:
332,82,171695,2,0,L|253:82,1,70,2|0,0:0|0:0,0:0:0:0:
192,116,172157,6,0,P|207:182|176:244,1,140,4|0,0:0|0:0,0:0:0:0:
56,340,173081,1,8,0:0:0:0:
132,356,173312,1,0,0:0:0:0:
208,364,173543,2,0,L|280:364,1,70,2|0,0:0|0:0,0:0:0:0:
348,328,174005,2,0,P|317:266|332:199,1,140,4|0,0:0|0:0,0:0:0:0:
460,116,174928,1,8,0:0:0:0:
328,32,175390,1,2,0:0:0:0:
252,28,175621,1,0,0:0:0:0:
200,84,175852,6,0,B|219:149|163:149|190:218,1,140,4|0,0:0|0:0,0:0:0:0:
252,360,176776,1,8,0:0:0:0:
104,320,177238,1,2,0:0:0:0:
28,320,177469,1,0,0:0:0:0:
24,244,177700,2,0,B|50:174|-5:174|14:109,1,140,4|0,0:0|0:0,0:0:0:0:
140,16,178624,1,8,0:0:0:0:
172,168,179086,2,0,L|248:168,1,70,2|0,0:0|0:0,0:0:0:0:
308,208,179547,6,0,P|355:168|308:128,1,140,4|0,0:0|0:0,0:0:0:0:
160,88,180471,1,8,0:0:0:0:
128,240,180933,1,2,0:0:0:0:
276,192,181395,1,2,0:0:0:0:
292,40,181857,2,0,P|325:31|368:40,1,70,2|2,0:0|0:0,0:0:0:0:
368,112,182319,1,8,3:0:0:0:
232,180,182781,2,0,P|197:187|163:180,1,70,2|0,0:0|0:0,0:0:0:0:
136,112,183243,6,0,B|64:64|0:92|0:92|20:24,2,210,4|2|2,0:0|0:0|0:0,0:0:0:0:
56,236,185147,6,0,B|84:225|84:225|112:147|50:127|-29:154|-55:216|-36:256|-20:292|-10:321|30:336|64:332|127:303|165:290|164:251|163:183|163:183|164:244|174:272|192:281|212:291|225:287|239:282|253:277|261:259|272:241|263:212|232:158|232:158|263:212|351:239|351:239|321:178|334:110|334:110|364:164|384:184|412:180|436:164|460:148|434:65|434:65|516:280,1,1540,2|2,0:0|0:0,0:0:0:0:
384,348,190691,5,2,0:0:0:0:
384,348,191161,2,0,L|240:356,1,140,2|2,0:0|0:0,0:0:0:0:
112,304,192136,5,2,0:0:0:0:
112,304,192694,2,0,P|136:224|112:168,1,140,2|2,0:0|0:0,0:0:0:0:
124,53,194002,5,2,0:0:0:0:
124,53,194881,2,0,P|55:26|-9:68,1,140,2|0,0:0|0:0,0:0:0:0:
32,192,196778,6,0,B|-36:235|-34:286|-17:330|33:328|62:317|92:305|111:264|59:129|59:129|111:264|122:294|152:282|197:265|168:190|151:146|151:146|187:149|207:158|260:207|260:207|252:141|261:120|285:94|285:94|303:139|346:208|376:196|421:179|395:155|347:122|345:71|364:30|373:9|447:-19|468:-9|495:14|532:68|550:113|552:163|498:201|453:218|400:170,1,1540,2|0,0:0|0:0,0:0:0:0:
