osu file format v12

[General]
AudioFilename: Yoomiii-Rhythm Of Love.mp3
AudioLeadIn: 0
PreviewTime: 110002
Countdown: 0
SampleSet: Soft
StackLeniency: 0.7
Mode: 0
LetterboxInBreaks: 1
StoryFireInFront: 0
EpilepsyWarning: 1

[Editor]
DistanceSpacing: 0.7
BeatDivisor: 4
GridSize: 4

[Metadata]
Title:Rhythm Of Love
TitleUnicode:Rhythm Of Love
Artist:Yoomiii
ArtistUnicode:Yoomiii
Creator:Jemmmmy
Version:Insane
Source:
Tags:ekao Let The Music Play
BeatmapID:269963
BeatmapSetID:102071

[Difficulty]
HPDrainRate:6
CircleSize:4
OverallDifficulty:7
ApproachRate:8
SliderMultiplier:1.7
SliderTickRate:1

[Events]
//Background and Video events
0,0,"soldier game.jpg",0,0
//Break Periods
2,80663,83405
2,139740,140636
2,156355,168329
//Storyboard Layer 0 (Background)
//Storyboard Layer 1 (Fail)
//Storyboard Layer 2 (Pass)
//Storyboard Layer 3 (Foreground)
//Storyboard Sound Samples
//Background Colour Transformations
3,100,163,162,255

[TimingPoints]
1079,461.538461538462,4,2,0,60,1,0
42386,-200,4,2,0,60,0,0
42848,-100,4,2,0,60,0,0
44002,-100,4,2,0,45,0,0
44463,-100,4,2,0,30,0,0
44925,-100,4,2,0,15,0,0
45386,-100,4,2,0,45,0,0
47232,-83.3333333333333,4,1,0,60,0,0
62002,-83.3333333333333,4,1,0,60,0,1
76771,-83.3333333333333,4,1,0,60,0,0
76886,-100,4,2,0,60,0,0
106771,-100,4,2,0,45,0,0
107232,-100,4,2,0,30,0,0
107694,-100,4,2,0,15,0,0
108155,-100,4,2,0,45,0,0
110002,-83.3333333333333,4,1,0,60,0,0
124771,-83.3333333333333,4,1,0,60,0,1
139540,-83.3333333333333,4,1,0,60,0,0
141386,-100,4,2,0,50,0,0
170925,-83.3333333333333,4,1,0,60,0,0
200348,-83.3333333333333,4,1,0,60,0,0
200463,-83.3333333333333,4,1,0,60,0,1
215232,-83.3333333333333,4,1,0,60,0,0

[Colours]
Combo1 : 225,205,21
Combo2 : 220,74,58
Combo3 : 24,56,186

[HitObjects]
200,248,15848,6,0,L|200:340,1,85
312,248,16309,2,0,L|404:248,1,85,8|0,0:0|0:0,0:0:0:0:
312,136,16771,2,0,L|312:44,1,85
200,136,17232,2,0,L|108:136,1,85,8|0,0:0|0:0,0:0:0:0:
72,212,17694,5,0,0:0:0:0:
72,212,17925,2,0,P|80:284|100:304,1,85,0|8,0:0|0:0,0:0:0:0:
172,236,18386,1,0,0:0:0:0:
256,296,18617,1,0,0:0:0:0:
340,236,18848,1,0,0:0:0:0:
426,291,19079,2,0,P|432:284|440:212,1,85,8|0,0:0|0:0,0:0:0:0:
392,112,19540,5,0,0:0:0:0:
500,36,19771,1,0,0:0:0:0:
376,0,20002,1,8,0:0:0:0:
392,112,20232,2,0,P|356:176|356:200,2,85
500,36,20925,1,8,0:0:0:0:
508,168,21155,1,0,0:0:0:0:
392,112,21386,5,0,0:0:0:0:
392,112,21617,2,0,L|292:152,1,85,0|8,0:0|0:0,0:0:0:0:
256,224,22079,1,0,0:0:0:0:
256,56,22309,1,0,0:0:0:0:
198,143,22540,2,0,L|120:112,1,85,0|8,0:0|0:0,0:0:0:0:
36,192,23002,1,0,0:0:0:0:
148,256,23232,5,0,0:0:0:0:
32,312,23463,1,0,0:0:0:0:
144,372,23694,1,8,0:0:0:0:
256,312,23925,2,0,L|256:204,2,85
368,372,24617,5,8,0:0:0:0:
480,312,24848,2,0,L|480:200,1,85
344,220,25309,1,0,0:0:0:0:
344,220,25540,2,0,L|344:108,1,85,8|0,0:0|0:0,0:0:0:0:
212,108,26002,1,0,0:0:0:0:
212,108,26232,2,0,L|212:-4,2,85,0|8|0,0:0|0:0|0:0,0:0:0:0:
94,242,26925,5,0,0:0:0:0:
212,376,27155,1,0,0:0:0:0:
329,242,27386,1,8,0:0:0:0:
212,108,27617,2,0,P|244:60|292:44,1,85
408,16,28079,1,0,0:0:0:0:
504,112,28309,1,8,0:0:0:0:
408,216,28540,1,0,0:0:0:0:
256,216,28771,6,0,L|256:312,1,85
184,156,29232,2,0,L|184:60,1,85,8|0,0:0|0:0,0:0:0:0:
104,212,29694,2,0,L|104:308,1,85
32,152,30155,2,0,L|32:56,1,85,8|0,0:0|0:0,0:0:0:0:
32,67,30617,5,0,0:0:0:0:
160,52,30848,2,0,P|220:45|248:13,1,85,0|8,0:0|0:0,0:0:0:0:
356,76,31309,2,0,P|363:136|395:164,1,85,0|0,0:0|0:0,2:0:0:0:
336,330,31771,1,0,0:0:0:0:
56,212,32002,1,8,0:0:0:0:
303,33,32232,1,0,0:3:0:0:
204,124,32463,5,0,0:0:0:0:
320,180,32694,1,0,0:0:0:0:
204,232,32925,1,8,0:0:0:0:
316,296,33155,1,0,0:0:0:0:
204,360,33386,2,0,P|144:340|120:300,1,85
104,200,33848,2,0,P|164:220|188:260,1,85,8|0,0:0|0:0,0:0:0:0:
48,240,34309,6,0,P|36:184|60:140,1,85
124,60,34771,2,0,P|136:116|112:160,1,85,8|0,0:0|0:0,0:0:0:0:
55,103,35232,1,0,0:0:0:0:
212,100,35463,1,0,0:0:0:0:
41,103,35694,1,8,0:0:0:0:
225,100,35925,1,0,0:0:0:0:
272,28,36155,6,0,P|296:72|296:116,1,85
420,208,36617,2,0,P|376:232|332:232,1,85,8|0,0:0|0:0,0:0:0:0:
240,356,37079,2,0,P|216:312|216:268,1,85
92,176,37541,2,0,P|136:152|180:152,1,85,8|0,0:0|0:0,0:0:0:0:
340,288,38002,1,0,0:0:0:0:
340,95,38232,1,0,0:0:0:0:
370,330,38463,1,8,0:0:0:0:
370,54,38693,1,0,0:0:0:0:
178,198,38925,1,0,0:0:0:0:
432,304,39386,5,8,0:0:0:0:
328,204,39617,1,0,0:0:0:0:
444,176,39848,2,0,P|404:228|372:248,1,85
300,332,40309,2,0,P|256:344|208:328,1,85,8|0,0:0|0:0,0:0:0:0:
123,238,40771,2,0,P|108:228|68:176,1,85
256,208,41232,2,0,L|256:104,1,85,8|0,0:0|0:0,0:0:0:0:
113,11,41694,5,0,0:0:0:0:
256,124,41925,1,0,0:0:0:0:
397,11,42155,1,8,0:0:0:0:
256,124,42386,6,0,L|256:224,1,85
139,368,43079,5,8,0:0:0:0:
372,368,43309,1,0,0:0:0:0:
196,288,43540,2,0,P|144:256|132:212,1,85
316,288,44002,2,0,P|368:256|380:212,1,85,8|0,0:0|0:0,0:0:0:0:
80,160,44463,2,0,P|100:104|140:80,1,85
432,160,44925,2,0,P|412:104|372:80,1,85,8|0,0:0|0:0,0:0:0:0:
256,192,45386,1,0,0:0:0:0:
256,32,45848,5,8,0:0:0:0:
68,348,46309,1,0,0:0:0:0:
444,348,46771,1,8,0:0:0:0:
196,160,47232,6,0,P|164:108|104:88,1,101.999996887207,4|0,0:0|0:0,0:0:0:0:
56,228,47694,1,8,0:0:0:0:
336,328,47925,1,0,0:0:0:0:
176,328,48155,1,0,0:0:0:0:
456,228,48386,1,0,0:0:0:0:
256,104,48617,1,8,0:0:0:0:
256,200,48848,2,0,L|256:316,1,101.999996887207
160,180,49309,6,0,L|176:124,1,50.9999984436036
337,130,49540,2,0,L|352:180,1,50.9999984436036
256,104,49771,2,0,L|256:48,1,50.9999984436036
332,32,50002,1,0,0:0:0:0:
332,32,50232,1,0,0:0:0:0:
180,32,50463,1,8,0:0:0:0:
180,32,50693,1,0,0:0:0:0:
360,124,50925,6,0,P|332:172|272:192,1,101.999996887207
152,124,51386,2,0,P|180:172|240:192,1,101.999996887207,8|0,0:0|0:0,0:0:0:0:
432,212,51848,2,0,P|392:256|344:280,1,101.999996887207
80,212,52309,2,0,P|120:256|168:280,2,101.999996887207,8|0|0,0:0|0:0|0:0,0:0:0:0:
164,172,53002,5,0,0:0:0:0:
256,364,53232,1,8,0:0:0:0:
344,172,53463,1,0,0:0:0:0:
408,381,53694,1,0,0:0:0:0:
256,224,53925,1,0,0:0:0:0:
101,381,54155,1,8,0:0:0:0:
256,224,54386,1,0,0:0:0:0:
164,172,54617,6,0,P|140:220|144:280,1,101.999996887207,0|0,0:0|0:0,0:0:0:0:
348,172,55079,2,0,P|372:220|368:280,1,101.999996887207,8|0,0:0|0:0,0:0:0:0:
184,101,55540,1,0,0:0:0:0:
327,101,55771,1,0,0:0:0:0:
208,31,56002,1,8,0:0:0:0:
304,31,56232,1,0,0:0:0:0:
256,126,56463,1,0,0:0:0:0:
256,216,56694,5,0,0:0:0:0:
256,216,56810,1,0,0:0:0:0:
256,216,56925,1,8,0:0:0:0:
256,376,57155,1,0,0:0:0:0:
124,271,57386,1,0,0:0:0:0:
176,112,57617,1,0,0:0:0:0:
344,112,57848,1,8,0:0:0:0:
396,271,58079,1,0,0:0:0:0:
432,132,58309,6,0,L|432:20,1,101.999996887207
316,168,58771,2,0,L|316:56,1,101.999996887207,8|0,0:0|0:0,0:0:0:0:
204,132,59232,2,0,L|204:20,1,101.999996887207
88,168,59694,2,0,L|88:56,1,101.999996887207,8|0,0:0|0:0,0:0:0:0:
124,276,60155,5,0,0:0:0:0:
140,312,60271,1,0,0:0:0:0:
168,340,60386,1,0,0:0:0:0:
204,356,60502,1,0,0:0:0:0:
244,364,60617,2,0,L|304:364,1,50.9999984436036,8|0,0:0|0:0,0:0:0:0:
336,288,60848,2,0,L|285:288,1,50.9999984436036
364,216,61079,5,0,0:0:0:0:
328,200,61194,1,0,0:0:0:0:
304,168,61309,1,0,0:0:0:0:
308,128,61425,1,0,0:0:0:0:
332,96,61540,2,0,P|348:76|372:68,3,50.9999984436036,8|0|0|0,0:0|0:0|0:0|0:0,0:0:0:0:
384,68,62002,5,4,0:0:0:0:
256,252,62232,1,0,0:0:0:0:
128,68,62463,1,8,0:0:0:0:
256,252,62694,1,0,0:0:0:0:
256,120,62925,1,0,0:0:0:0:
124,252,63155,1,0,0:0:0:0:
256,384,63386,1,8,0:0:0:0:
388,252,63616,1,0,0:0:0:0:
408,346,63848,6,0,P|384:296|392:240,1,101.999996887207
232,308,64309,2,0,P|263:257|312:224,1,101.999996887207,8|0,0:0|0:0,0:0:0:0:
176,136,64771,2,0,P|235:137|288:164,1,101.999996887207
308,4,65232,2,0,P|340:52|340:108,1,101.999996887207,8|0,0:0|0:0,0:0:0:0:
488,44,65694,5,0,0:0:0:0:
344,288,65925,1,0,0:0:0:0:
344,96,66155,1,8,0:0:0:0:
488,340,66386,1,0,0:0:0:0:
296,160,66617,1,0,0:0:0:0:
96,312,66848,1,0,0:0:0:0:
216,160,67079,1,8,0:0:0:0:
416,312,67309,1,0,0:0:0:0:
256,192,67540,1,0,0:0:0:0:
416,86,68002,5,8,0:0:0:0:
416,7,68232,1,0,0:0:0:0:
492,61,68463,1,0,0:0:0:0:
462,150,68694,1,0,0:0:0:0:
369,150,68925,1,8,0:0:0:0:
339,61,69155,1,0,0:0:0:0:
192,76,69386,6,0,P|192:140|232:168,1,101.999996887207
312,196,69848,2,0,P|284:252|180:256,1,152.999995330811,8|0,0:0|0:0,0:0:0:0:
172,248,70309,1,0,0:0:0:0:
136,248,70425,1,0,0:0:0:0:
276,340,70655,1,0,0:0:0:0:
240,340,70771,1,0,0:0:0:0:
360,368,71002,5,0,0:0:0:0:
396,364,71118,1,0,0:0:0:0:
424,344,71232,2,0,P|424:288|376:248,1,101.999996887207
117,255,71694,2,0,P|88:288|88:344,1,101.999996887207,8|0,0:0|0:0,0:0:0:0:
376,164,72155,2,0,P|426:137|454:85,1,101.999996887207
61,101,72617,2,0,P|85:137|136:164,1,101.999996887207,8|0,0:0|0:0,0:0:0:0:
376,81,73079,6,0,P|313:105|294:153,1,101.999996887207
213,249,73540,2,0,P|198:278|136:302,1,101.999996887207,8|0,0:0|0:0,0:0:0:0:
145,71,74002,2,0,P|169:134|217:153,1,101.999996887207
314,233,74463,2,0,P|342:249|366:312,1,101.999996887207,8|0,0:0|0:0,0:0:0:0:
176,192,74925,5,0,0:0:0:0:
336,192,75155,1,0,0:0:0:0:
256,88,75386,5,8,0:0:0:0:
256,192,75617,1,0,0:0:0:0:
256,296,75848,1,0,0:0:0:0:
256,296,75963,1,0,0:0:0:0:
324,216,76194,6,0,P|260:188|196:216,1,101.999996887207
196,216,76540,1,0,0:0:0:0:
256,28,76771,1,4,0:0:0:0:
256,192,76886,12,4,80463,0:0:0:0:
58,298,84155,6,0,L|138:359,1,85
172,207,84617,2,0,L|210:299,1,85,8|0,0:0|0:0,0:0:0:0:
339,207,85079,2,0,L|300:299,1,85
453,298,85540,2,0,L|373:359,1,85,8|0,0:0|0:0,0:0:0:0:
256,360,86002,5,0,0:0:0:0:
276,284,86232,1,0,0:0:0:0:
332,32,86463,1,8,0:0:0:0:
312,104,86694,1,0,0:0:0:0:
60,112,86925,1,0,0:0:0:0:
24,44,87155,1,0,0:0:0:0:
164,316,87386,1,8,0:0:0:0:
196,384,87617,1,0,0:0:0:0:
88,280,87848,5,0,0:0:0:0:
88,280,88079,2,0,P|149:235|172:231,1,85,0|8,0:0|0:0,0:0:0:0:
256,169,88540,1,0,0:0:0:0:
328,264,88771,2,0,P|346:260|407:214,1,85
191,74,89232,2,0,P|172:77|111:122,1,85,8|0,0:0|0:0,0:0:0:0:
69,264,89694,5,0,0:0:0:0:
210,230,89925,1,0,0:0:0:0:
111,123,90155,1,8,0:0:0:0:
210,230,90386,2,0,B|180:271|180:271|130:290|122:309,2,85
263,85,91079,1,8,0:0:0:0:
354,199,91309,1,0,0:0:0:0:
423,70,91540,6,0,P|354:39|320:36,1,85
88,70,92002,2,0,P|157:39|165:37,1,85,8|0,0:0|0:0,0:0:0:0:
256,119,92463,2,0,B|256:146|256:146|252:153|252:153|259:153|259:153|252:157|252:157|259:157|259:157|252:161|252:161|259:161|259:161|252:165|252:165|259:165|259:165|252:169|252:169|259:169|259:169|252:172|252:172|259:172|259:172|256:184|256:184|256:237,1,170,0|8,0:0|0:0,0:0:0:0:
256,328,93155,1,0,0:0:0:0:
134,328,93386,1,0,0:0:0:0:
292,156,93617,1,0,0:0:0:0:
377,328,93848,1,8,0:0:0:0:
220,156,94079,1,0,0:0:0:0:
377,328,94309,2,0,P|339:249|316:237,1,85
442,142,94771,2,0,P|360:132|332:149,1,85,8|0,0:0|0:0,0:0:0:0:
256,164,95232,5,4,0:0:0:0:
164,220,95463,1,0,0:0:0:0:
256,28,95694,1,8,0:0:0:0:
348,220,95925,1,0,0:0:0:0:
256,80,96155,1,0,0:0:0:0:
256,372,96386,1,0,0:0:0:0:
256,120,96617,1,8,0:0:0:0:
256,332,96848,1,0,0:0:0:0:
220,268,97079,6,0,P|176:291|126:287,1,85
292,268,97540,2,0,P|336:291|386:287,1,85,8|0,0:0|0:0,0:0:0:0:
164,218,98002,1,0,0:0:0:0:
347,218,98232,1,0,0:0:0:0:
128,140,98463,1,8,0:0:0:0:
384,140,98694,1,0,0:0:0:0:
305,112,98925,6,0,P|339:70|389:62,2,85,0|0|8,0:0|0:0|0:0,0:0:0:0:
385,192,99617,1,0,0:0:0:0:
305,271,99848,2,0,P|339:313|389:321,2,85,0|0|8,0:0|0:0|0:0,0:0:0:0:
385,192,100540,1,0,0:0:0:0:
385,192,100771,5,0,0:0:0:0:
286,192,101002,1,0,0:0:0:0:
191,192,101232,1,8,0:0:0:0:
92,192,101463,1,0,0:0:0:0:
145,112,101694,2,0,L|248:112,1,85
366,271,102155,2,0,L|263:271,1,85,8|0,0:0|0:0,0:0:0:0:
297,112,102617,6,0,L|407:112,1,85
214,271,103079,2,0,L|103:271,1,85,8|0,0:0|0:0,0:0:0:0:
172,112,103540,2,0,L|172:215,1,85
56,140,104002,1,8,0:0:0:0:
172,28,104232,1,0,0:0:0:0:
288,140,104463,2,0,L|288:29,2,85,0|0|8,0:0|0:0|0:0,0:0:0:0:
288,232,105155,1,0,0:0:0:0:
296,300,105386,1,0,0:0:0:0:
344,348,105617,1,0,0:0:0:0:
412,356,105848,1,8,0:0:0:0:
411,279,106079,5,0,0:0:0:0:
411,279,106194,1,0,0:0:0:0:
411,279,106309,2,0,L|411:169,1,85
290,146,106771,2,0,L|290:243,1,85,8|0,0:0|0:0,0:0:0:0:
180,180,107232,2,0,L|180:70,1,85
62,36,107694,2,0,L|62:133,1,85,8|0,0:0|0:0,0:0:0:0:
62,121,108155,1,0,0:0:0:0:
400,192,108617,5,8,0:0:0:0:
256,192,109079,1,0,0:0:0:0:
112,192,109540,1,8,0:0:0:0:
88,88,110002,6,0,B|120:88|120:88|168:112|168:112|204:112,1,101.999996887207,4|0,0:0|0:0,0:0:0:0:
256,12,110463,2,0,L|256:120,1,101.999996887207,8|0,0:0|0:0,0:0:0:0:
424,88,110925,2,0,B|392:88|392:88|344:112|344:112|308:112,2,101.999996887207,0|0|8,0:0|0:0|0:0,0:0:0:0:
385,192,111617,1,0,0:0:0:0:
385,327,111848,1,0,0:0:0:0:
385,192,112079,5,0,0:0:0:0:
292,368,112309,1,8,0:0:0:0:
489,368,112540,1,0,0:0:0:0:
296,248,112771,2,0,B|244:252|244:316|192:328,1,101.999996887207
80,336,113232,2,0,B|132:332|132:268|184:256,1,101.999996887207,8|0,0:0|0:0,0:0:0:0:
28,240,113694,6,0,P|8:192|52:136,1,101.999996887207
208,192,114155,2,0,L|328:192,1,101.999996887207,8|0,0:0|0:0,0:0:0:0:
483,149,114617,2,0,P|504:192|484:240,2,101.999996887207,0|0|8,0:0|0:0|0:0,0:0:0:0:
256,192,115309,2,0,L|256:296,1,101.999996887207
256,192,115771,5,0,0:0:0:0:
256,16,116002,1,8,0:0:0:0:
256,192,116233,1,0,0:0:0:0:
144,88,116463,2,0,B|160:120|160:120|124:160|156:212,1,101.999996887207
368,88,116925,2,0,B|352:120|352:120|388:160|356:212,1,101.999996887207,8|0,0:0|0:0,0:0:0:0:
88,272,117386,6,0,P|132:228|196:224,1,101.999996887207
448,268,117848,2,0,P|404:312|340:316,1,101.999996887207,8|0,0:0|0:0,0:0:0:0:
168,312,118309,1,0,0:0:0:0:
188,52,118540,1,0,0:0:0:0:
376,232,118771,1,8,0:0:0:0:
448,116,119002,5,0,0:0:0:0:
448,116,119117,1,0,0:0:0:0:
448,116,119232,2,0,P|404:72|340:68,1,101.999996887207
304,152,119694,2,0,P|256:168|196:144,1,101.999996887207,8|0,0:0|0:0,0:0:0:0:
145,63,120155,2,0,P|108:72|64:116,1,101.999996887207
256,136,120617,2,0,L|256:248,1,101.999996887207,8|0,0:0|0:0,0:0:0:0:
132,244,121079,6,0,P|100:296|124:340,1,101.999996887207
312,296,121540,2,0,P|344:244|320:200,1,101.999996887207,8|0,0:0|0:0,0:0:0:0:
220,272,122002,2,0,P|188:324|212:368,1,101.999996887207
400,324,122463,2,0,P|432:272|408:228,1,101.999996887207,8|0,0:0|0:0,0:0:0:0:
408,88,122925,5,0,0:0:0:0:
380,120,123040,1,0,0:0:0:0:
348,144,123155,1,0,0:0:0:0:
308,148,123271,1,0,0:0:0:0:
272,132,123386,2,0,P|248:124|232:92,3,50.9999984436036,8|0|0|0,0:0|0:0|0:0|0:0,0:0:0:0:
168,52,123848,5,0,0:0:0:0:
128,64,123963,1,0,0:0:0:0:
100,92,124079,1,0,0:0:0:0:
88,132,124194,1,0,0:0:0:0:
92,172,124309,2,0,P|100:204|116:216,3,50.9999984436036,8|0|0|0,0:0|0:0|0:0|0:0,0:0:0:0:
184,192,124771,6,0,P|176:248|120:292,1,101.999996887207,4|0,0:0|0:0,0:0:0:0:
328,192,125232,2,0,P|336:248|365:280,1,101.999996887207,8|0,0:0|0:0,0:0:0:0:
196,348,125694,2,0,L|204:292,1,50.9999984436036
308,297,125925,2,0,L|316:348,1,50.9999984436036
256,244,126155,2,0,L|256:184,1,50.9999984436036,8|0,0:0|0:0,0:0:0:0:
212,128,126386,2,0,B|148:116|148:116|100:76,1,101.999996887207
133,192,126848,1,0,0:0:0:0:
256,33,127079,1,8,0:0:0:0:
377,192,127309,1,0,0:0:0:0:
392,92,127540,2,0,B|364:116|364:116|300:128,1,101.999996887207
392,291,128002,2,0,B|364:268|364:268|300:256,1,101.999996887207,8|0,0:0|0:0,0:0:0:0:
156,312,128463,6,0,P|232:344|256:344,2,101.999996887207,0|0|8,0:0|0:0|0:0,0:0:0:0:
256,192,129155,1,0,0:0:0:0:
356,72,129386,2,0,P|280:40|256:40,2,101.999996887207,0|0|8,0:0|0:0|0:0,0:0:0:0:
156,72,130079,1,0,0:0:0:0:
64,192,130309,5,0,0:0:0:0:
160,352,130540,1,0,0:0:0:0:
256,192,130771,1,8,0:0:0:0:
352,352,131002,1,0,0:0:0:0:
448,192,131232,2,0,L|448:136,1,50.9999984436036
312,128,131579,2,0,P|288:156|200:136,1,101.999996887207
204,128,131925,1,0,0:0:0:0:
256,40,132155,5,0,0:0:0:0:
256,204,132386,1,0,0:0:0:0:
256,40,132617,2,0,L|256:152,1,101.999996887207,8|0,0:0|0:0,0:0:0:0:
256,204,132963,1,0,0:0:0:0:
204,184,133079,2,0,P|132:208|104:280,2,152.999995330811
256,204,133886,1,0,0:0:0:0:
292,156,134002,6,0,L|344:64,1,101.999996887207
220,156,134463,2,0,L|128:104,1,101.999996887207,8|0,0:0|0:0,0:0:0:0:
220,228,134925,2,0,L|168:320,1,101.999996887207
292,228,135386,2,0,L|384:280,1,101.999996887207,8|0,0:0|0:0,0:0:0:0:
361,47,135848,5,0,0:0:0:0:
400,297,136309,1,8,0:0:0:0:
150,336,136771,1,0,0:0:0:0:
111,86,137232,1,8,0:0:0:0:
256,92,137694,5,0,0:0:0:0:
256,92,137925,1,0,0:0:0:0:
256,292,138155,1,0,0:0:0:0:
256,292,138386,1,0,0:0:0:0:
180,192,138617,5,0,0:0:0:0:
180,192,138732,1,0,0:0:0:0:
348,128,138963,2,0,P|380:200|324:272,1,152.999995330811
256,192,139540,1,4,0:0:0:0:
128,120,141386,6,0,P|96:196|128:280,1,170,0|8,0:0|0:0,0:0:0:0:
200,236,142079,1,0,0:0:0:0:
212,320,142309,2,0,P|260:304|292:276,1,85
308,200,142771,1,8,0:0:0:0:
368,140,143002,2,0,P|394:257|272:272,1,255,0|8,0:0|0:0,0:0:0:0:
308,200,143925,6,0,P|252:176|200:176,1,85
164,232,144386,2,0,P|140:176|144:132,1,85,0|8,0:0|0:0,0:0:0:0:
56,136,144848,2,0,P|104:84|212:100,1,170
256,152,145540,2,0,B|296:112|279:70|279:70|364:48,2,170,8|0|8,0:0|0:0|0:0,0:0:0:0:
424,132,146925,6,0,P|376:152|344:208,1,85
355,176,147386,1,0,0:0:0:0:
424,224,147617,2,0,P|336:256|272:204,1,170
244,140,148309,1,8,0:0:0:0:
244,140,148540,2,0,P|200:192|232:288,1,170
225,283,149232,1,0,0:0:0:0:
296,332,149463,2,0,P|212:360|84:240,1,255,0|8,0:0|0:0,0:0:0:0:
176,124,150617,6,0,P|132:148|96:204,2,85,0|0|8,0:0|0:0|0:0,0:0:0:0:
256,84,151309,1,0,0:0:0:0:
336,124,151540,2,0,P|380:148|416:204,2,85,0|0|8,0:0|0:0|0:0,0:0:0:0:
256,84,152232,1,0,0:0:0:0:
256,176,152463,2,0,L|256:264,1,85
128,264,152925,2,0,P|256:360|384:248,1,340,8|8,0:0|0:0,0:0:0:0:
256,192,154079,12,0,155694,0:0:0:0:
256,192,156155,5,0,0:0:0:0:
256,332,169079,5,0,0:0:0:0:
176,112,169540,1,8,0:0:0:0:
256,192,170002,1,0,0:0:0:0:
336,272,170463,1,8,0:0:0:0:
176,324,170925,6,0,B|168:288|168:288|128:272|120:220,1,101.999996887207,4|0,0:0|0:0,0:0:0:0:
256,236,171386,1,8,0:0:0:0:
256,236,171617,1,0,0:0:0:0:
336,324,171848,2,0,B|344:288|344:288|384:272|392:220,1,101.999996887207
480,180,172309,2,0,P|432:148|368:144,1,101.999996887207,8|0,0:0|0:0,0:0:0:0:
380,28,172771,6,0,P|323:39|275:81,1,101.999996887207
192,8,173232,2,0,P|160:56|156:120,1,101.999996887207,8|0,0:0|0:0,0:0:0:0:
44,132,173694,2,0,P|55:188|97:236,1,101.999996887207
64,336,174155,2,0,P|112:368|175:372,1,101.999996887207,8|0,0:0|0:0,0:0:0:0:
256,324,174617,6,0,L|256:208,1,101.999996887207,4|0,0:0|0:0,0:0:0:0:
172,69,175079,1,8,0:0:0:0:
339,69,175309,1,0,0:0:0:0:
256,224,175540,1,0,0:0:0:0:
66,115,175771,1,0,0:0:0:0:
256,6,176002,1,8,0:0:0:0:
444,115,176232,1,0,0:0:0:0:
392,296,176463,5,0,0:0:0:0:
392,296,176694,1,0,0:0:0:0:
392,296,176809,1,0,0:0:0:0:
392,296,176925,2,0,P|336:312|284:296,1,101.999996887207,8|0,0:0|0:0,0:0:0:0:
312,200,177386,2,0,P|270:189|214:205,1,101.999996887207
232,308,177848,2,0,P|176:324|124:308,1,101.999996887207,8|0,0:0|0:0,0:0:0:0:
164,216,178309,6,0,P|156:140|128:112,1,101.999996887207,4|0,0:0|0:0,0:0:0:0:
104,28,178771,2,0,P|60:100|64:136,1,101.999996887207,8|0,0:0|0:0,0:0:0:0:
172,108,179232,1,0,0:0:0:0:
256,32,179463,1,0,0:0:0:0:
340,108,179694,1,8,0:0:0:0:
408,28,179925,2,0,P|452:100|448:136,1,101.999996887207
412,228,180386,5,0,0:0:0:0:
192,308,180617,1,8,0:0:0:0:
320,308,180848,1,0,0:0:0:0:
100,228,181079,2,0,L|112:288,1,50.9999984436036
316,160,181309,2,0,L|312:109,1,50.9999984436036,0|0,0:0|0:0,0:0:0:0:
199,109,181540,2,0,L|196:160,1,50.9999984436036,8|0,0:0|0:0,0:0:0:0:
401,278,181771,2,0,L|412:228,1,50.9999984436036
366,141,182002,6,0,P|340:168|320:228,1,101.999996887207,4|0,0:0|0:0,0:0:0:0:
256,378,182463,2,0,L|256:276,1,101.999996887207,8|0,0:0|0:0,0:0:0:0:
145,141,182925,2,0,P|172:168|192:228,2,101.999996887207,0|0|8,0:0|0:0|0:0,0:0:0:0:
92,272,183617,1,0,0:0:0:0:
256,360,183848,5,0,0:0:0:0:
428,272,184309,1,8,0:0:0:0:
256,24,184771,1,0,0:0:0:0:
92,272,185232,1,8,0:0:0:0:
140,100,185694,6,0,P|192:104|248:84,1,101.999996887207,4|0,0:0|0:0,0:0:0:0:
372,284,186155,2,0,P|320:280|264:300,1,101.999996887207,8|0,0:0|0:0,0:0:0:0:
273,89,186617,2,0,P|320:104|372:100,1,101.999996887207
238,294,187079,2,0,P|192:280|140:284,1,101.999996887207,8|0,0:0|0:0,0:0:0:0:
35,192,187540,5,0,0:0:0:0:
83,369,187771,1,0,0:0:0:0:
212,240,188002,1,8,0:0:0:0:
35,192,188232,1,0,0:0:0:0:
111,23,188463,1,0,0:0:0:0:
256,134,188694,1,0,0:0:0:0:
400,23,188925,1,8,0:0:0:0:
476,192,189156,1,0,0:0:0:0:
172,240,189386,6,0,L|260:308,1,101.999996887207,4|0,0:0|0:0,0:0:0:0:
384,296,189848,2,0,L|303:233,1,101.999996887207,8|0,0:0|0:0,0:0:0:0:
296,100,190309,2,0,L|384:168,1,101.999996887207
508,144,190771,2,0,L|427:81,1,101.999996887207,8|0,0:0|0:0,0:0:0:0:
256,32,191232,5,0,0:0:0:0:
256,192,191463,1,0,0:0:0:0:
256,352,191694,1,8,0:0:0:0:
256,192,191925,1,0,0:0:0:0:
79,243,192155,5,0,0:0:0:0:
152,56,192386,1,0,0:0:0:0:
359,56,192617,1,8,0:0:0:0:
432,243,192848,1,0,0:0:0:0:
256,300,193079,6,0,B|204:296|180:264|180:264|136:272,1,101.999996887207
32,192,193540,2,0,L|144:192,1,101.999996887207,8|0,0:0|0:0,0:0:0:0:
160,92,194002,2,0,P|216:124|220:184,2,101.999996887207,0|0|8,0:0|0:0|0:0,0:0:0:0:
60,76,194694,2,0,P|88:24|152:4,1,101.999996887207
256,64,195155,1,0,0:0:0:0:
387,5,195386,2,0,P|424:24|452:76,1,101.999996887207,8|0,0:0|0:0,0:0:0:0:
360,120,195848,2,0,B|332:156|300:168|300:168|288:204,1,101.999996887207
152,120,196309,2,0,B|180:156|212:168|212:168|224:204,1,101.999996887207,8|0,0:0|0:0,0:0:0:0:
180,288,196771,6,0,P|228:316|292:308,1,101.999996887207,4|0,0:0|0:0,0:0:0:0:
260,164,197232,1,8,0:0:0:0:
408,304,197463,1,0,0:0:0:0:
488,172,197694,2,0,P|412:156|388:128,1,101.999996887207
500,28,198155,1,8,0:0:0:0:
312,108,198386,1,0,0:0:0:0:
172,48,198617,5,0,0:0:0:0:
144,80,198732,1,0,0:0:0:0:
140,120,198848,1,0,0:0:0:0:
152,160,198963,1,0,0:0:0:0:
184,184,199079,2,0,P|220:200|232:224,3,50.9999984436036,8|0|0|0,0:0|0:0|0:0|0:0,0:0:0:0:
176,268,199540,5,0,0:0:0:0:
212,304,199655,1,0,0:0:0:0:
260,320,199771,1,0,0:0:0:0:
308,308,199886,1,0,0:0:0:0:
344,248,200002,5,8,0:0:0:0:
300,224,200117,1,0,0:0:0:0:
276,180,200232,1,0,0:0:0:0:
288,132,200348,1,0,0:0:0:0:
332,100,200463,6,0,L|440:71,1,101.999996887207,4|0,0:0|0:0,0:0:0:0:
164,116,200925,2,0,L|135:7,1,101.999996887207,8|0,0:0|0:0,0:0:0:0:
180,284,201386,2,0,L|71:312,1,101.999996887207
348,268,201848,2,0,L|376:376,1,101.999996887207,8|0,0:0|0:0,0:0:0:0:
453,192,202309,5,0,0:0:0:0:
256,192,202540,1,0,0:0:0:0:
354,20,202771,1,8,0:0:0:0:
256,192,203002,1,0,0:0:0:0:
157,20,203232,1,0,0:0:0:0:
53,192,203463,1,0,0:0:0:0:
157,363,203694,1,8,0:0:0:0:
354,363,203925,1,0,0:0:0:0:
512,248,204155,6,0,L|404:248,1,101.999996887207,4|0,0:0|0:0,0:0:0:0:
0,136,204617,2,0,L|108:136,1,101.999996887207,8|0,0:0|0:0,0:0:0:0:
256,48,205079,1,0,0:0:0:0:
116,320,205309,1,0,0:0:0:0:
256,48,205540,1,8,0:0:0:0:
396,320,205770,1,0,0:0:0:0:
176,140,206002,5,0,0:0:0:0:
336,140,206232,1,0,0:0:0:0:
256,220,206463,1,8,0:0:0:0:
256,220,206579,1,0,0:0:0:0:
256,220,206694,1,0,0:0:0:0:
128,260,206925,2,0,B|132:300|180:312|180:312|192:336,1,101.999996887207
384,260,207386,2,0,B|380:300|332:312|332:312|320:336,1,101.999996887207,8|0,0:0|0:0,0:0:0:0:
256,256,207848,5,4,0:0:0:0:
256,112,208079,1,0,0:0:0:0:
89,220,208309,1,8,0:0:0:0:
422,220,208540,1,0,0:0:0:0:
160,296,208771,1,0,0:0:0:0:
352,296,209002,1,0,0:0:0:0:
256,344,209232,1,8,0:0:0:0:
256,168,209463,1,0,0:0:0:0:
196,12,209694,6,0,B|156:20|156:20|120:4|80:48,1,101.999996887207
316,12,210155,2,0,B|356:20|356:20|392:4|432:48,1,101.999996887207,8|0,0:0|0:0,0:0:0:0:
135,72,210617,1,0,0:0:0:0:
376,72,210848,1,0,0:0:0:0:
376,312,211079,1,8,0:0:0:0:
135,312,211310,1,0,0:0:0:0:
136,72,211540,6,0,P|105:120|38:150,1,101.999996887207,4|0,0:0|0:0,0:0:0:0:
376,312,212002,2,0,P|406:263|473:233,1,101.999996887207,8|0,0:0|0:0,0:0:0:0:
376,72,212463,2,0,P|327:41|297:-25,1,101.999996887207,0|0,0:0|0:0,0:0:0:0:
136,312,212925,2,0,P|184:342|214:409,1,101.999996887207,8|0,0:0|0:0,0:0:0:0:
256,192,213386,1,6,0:0:0:0:
256,192,213502,12,4,215232,0:0:0:0:
