osu file format v12

[General]
AudioFilename: snow storm -euphoria- [EXH effect] Yooh.mp3
AudioLeadIn: 0
PreviewTime: 48113
Countdown: 0
SampleSet: Soft
StackLeniency: 0.7
Mode: 0
LetterboxInBreaks: 0
WidescreenStoryboard: 0

[Editor]
DistanceSpacing: 1
BeatDivisor: 4
GridSize: 8
TimelineZoom: 1

[Metadata]
Title:snow storm -euphoria-
TitleUnicode:snow storm -euphoria-
Artist:Yooh
ArtistUnicode:Yooh
Creator:ktgster
Version:ADVANCED
Source:SOUND VOLTEX II -infinite infection-
Tags:制作決定記念 リミックスコンテスト Production Confirmation Commemorative Remix Contest SDVX bemani dj TAKA Takayuki Ishikawa beatmania IIDX 14 GOLD Lust
BeatmapID:395852
BeatmapSetID:158075

[Difficulty]
HPDrainRate:5
CircleSize:4
OverallDifficulty:7
ApproachRate:8
SliderMultiplier:1.6
SliderTickRate:2

[Events]
//Background and Video events
0,0,"Snow BG.jpg",0,0
//Break Periods
//Storyboard Layer 0 (Background)
//Storyboard Layer 1 (Fail)
//Storyboard Layer 2 (Pass)
//Storyboard Layer 3 (Foreground)
//Storyboard Sound Samples
//Background Colour Transformations
3,100,163,162,255

[TimingPoints]
1447,333.333333333333,4,1,1,70,1,0
4113,-100,4,1,2,60,0,0
4780,-100,4,1,1,60,0,0
5113,-100,4,1,1,70,0,0
5446,-100,4,1,2,60,0,0
6113,-100,4,1,1,60,0,0
6446,-100,4,1,1,70,0,0
9446,-100,4,1,2,60,0,0
10446,-100,4,1,1,60,0,0
10780,-100,4,1,1,55,0,0
11780,-100,4,1,1,60,0,0
12113,-100,4,1,1,60,0,0
15113,-66.6666666666667,4,1,1,70,0,0
15446,-100,4,1,1,60,0,0
15780,-66.6666666666667,4,1,1,70,0,0
16113,-100,4,1,1,70,0,0
20113,-100,4,1,2,70,0,0
21446,-100,4,1,1,70,0,0
24613,-100,4,2,1,5,0,0
24946,-100,4,1,1,40,0,0
25196,-100,4,2,1,5,0,0
25446,-125,4,2,1,40,0,0
30780,-125,4,2,1,30,0,0
31446,-125,4,2,1,40,0,0
31530,-125,4,2,1,5,0,0
31613,-125,4,2,1,40,0,0
31696,-125,4,2,1,5,0,0
31780,-125,4,2,1,40,0,0
32113,-125,4,2,1,30,0,0
32780,-125,4,2,1,40,0,0
32863,-125,4,2,1,5,0,0
32946,-125,4,2,1,40,0,0
33030,-125,4,2,1,5,0,0
33113,-125,4,2,1,30,0,0
33502,-125,4,2,1,15,0,0
33780,-125,4,2,1,20,0,0
34113,-125,4,2,1,30,0,0
34446,-125,4,2,1,20,0,0
34780,-125,4,2,1,40,0,0
36030,-125,4,2,1,30,0,0
36113,-66.6666666666667,4,2,1,50,0,0
36196,-66.6666666666667,4,2,1,30,0,0
36363,-111.111111111111,4,2,1,40,0,0
38863,-111.111111111111,4,2,1,5,0,0
38946,-111.111111111111,4,2,1,40,0,0
39030,-111.111111111111,4,2,1,5,0,0
39113,-111.111111111111,4,2,1,40,0,0
39196,-111.111111111111,4,2,1,5,0,0
39280,-111.111111111111,4,2,1,40,0,0
39363,-111.111111111111,4,2,1,5,0,0
39446,-111.111111111111,4,2,1,40,0,0
40113,-111.111111111111,4,2,1,60,0,0
40780,-111.111111111111,4,2,2,60,0,0
40863,-111.111111111111,4,2,2,5,0,0
40946,-111.111111111111,4,2,2,60,0,0
41030,-125,4,2,2,5,0,0
41113,-125,4,2,2,60,0,0
41196,-125,4,2,2,5,0,0
41280,-125,4,2,2,60,0,0
41363,-125,4,2,2,5,0,0
41446,-100,4,2,1,60,0,0
47530,-125,4,2,1,5,0,0
47780,-125,4,2,1,50,0,0
47863,-125,4,2,1,5,0,0
48113,-100,4,2,1,80,0,1
49113,-100,4,1,2,70,0,1
49446,-100,4,2,1,80,0,1
50446,-100,4,2,2,70,0,1
50780,-100,4,2,1,80,0,1
52030,-100,4,2,2,80,0,1
52530,-100,4,2,1,80,0,1
52780,-100,4,2,2,90,0,1
52946,-100,4,2,1,80,0,1
53196,-100,4,2,1,60,0,1
53280,-100,4,2,1,80,0,1
53363,-100,4,2,1,60,0,1
53446,-100,4,2,1,80,0,1
59613,-100,4,2,1,60,0,1
59780,-100,4,2,1,80,0,1
59946,-100,4,2,1,50,0,1
60113,-100,4,2,1,80,0,1
60946,-100,4,2,1,60,0,1
61113,-100,4,2,1,80,0,1
61280,-100,4,2,1,50,0,1
61446,-100,4,2,1,80,0,1
65113,-100,4,2,2,80,0,1
65446,-100,4,2,1,80,0,1
65780,-100,4,2,2,90,0,1
66113,-100,4,2,1,80,0,1
66446,-133.333333333333,4,2,1,80,0,0
66530,-133.333333333333,4,2,1,5,0,0
66780,-100,4,2,1,80,0,1
69113,-100,4,2,1,50,0,1
69446,-100,4,2,1,80,0,0
74780,-100,4,2,1,80,0,1
75780,-100,4,2,2,80,0,1
76113,-100,4,2,1,80,0,1
78780,-100,4,2,2,70,0,1
79446,-100,4,2,2,80,0,1
79780,-100,4,2,2,90,0,1
80113,-100,4,2,1,80,0,1
81446,-100,4,2,2,90,0,1
81780,-100,4,2,1,80,0,1
82113,333.333333333333,4,2,1,90,1,1
82779,-100,4,1,1,40,0,0
83113,-100,4,1,1,60,0,0
83446,-100,4,2,1,90,0,1
88779,-100,4,2,1,100,0,1
89446,-100,4,2,1,90,0,1
90112,-100,4,2,1,100,0,1
90779,-100,4,2,1,80,0,1
91446,-100,4,2,1,100,0,1
91779,-133.333333333333,4,2,1,90,0,1
91862,-133.333333333333,4,2,1,5,0,1
92112,-100,4,2,1,100,0,1
92446,-133.333333333333,4,2,1,90,0,1
92529,-133.333333333333,4,2,1,5,0,1
92779,-100,4,2,1,90,0,1
98446,-133.333333333333,4,2,1,90,0,0
98529,-133.333333333333,4,2,1,5,0,0
98779,-100,4,2,1,70,0,1
99446,-100,4,2,1,90,0,1
103446,-100,4,2,2,100,0,1
103779,-100,4,2,1,70,0,1
104112,-100,4,2,2,100,0,1
104446,-100,4,2,1,70,0,1
104946,-100,4,2,1,50,0,1
105112,-100,4,2,1,90,0,1
105279,-100,4,2,1,50,0,1
105446,-100,4,2,1,90,0,1
106125,342.857142857143,4,2,1,90,1,0
108860,444.444444444444,4,2,2,40,1,0
110193,-100,4,2,2,40,0,0
110637,459.770114942529,4,2,2,40,1,0
112252,454.545454545455,4,2,2,40,1,0
112479,461.538461538462,4,2,2,40,1,0
113402,582.52427184466,4,2,2,40,1,0
113984,674.157303370787,4,2,2,40,1,0
114433,-76.9230769230769,4,2,2,40,0,0
116006,-133.333333333333,4,2,2,40,0,0
116118,-133.333333333333,4,2,2,5,0,0

[Colours]
Combo1 : 255,183,219
Combo2 : 113,184,255
Combo3 : 193,132,255
Combo4 : 217,179,255

[HitObjects]
46,77,1447,6,0,P|89:47|192:98,1,160,10|0,0:2|0:0,0:0:0:0:
209,155,1946,1,0,0:0:0:0:
231,231,2113,2,0,P|298:268|367:234,1,160,10|0,0:2|0:0,0:0:0:0:
466,77,2780,6,0,P|423:47|320:98,1,160,10|0,0:2|0:0,0:0:0:0:
303,155,3279,1,0,0:0:0:0:
281,231,3446,2,0,P|213:268|144:234,1,160,10|0,0:2|0:0,0:0:0:0:
100,80,4113,5,0,0:0:0:0:
119,77,4196,1,0,0:0:0:0:
138,74,4280,1,0,0:0:0:0:
216,63,4446,1,0,0:0:0:0:
372,99,4780,2,0,P|387:143|354:212,2,120,0|0|0,0:0|0:0|0:0,0:0:0:0:
307,146,5446,5,0,0:0:0:0:
288,143,5529,1,0,0:0:0:0:
269,140,5613,1,0,0:0:0:0:
191,129,5779,1,0,0:0:0:0:
35,165,6113,2,0,P|20:209|53:278,2,120,0|0|0,0:0|0:0|0:0,0:0:0:0:
99,213,6780,6,0,P|104:129|44:87,1,160,10|0,0:2|0:0,0:0:0:0:
96,23,7280,1,0,0:0:0:0:
166,59,7446,2,0,P|217:79|304:29,1,160,10|0,0:2|0:0,0:0:0:0:
413,171,8113,6,0,P|408:255|468:297,1,160,10|0,0:2|0:0,0:0:0:0:
416,361,8613,1,0,0:0:0:0:
346,325,8779,2,0,P|295:305|208:355,1,160,10|0,0:2|0:0,0:0:0:0:
70,271,9446,6,0,L|20:283,2,40,0|0|0,0:0|0:0|0:0,0:0:0:0:
134,221,9780,2,0,L|184:233,2,40,0|0|0,0:0|0:0|0:0,0:0:0:0:
84,158,10113,2,0,L|64:31,2,120,0|0|0,0:0|0:0|0:0,0:0:0:0:
134,221,10780,5,0,0:0:0:0:
128,240,10863,1,0,0:0:0:0:
122,259,10946,1,0,0:0:0:0:
168,323,11113,1,0,0:0:0:0:
245,341,11280,1,0,0:0:0:0:
320,315,11446,1,0,0:0:0:0:
358,244,11613,2,0,L|368:193,2,40,0|0|0,0:0|0:0|0:0,0:0:0:0:
277,247,11946,1,0,0:0:0:0:
214,197,12113,6,0,P|201:154|208:91,1,80,4|0,0:0|0:0,0:0:0:0:
245,52,12446,1,0,0:0:0:0:
315,89,12613,1,0,0:0:0:0:
339,165,12780,2,0,P|393:110|375:36,1,160,2|0,0:2|0:0,0:0:0:0:
172,218,13446,6,0,P|118:273|137:348,1,160,2|0,0:2|0:0,0:0:0:0:
197,295,13946,1,0,0:0:0:0:
267,332,14113,1,2,0:2:0:0:
310,264,14280,2,0,P|310:224|298:187,1,80,0|0,0:0|0:0,0:0:0:0:
223,157,14613,1,0,0:0:0:0:
229,138,14696,1,0,0:0:0:0:
236,119,14780,5,2,0:2:0:0:
390,76,15113,1,8,0:2:0:0:
483,205,15446,5,2,0:2:0:0:
329,162,15779,1,8,0:2:0:0:
240,295,16113,5,10,0:2:0:0:
240,295,16446,1,10,0:2:0:0:
240,295,16780,1,10,0:2:0:0:
240,295,17113,2,0,L|141:311,1,80,10|2,0:2|0:2,0:0:0:0:
87,275,17446,6,0,P|62:204|97:100,1,160,4|0,0:0|0:0,0:0:0:0:
154,92,17946,1,2,0:2:0:0:
227,123,18113,2,0,P|245:199|220:274,1,160,4|0,0:0|0:0,0:0:0:0:
269,338,18613,1,2,0:2:0:0:
347,352,18780,6,0,P|416:330|437:245,1,160,4|0,0:0|0:0,0:0:0:0:
385,192,19280,1,2,0:2:0:0:
438,131,19446,2,0,P|419:57|347:32,1,160,4|0,0:0|0:0,0:0:0:0:
278,73,19946,1,2,0:2:0:0:
260,151,20113,6,0,L|281:219,2,40,4|2|2,0:0|0:2|0:2,0:0:0:0:
184,178,20446,2,0,L|174:248,2,40,2|2|2,0:2|0:2|0:2,0:0:0:0:
103,176,20780,2,0,L|64:235,2,40,2|2|2,0:2|0:2|0:2,0:0:0:0:
33,135,21113,2,0,L|-27:172,2,40,2|2|2,0:2|0:2|0:2,0:0:0:0:
19,56,21446,5,10,0:2:0:0:
172,102,21780,1,10,0:2:0:0:
319,39,22113,2,0,L|403:54,3,53.3333333333333,10|10|10|8,0:2|0:2|0:2|0:2,0:0:0:0:
256,192,22530,12,0,24613,0:0:0:0:
54,313,25446,5,8,0:0:0:0:
54,313,26113,1,0,0:0:0:0:
306,269,26780,1,0,0:0:0:0:
306,269,27447,1,0,0:0:0:0:
184,229,27780,1,2,0:0:0:0:
279,144,28113,5,0,0:0:0:0:
279,144,28780,2,0,L|139:97,1,128,2|2,0:0|0:0,0:0:0:0:
49,172,29446,2,0,P|28:230|181:316,1,256,2|2,0:0|0:0,0:0:0:0:
268,255,30446,1,2,0:0:0:0:
364,339,30780,5,2,0:2:0:0:
458,101,31446,2,0,L|323:118,1,128,2|0,0:0|0:0,0:0:0:0:
148,45,32113,5,2,0:0:0:0:
54,283,32780,2,0,L|189:266,1,128,2|0,0:0|0:0,0:0:0:0:
254,356,33446,5,0,0:0:0:0:
254,356,34113,1,2,0:2:0:0:
254,356,34780,2,0,L|406:331,1,128,0|2,0:0|0:2,0:0:0:0:
414,212,35446,2,0,L|287:232,1,128,2|2,0:0|0:0,0:0:0:0:
189,127,36113,5,8,0:0:0:0:
189,127,36780,1,0,0:0:0:0:
189,127,37446,2,0,P|248:169|396:38,1,287.999991210938,2|2,0:0|0:0,0:0:0:0:
397,60,38780,5,2,0:0:0:0:
455,192,39113,1,2,0:0:0:0:
311,176,39446,2,0,L|271:192,2,35.9999989013672,2|2|2,0:0|0:0|0:0,0:0:0:0:
360,239,39780,2,0,L|400:255,2,35.9999989013672,2|2|2,0:0|0:0|0:0,0:0:0:0:
298,290,40113,5,0,1:0:0:0:
220,268,40280,1,0,1:0:0:0:
141,282,40446,1,0,1:0:0:0:
89,343,40613,1,2,0:0:0:0:
69,337,40696,1,2,0:0:0:0:
49,331,40780,5,0,1:0:0:0:
66,253,40946,1,0,1:0:0:0:
86,175,41113,1,0,1:0:0:0:
106,97,41280,1,0,1:0:0:0:
175,136,41446,6,0,P|186:81|105:17,1,160,0|0,1:0|1:0,0:0:0:0:
37,37,41946,1,0,1:0:0:0:
20,115,42113,2,0,L|32:216,1,80,0|0,1:0|1:0,0:0:0:0:
102,227,42446,2,0,L|114:328,1,80,0|0,1:0|1:0,0:0:0:0:
59,368,42780,6,0,P|117:340|227:371,1,160,0|0,1:0|1:0,0:0:0:0:
280,321,43280,1,0,1:0:0:0:
346,277,43446,2,0,P|358:231|347:171,1,80,0|0,1:0|1:0,0:0:0:0:
287,156,43780,2,0,P|275:110|286:50,1,80,0|0,1:0|1:0,0:0:0:0:
341,30,44113,5,0,1:0:0:0:
420,41,44280,1,0,1:0:0:0:
479,94,44446,1,0,1:0:0:0:
508,168,44613,1,0,1:0:0:0:
499,247,44780,2,0,P|476:297|439:322,1,80,0|0,1:0|1:0,0:0:0:0:
379,329,45113,2,0,P|365:291|337:263,1,80,0|0,1:0|1:0,0:0:0:0:
258,323,45446,6,0,L|245:370,2,40,0|0|0,1:0|1:0|1:0,0:0:0:0:
209,258,45780,2,0,L|196:211,2,40,0|0|0,1:0|1:0|1:0,0:0:0:0:
149,312,46113,1,0,1:0:0:0:
129,308,46196,1,0,1:0:0:0:
109,304,46280,1,0,1:0:0:0:
74,232,46446,2,0,L|10:250,3,53.3333333333333,2|2|2|2,0:0|0:0|0:0|0:0,0:0:0:0:
53,85,48113,6,0,P|101:60|192:117,1,160,8|0,0:0|0:0,0:0:0:0:
216,180,48613,1,0,0:0:0:0:
212,199,48696,1,0,0:0:0:0:
208,218,48780,1,0,0:0:0:0:
250,285,48946,1,0,0:0:0:0:
324,315,49113,2,0,L|377:311,2,40,0|0|0,0:0|0:0|0:0,0:0:0:0:
313,235,49446,6,0,P|308:193|414:138,1,160,0|0,1:0|0:0,0:0:0:0:
453,78,49946,1,0,0:0:0:0:
445,59,50030,1,0,0:0:0:0:
436,41,50113,1,0,0:0:0:0:
357,22,50280,1,0,0:0:0:0:
281,46,50446,2,0,L|266:98,2,40,0|0|0,1:0|1:0|1:0,0:0:0:0:
207,12,50780,6,0,P|154:26|136:122,1,160,8|0,1:2|0:0,0:0:0:0:
192,173,51280,1,0,0:0:0:0:
241,235,51446,2,0,P|237:310|168:342,1,160,8|0,1:2|0:0,0:0:0:0:
90,323,51946,1,0,0:0:0:0:
32,266,52113,5,8,1:2:0:0:
38,247,52196,1,0,1:0:0:0:
44,227,52280,1,0,1:0:0:0:
50,208,52363,1,0,1:0:0:0:
56,189,52446,1,0,1:0:0:0:
192,105,52780,1,8,1:2:0:0:
198,124,52863,1,0,1:0:0:0:
204,144,52947,1,0,1:0:0:0:
210,163,53030,1,0,1:0:0:0:
216,182,53113,1,0,1:0:0:0:
256,336,53446,5,0,1:0:0:0:
323,293,53613,1,0,0:0:0:0:
384,344,53780,2,0,P|402:271|337:214,1,160,0|0,1:0|1:0,0:0:0:0:
268,233,54280,1,0,0:0:0:0:
256,154,54446,1,8,1:2:0:0:
256,336,54780,5,0,1:0:0:0:
189,293,54947,1,0,0:0:0:0:
128,344,55114,2,0,P|110:271|175:214,1,160,0|0,1:0|1:0,0:0:0:0:
244,233,55614,1,0,0:0:0:0:
256,154,55780,1,8,1:2:0:0:
425,47,56113,6,0,L|469:211,2,160,2|2|2,1:2|1:2|1:2,0:0:0:0:
345,34,56946,1,2,0:2:0:0:
277,77,57113,1,2,1:2:0:0:
256,154,57280,1,0,0:0:0:0:
288,226,57446,6,0,L|336:237,2,40,2|2|2,1:2|0:2|0:2,0:0:0:0:
235,287,57780,2,0,L|273:317,2,40,2|2|2,1:2|0:2|0:2,0:0:0:0:
161,318,58113,2,0,L|183:361,2,40,2|2|2,1:2|0:2|0:2,0:0:0:0:
80,316,58447,2,0,L|81:365,2,40,2|0|4,1:2|0:0|1:0,0:0:0:0:
12,272,58780,6,0,L|34:180,1,80,8|0,1:2|0:0,0:0:0:0:
99,152,59113,1,0,1:0:0:0:
99,152,59280,1,0,0:0:0:0:
77,75,59446,2,0,P|146:84|179:162,1,160,8|8,1:2|1:2,0:0:0:0:
133,225,59946,1,8,0:0:0:0:
206,258,60113,6,0,L|298:236,1,80,0|0,1:0|0:0,0:0:0:0:
326,171,60446,1,0,1:0:0:0:
326,171,60613,1,0,0:0:0:0:
403,193,60779,2,0,P|394:124|316:91,1,160,8|8,1:2|1:2,0:0:0:0:
253,137,61279,1,8,0:2:0:0:
206,202,61446,6,0,L|201:298,2,80,2|2|2,1:2|0:2|1:2,0:0:0:0:
173,128,61946,1,2,0:2:0:0:
105,84,62113,2,0,L|100:-12,2,80,2|2|2,1:2|0:2|1:2,0:0:0:0:
72,158,62613,1,2,0:2:0:0:
40,231,62780,6,0,L|21:275,2,40,2|2|2,1:2|0:2|0:2,0:0:0:0:
100,283,63113,2,0,L|101:330,2,40,2|2|2,1:2|0:2|0:2,0:0:0:0:
179,295,63446,2,0,L|200:337,2,40,2|2|2,1:2|0:2|0:2,0:0:0:0:
257,282,63779,2,0,L|294:311,2,40,2|2|2,1:2|0:2|0:2,0:0:0:0:
304,216,64113,5,0,1:0:0:0:
224,209,64280,1,0,1:0:0:0:
151,175,64446,1,0,1:0:0:0:
119,101,64613,1,0,1:0:0:0:
143,24,64780,2,0,L|228:35,1,80,0|0,1:0|1:0,0:0:0:0:
280,89,65113,1,0,1:0:0:0:
276,108,65196,1,0,1:0:0:0:
272,127,65280,1,0,1:0:0:0:
268,146,65363,1,0,1:0:0:0:
264,165,65446,5,4,1:0:0:0:
187,140,65613,1,0,1:0:0:0:
129,195,65780,1,0,1:0:0:0:
133,214,65863,1,0,1:0:0:0:
137,233,65947,1,0,1:0:0:0:
141,252,66030,1,0,1:0:0:0:
145,271,66113,5,0,1:0:0:0:
224,264,66280,1,0,1:0:0:0:
286,313,66446,1,0,1:0:0:0:
433,249,66780,6,0,L|476:236,3,40,0|0|0|0,1:0|1:0|1:0|1:0,0:0:0:0:
438,214,67113,2,0,L|471:184,3,40,0|0|0|0,1:0|1:0|1:0|1:0,0:0:0:0:
428,179,67446,2,0,L|445:137,3,40,0|0|0|0,1:0|1:0|1:0|1:0,0:0:0:0:
404,153,67779,2,0,L|402:108,3,40,0|0|0|0,1:0|1:0|1:0|1:0,0:0:0:0:
368,134,68113,6,0,L|347:93,2,40,2|2|2,1:2|0:2|1:2,0:0:0:0:
341,226,68446,2,0,L|359:261,2,40,2|2|2,1:2|0:2|1:2,0:0:0:0:
275,155,68780,1,0,1:0:0:0:
183,128,68946,1,0,1:0:0:0:
97,172,69113,2,0,P|90:220|108:274,1,80,0|0,1:0|1:0,0:0:0:0:
180,296,69446,5,10,1:2:0:0:
326,230,69780,1,2,0:0:0:0:
261,183,69946,1,2,0:0:0:0:
259,162,70030,1,2,0:0:0:0:
257,142,70113,1,10,1:2:0:0:
117,64,70446,1,2,0:0:0:0:
126,143,70613,1,2,0:0:0:0:
52,111,70780,5,10,1:2:0:0:
210,94,71113,1,2,0:0:0:0:
147,241,71446,1,10,1:2:0:0:
220,208,71613,1,2,0:0:0:0:
299,214,71780,1,2,0:0:0:0:
354,270,71946,1,0,0:0:0:0:
384,344,72113,5,8,1:2:0:0:
465,206,72446,1,2,0:0:0:0:
397,163,72613,1,0,0:0:0:0:
468,126,72780,5,10,1:2:0:0:
378,258,73113,1,2,0:0:0:0:
308,218,73280,1,2,0:0:0:0:
242,263,73446,5,8,1:2:0:0:
93,201,73780,1,10,1:2:0:0:
242,143,74113,1,10,1:2:0:0:
216,67,74280,1,0,1:0:0:0:
148,24,74446,1,10,1:2:0:0:
69,38,74613,1,2,1:2:0:0:
20,102,74780,5,4,1:0:0:0:
70,163,74946,1,2,0:2:0:0:
66,182,75030,1,2,0:2:0:0:
63,201,75113,1,2,1:2:0:0:
153,332,75446,2,0,L|252:327,1,80,2|2,1:2|0:2,0:0:0:0:
313,324,75780,2,0,L|367:321,2,40,0|0|2,1:0|1:0|1:2,0:0:0:0:
269,256,76113,5,4,1:0:0:0:
269,256,76280,1,2,0:2:0:0:
311,188,76446,1,0,1:0:0:0:
311,188,76613,1,2,0:0:0:0:
259,126,76780,1,2,1:2:0:0:
264,106,76863,1,2,0:2:0:0:
271,87,76946,1,2,0:2:0:0:
282,70,77030,1,2,0:2:0:0:
296,56,77113,1,2,1:2:0:0:
373,35,77280,1,2,0:2:0:0:
439,78,77446,5,4,1:0:0:0:
441,97,77530,1,2,0:2:0:0:
443,116,77613,1,2,1:2:0:0:
448,195,77780,1,2,1:2:0:0:
455,274,77946,1,2,1:2:0:0:
378,250,78113,5,2,1:2:0:0:
376,231,78197,1,2,0:2:0:0:
374,212,78280,1,2,1:2:0:0:
364,132,78447,1,2,1:2:0:0:
356,52,78613,1,2,1:2:0:0:
279,125,78780,6,0,L|282:182,2,40,0|0|0,1:0|1:0|1:0,0:0:0:0:
202,100,79113,2,0,L|199:60,2,40,0|0|0,1:0|1:0|1:0,0:0:0:0:
182,177,79446,2,0,L|185:234,2,40,0|0|0,1:0|1:0|1:0,0:0:0:0:
117,129,79779,2,0,L|120:72,2,40,0|0|0,1:0|1:0|1:0,0:0:0:0:
103,208,80113,6,0,P|58:207|15:188,1,80,4|2,1:0|1:2,0:0:0:0:
1,118,80446,1,2,1:2:0:0:
36,46,80613,1,2,1:2:0:0:
115,31,80780,1,2,1:2:0:0:
134,29,80863,1,2,0:2:0:0:
153,30,80946,1,2,1:2:0:0:
172,33,81030,1,2,1:2:0:0:
190,39,81113,1,2,1:2:0:0:
249,92,81280,1,2,1:2:0:0:
277,166,81446,6,0,L|266:240,2,40,0|0|0,1:0|1:0|1:0,0:0:0:0:
347,127,81780,2,0,L|358:53,2,40,0|0|0,1:0|1:0|1:0,0:0:0:0:
416,166,82113,2,0,P|427:208|417:249,1,80,0|0,1:0|1:0,0:0:0:0:
368,304,82446,1,0,1:0:0:0:
289,318,82613,1,0,1:0:0:0:
216,284,82779,6,0,P|154:275|61:341,1,160,0|0,0:0|0:0,0:0:0:0:
13,267,83279,1,0,0:0:0:0:
62,204,83446,6,0,L|214:176,2,120,4|2|2,1:0|0:0|0:0,0:0:0:0:
27,131,84113,1,0,1:0:0:0:
66,61,84279,2,0,P|109:47|149:47,1,80,2|2,0:0|1:2,0:0:0:0:
210,91,84613,1,2,0:0:0:0:
247,161,84779,6,0,L|219:313,2,120,0|2|2,1:0|0:0|0:0,0:0:0:0:
323,134,85446,1,0,1:0:0:0:
398,158,85612,2,0,P|411:195|412:235,1,80,2|2,0:0|1:2,0:0:0:0:
372,305,85946,1,2,0:0:0:0:
308,354,86113,6,0,P|290:296|323:240,2,120,0|2|2,1:0|0:0|0:0,0:0:0:0:
372,305,86779,1,0,1:0:0:0:
442,342,86946,1,0,0:0:0:0:
497,283,87113,2,0,L|490:172,1,80,0|2,1:0|0:0,0:0:0:0:
486,123,87446,5,2,1:2:0:0:
342,192,87779,1,2,1:2:0:0:
372,117,87946,1,0,0:0:0:0:
364,98,88029,1,0,0:0:0:0:
356,79,88113,1,0,1:0:0:0:
288,37,88279,2,0,P|248:30|203:53,2,80,2|0|2,0:0|1:0|0:0,0:0:0:0:
356,79,88779,5,2,3:2:0:0:
276,218,89113,1,2,3:2:0:0:
435,217,89446,2,0,L|417:299,1,80,0|0,1:0|0:0,0:0:0:0:
350,338,89779,1,8,1:2:0:0:
156,305,90112,5,2,3:2:0:0:
236,166,90446,1,2,3:2:0:0:
77,167,90779,2,0,L|95:85,1,80,0|0,1:0|0:0,0:0:0:0:
162,46,91112,1,8,1:2:0:0:
356,79,91446,6,0,L|339:162,1,80,2|0,0:0|0:0,0:0:0:0:
323,235,91779,1,8,1:0:0:0:
436,342,92112,6,0,L|452:263,1,80,2|0,1:2|0:0,0:0:0:0:
467,184,92446,1,8,1:0:0:0:
288,344,92779,6,0,L|114:355,1,160,2|2,1:2|1:2,0:0:0:0:
61,309,93279,1,2,1:2:0:0:
106,243,93446,1,2,1:2:0:0:
114,225,93529,1,2,0:2:0:0:
119,205,93612,1,2,1:2:0:0:
116,185,93696,1,2,0:2:0:0:
108,166,93779,1,2,1:2:0:0:
46,114,93946,1,2,1:2:0:0:
103,58,94112,6,0,L|245:46,2,120,8|2|0,1:2|0:0|0:0,0:0:0:0:
46,114,94779,1,0,1:0:0:0:
108,166,94946,1,0,0:0:0:0:
127,161,95029,1,0,0:0:0:0:
146,156,95112,1,0,1:0:0:0:
222,181,95279,1,0,0:0:0:0:
241,176,95362,1,0,0:0:0:0:
260,171,95446,6,0,L|236:291,2,120,8|2|0,1:2|0:0|0:0,0:0:0:0:
332,137,96112,1,0,1:0:0:0:
408,161,96279,1,0,0:0:0:0:
413,180,96362,1,0,0:0:0:0:
418,199,96446,1,2,1:2:0:0:
424,217,96529,1,2,0:2:0:0:
429,236,96612,1,2,0:2:0:0:
446,314,96779,5,8,1:2:0:0:
369,289,96946,1,2,0:2:0:0:
292,311,97112,2,0,L|264:359,2,40,2|2|2,1:2|0:2|0:2,0:0:0:0:
244,245,97446,5,8,1:2:0:0:
167,270,97613,1,2,0:2:0:0:
90,248,97779,2,0,L|62:200,2,40,2|2|2,1:2|0:2|0:2,0:0:0:0:
147,192,98112,5,8,1:2:0:0:
152,172,98196,1,2,0:0:0:0:
157,152,98279,1,2,0:2:0:0:
162,132,98362,1,2,0:0:0:0:
168,112,98446,1,10,1:2:0:0:
317,55,98779,5,8,1:2:0:0:
284,211,99112,1,8,1:2:0:0:
448,213,99446,5,10,1:2:0:0:
382,257,99612,2,0,L|350:233,2,40,2|2|2,0:0|0:0|0:0,0:0:0:0:
356,334,99946,1,2,0:0:0:0:
288,292,100112,1,10,1:2:0:0:
268,287,100196,1,2,0:0:0:0:
248,289,100279,1,2,0:0:0:0:
229,296,100362,1,2,0:0:0:0:
213,309,100446,1,2,0:0:0:0:
142,345,100612,1,2,0:0:0:0:
74,301,100779,6,0,L|44:244,2,40,10|2|2,1:2|0:0|0:0,0:0:0:0:
145,264,101112,1,2,0:0:0:0:
145,264,101279,1,2,0:0:0:0:
192,199,101446,1,8,1:2:0:0:
196,119,101612,1,2,0:0:0:0:
151,52,101779,2,0,P|112:40|72:45,1,80,10|0,1:2|1:0,0:0:0:0:
28,110,102112,5,0,1:0:0:0:
85,165,102279,2,0,L|131:155,2,40,2|2|2,1:2|0:2|1:2,0:0:0:0:
47,235,102612,2,0,L|7:226,2,40,2|2|2,1:2|0:2|1:2,0:0:0:0:
108,287,102946,1,2,1:2:0:0:
127,283,103029,1,2,0:2:0:0:
146,279,103112,1,2,1:2:0:0:
224,265,103279,1,2,1:2:0:0:
303,252,103446,5,0,1:0:0:0:
322,257,103529,1,0,1:0:0:0:
341,262,103612,1,0,1:0:0:0:
432,290,103779,1,0,1:0:0:0:
471,102,104112,5,0,1:0:0:0:
452,97,104195,1,0,1:0:0:0:
433,92,104278,1,0,1:0:0:0:
342,64,104445,1,0,1:0:0:0:
265,204,104779,6,0,L|276:292,1,80,2|0,1:2|1:0,0:0:0:0:
201,316,105112,2,0,L|190:228,1,80,2|0,1:2|1:0,0:0:0:0:
111,225,105446,2,0,L|122:313,1,80,2|2,1:2|1:2,0:0:0:0:
48,339,105779,1,2,1:2:0:0:
45,319,105862,1,2,1:2:0:0:
43,299,105945,1,2,1:2:0:0:
40,279,106028,1,2,1:2:0:0:
38,259,106125,1,8,1:2:0:0:
256,192,106210,12,8,108860,0:2:0:0:
111,310,110637,5,2,0:0:0:0:
173,260,111096,1,0,0:0:0:0:
251,242,111556,1,0,0:0:0:0:
323,274,112016,1,2,0:0:0:0:
379,330,112479,6,0,L|470:322,1,80,2|0,0:0|0:0,0:0:0:0:
498,253,112940,1,0,0:0:0:0:
450,188,113171,1,2,0:0:0:0:
494,118,113402,6,0,P|465:84|423:69,1,80,0|0,0:0|0:0,0:0:0:0:
355,100,113984,2,0,P|318:83|294:52,2,80,2|0|2,0:0|0:0|0:0,0:0:0:0:
355,100,116006,6,0,B|380:232|244:184|288:335,1,240.000009155274,2|0,0:0|0:0,0:0:0:0:
