osu file format v14

[General]
AudioFilename: 192 snow storm -euphoria-.mp3
AudioLeadIn: 0
PreviewTime: 48271
Countdown: 0
SampleSet: Soft
StackLeniency: 0.7
Mode: 3
LetterboxInBreaks: 0
SpecialStyle: 0
WidescreenStoryboard: 0

[Editor]
DistanceSpacing: 1
BeatDivisor: 6
GridSize: 8
TimelineZoom: 2

[Metadata]
Title:snow storm -euphoria-
TitleUnicode:snow storm -euphoria-
Artist:Yooh
ArtistUnicode:Yooh
Creator:Raediaufar
Version:ADVANCED
Source:SOUND VOLTEX II -infinite infection-
Tags:dj TAKA SDVX euphoria beatmania IIDX 14 GOLD bemani 制作決定記念 リミックスコンテスト Production Confirmation Commemorative Remix Contest Takayuki Ishikawa
BeatmapID:674175
BeatmapSetID:300599

[Difficulty]
HPDrainRate:7.5
CircleSize:4
OverallDifficulty:7.5
ApproachRate:5
SliderMultiplier:1.4
SliderTickRate:1

[Events]
//Background and Video events
0,0,"BG_skymeteor.jpg",0,0
//Break Periods
//Storyboard Layer 0 (Background)
//Storyboard Layer 1 (Fail)
//Storyboard Layer 2 (Pass)
//Storyboard Layer 3 (Foreground)
//Storyboard Sound Samples

[TimingPoints]
1938,333.333333333333,4,2,1,40,1,0
27271,-100,4,2,1,15,0,0
47271,-100,4,2,1,40,0,0
83937,-100,4,2,1,40,0,1
106604,-100,4,2,1,40,0,0
109271,461.538461538462,4,2,1,15,1,0
113886,582.52427184466,4,2,1,15,1,0
113886,-79.3650793650794,4,2,1,15,0,0
114808,674.157303370787,4,2,1,15,1,0
114808,-68.4931506849315,4,2,1,15,0,0

[HitObjects]
64,192,1937,5,4,0:0:0:0:
448,192,1937,1,0,0:0:0:50:bassdrum.wav
320,192,1937,1,2,0:0:0:0:
192,192,2104,1,0,0:0:0:0:
320,192,2271,1,8,0:0:0:0:
64,192,2271,1,0,0:0:0:0:
448,192,2437,1,0,0:0:0:0:
320,192,2604,1,2,0:0:0:0:
192,192,2604,1,0,0:0:0:50:bassdrum.wav
64,192,2771,1,0,0:0:0:0:
192,192,2937,1,0,0:0:0:50:bassdrum.wav
448,192,2937,1,0,0:0:0:0:
320,192,3104,1,0,0:0:0:0:
192,192,3271,1,2,0:0:0:0:
64,192,3271,1,0,0:0:0:50:bassdrum.wav
320,192,3437,1,0,0:0:0:0:
448,192,3604,1,0,0:0:0:50:bassdrum.wav
64,192,3604,1,0,0:0:0:0:
192,192,3771,1,0,0:0:0:0:
320,192,3937,1,0,0:0:0:50:bassdrum.wav
448,192,3937,1,2,0:0:0:0:
192,192,4104,1,0,0:0:0:0:
64,192,4271,1,0,0:0:0:50:bassdrum.wav
448,192,4271,1,0,0:0:0:0:
192,192,4437,1,0,0:0:0:0:
64,192,4604,1,0,0:0:0:50:bassdrum.wav
448,192,4604,1,0,0:0:0:0:
320,192,4687,1,0,0:0:0:0:
192,192,4771,1,0,0:0:0:0:
64,192,4854,1,0,0:0:0:0:
448,192,4937,1,0,0:0:0:50:bassdrum.wav
320,192,5021,1,0,0:0:0:0:
192,192,5104,1,0,0:0:0:0:
448,192,5271,1,0,0:0:0:50:bassdrum.wav
64,192,5271,1,0,0:0:0:0:
192,192,5354,1,0,0:0:0:0:
320,192,5437,1,0,0:0:0:0:
448,192,5521,1,0,0:0:0:0:
320,192,5604,1,0,0:0:0:50:bassdrum.wav
192,192,5771,1,0,0:0:0:0:
448,192,5937,1,0,0:0:0:50:bassdrum.wav
64,192,5937,1,0,0:0:0:0:kick3.wav
192,192,6021,1,0,0:0:0:0:
320,192,6104,1,0,0:0:0:0:
448,192,6187,1,0,0:0:0:0:
64,192,6271,1,0,0:0:0:50:bassdrum.wav
192,192,6354,1,0,0:0:0:0:
320,192,6437,1,0,0:0:0:0:
192,192,6604,1,0,0:0:0:50:bassdrum.wav
64,192,6604,128,2,6854:0:0:0:0:
448,192,6854,1,2,0:0:0:0:
320,192,6854,128,0,7104:0:0:0:0:
192,192,7104,1,0,0:0:0:50:bassdrum.wav
448,192,7271,1,0,0:0:0:50:bassdrum.wav
64,192,7271,1,4,0:0:0:0:
192,192,7437,1,0,0:0:0:0:
448,192,7604,1,8,0:0:0:0:
320,192,7604,1,0,0:0:0:0:
64,192,7771,1,0,0:0:0:0:
192,192,7937,1,0,0:0:0:50:bassdrum.wav
320,192,7937,1,2,0:0:0:0:
448,192,8104,1,0,0:0:0:0:
0,0,8271,5,0,0:0:0:50:bassdrum.wav
192,192,8271,1,0,0:0:0:0:
448,192,8437,1,0,0:0:0:0:
64,192,8604,1,2,0:0:0:0:
320,192,8604,1,0,0:0:0:50:bassdrum.wav
192,192,8771,1,0,0:0:0:0:
320,192,8937,1,0,0:0:0:50:bassdrum.wav
448,192,8937,1,0,0:0:0:0:
64,192,9104,1,0,0:0:0:0:
192,192,9271,1,0,0:0:0:50:bassdrum.wav
320,192,9271,1,2,0:0:0:0:
448,192,9437,1,0,0:0:0:0:
320,192,9604,1,0,0:0:0:50:bassdrum.wav
64,192,9604,1,0,0:0:0:0:
192,192,9771,1,0,0:0:0:0:
64,192,9937,1,0,0:0:0:50:bassdrum.wav
448,192,9937,1,0,0:0:0:0:
192,192,10021,1,0,0:0:0:0:
320,192,10104,1,0,0:0:0:50:bassdrum.wav
448,192,10187,1,0,0:0:0:0:
64,192,10271,1,0,0:0:0:50:bassdrum.wav
192,192,10271,1,0,0:0:0:0:
448,192,10437,1,0,0:0:0:50:bassdrum.wav
64,192,10604,1,0,0:0:0:50:bassdrum.wav
192,192,10604,1,0,0:0:0:0:
320,192,10771,1,0,0:0:0:50:bassdrum.wav
192,192,10854,1,0,0:0:0:0:
64,192,10937,1,0,0:0:0:50:bassdrum.wav
448,192,10937,1,0,0:0:0:0:
320,192,11104,1,0,0:0:0:50:bassdrum.wav
64,192,11271,1,0,0:0:0:50:bassdrum.wav
448,192,11271,1,0,0:0:0:0:
192,192,11354,1,0,0:0:0:0:
320,192,11437,1,0,0:0:0:0:
448,192,11521,1,0,0:0:0:50:bassdrum.wav
192,192,11604,1,0,0:0:0:50:bassdrum.wav
64,192,11604,1,0,0:0:0:0:
320,192,11771,1,0,0:0:0:0:
192,192,11854,1,0,0:0:0:50:bassdrum.wav
64,192,11937,1,0,0:0:0:50:bassdrum.wav
448,192,11937,1,0,0:0:0:0:
320,192,12021,1,0,0:0:0:0:
192,192,12104,1,0,0:0:0:50:bassdrum.wav
320,192,12187,1,0,0:0:0:50:bassdrum.wav
448,192,12271,1,0,0:0:0:50:bassdrum.wav
64,192,12354,1,0,0:0:0:0:
192,192,12437,1,0,0:0:0:50:bassdrum.wav
320,192,12521,1,0,0:0:0:50:bassdrum.wav
64,192,12604,1,2,0:0:0:0:
448,192,12604,1,4,0:0:0:0:
192,192,12604,1,0,0:0:0:50:bassdrum.wav
320,192,12937,1,8,0:0:0:0:
192,192,13104,1,0,0:0:0:0:
64,192,13271,1,0,0:0:0:50:bassdrum.wav
448,192,13271,1,2,0:0:0:0:
192,192,13437,1,0,0:0:0:0:
448,192,13604,1,0,0:0:0:50:bassdrum.wav
64,192,13771,1,0,0:0:0:0:
448,192,13937,1,2,0:0:0:0:
320,192,13937,1,4,0:0:0:50:bassdrum.wav
192,192,14104,1,0,0:0:0:0:
448,192,14271,1,0,0:0:0:50:bassdrum.wav
192,192,14437,1,0,0:0:0:0:
64,192,14604,1,2,0:0:0:0:
448,192,14604,1,0,0:0:0:50:bassdrum.wav
320,192,14771,1,0,0:0:0:0:
192,192,14937,1,0,0:0:0:50:bassdrum.wav
448,192,15021,1,0,0:0:0:0:
64,192,15104,1,0,0:0:0:0:
192,192,15160,1,0,0:0:0:0:
320,192,15215,1,0,0:0:0:0:
64,192,15271,1,0,0:0:0:0:
448,192,15271,1,0,0:0:0:50:bassdrum.wav
64,192,15604,1,0,0:0:0:50:bassdrum.wav
320,192,15604,1,0,0:0:0:0:
448,192,15854,1,2,0:0:0:0:
320,192,15937,1,0,0:0:0:50:bassdrum.wav
64,192,15937,1,2,0:0:0:0:
192,192,16271,1,0,0:0:0:50:bassdrum.wav
448,192,16271,1,0,0:0:0:0:
192,192,16604,1,0,0:0:0:50:bassdrum.wav
320,192,16604,1,4,0:0:0:0:
64,192,16604,1,2,0:0:0:0:
192,192,16937,1,0,0:0:0:50:bassdrum.wav
448,192,16937,1,4,0:0:0:0:
320,192,16937,1,2,0:0:0:0:
320,192,17271,1,2,0:0:0:0:
64,192,17271,1,0,0:0:0:50:bassdrum.wav
448,192,17271,1,4,0:0:0:0:
192,192,17521,1,0,0:0:0:0:
448,192,17604,1,4,0:0:0:50:bassdrum.wav
64,192,17604,1,2,0:0:0:0:
320,192,17687,1,0,0:0:0:50:bassdrum.wav
192,192,17771,1,0,0:0:0:50:bassdrum.wav
64,192,17854,1,0,0:0:0:50:bassdrum.wav
320,192,17937,1,4,0:0:0:0:
448,192,17937,1,0,0:0:0:50:bassdrum.wav
192,192,18104,1,0,0:0:0:50:bassdrum.wav
64,192,18104,1,0,0:0:0:0:
320,192,18271,1,0,0:0:0:50:bassdrum.wav
448,192,18271,1,0,0:0:0:0:
320,192,18437,1,0,0:0:0:50:bassdrum.wav
64,192,18437,1,0,0:0:0:0:
448,192,18604,1,0,0:0:0:50:bassdrum.wav
192,192,18604,1,0,0:0:0:0:
320,192,18771,1,0,0:0:0:50:bassdrum.wav
64,192,18771,1,0,0:0:0:0:
64,192,18937,1,0,0:0:0:50:bassdrum.wav
448,192,18937,1,0,0:0:0:0:
320,192,19104,1,0,0:0:0:50:bassdrum.wav
192,192,19104,1,0,0:0:0:0:
64,192,19271,1,4,2:2:0:0:
448,192,19271,1,0,0:0:0:0:
192,192,19437,1,0,0:0:0:50:bassdrum.wav
448,192,19437,1,0,0:0:0:0:
320,192,19604,1,0,0:0:0:50:bassdrum.wav
64,192,19604,1,0,0:0:0:0:
192,192,19771,1,0,0:0:0:50:bassdrum.wav
448,192,19771,1,0,0:0:0:0:
64,192,19937,1,0,0:0:0:0:
192,192,19937,1,0,0:0:0:50:bassdrum.wav
448,192,20104,1,0,0:0:0:50:bassdrum.wav
320,192,20104,1,0,0:0:0:0:
320,192,20271,1,0,0:0:0:50:bassdrum.wav
64,192,20271,1,0,0:0:0:0:
192,192,20437,1,0,0:0:0:0:
448,192,20437,1,0,0:0:0:50:bassdrum.wav
64,192,20604,1,4,2:2:0:0:
448,192,20604,1,0,0:0:0:50:bassdrum.wav
320,192,20687,1,0,0:0:0:50:bassdrum.wav
192,192,20771,1,0,0:0:0:50:bassdrum.wav
64,192,20854,1,0,0:0:0:50:bassdrum.wav
320,192,20937,1,0,0:0:0:50:bassdrum.wav
192,192,21021,1,0,0:0:0:50:bassdrum.wav
320,192,21104,1,0,0:0:0:50:bassdrum.wav
448,192,21187,1,0,0:0:0:50:bassdrum.wav
64,192,21271,1,4,2:2:0:0:
192,192,21271,1,0,0:0:0:50:bassdrum.wav
320,192,21354,1,0,0:0:0:50:bassdrum.wav
448,192,21437,1,0,0:0:0:50:bassdrum.wav
64,192,21521,1,0,0:0:0:50:bassdrum.wav
192,192,21604,1,0,0:0:0:50:bassdrum.wav
320,192,21687,1,0,2:2:0:50:bassdrum.wav
448,192,21771,1,0,0:0:0:50:bassdrum.wav
320,192,21854,1,0,2:2:0:50:bassdrum.wav
192,192,21937,1,4,2:2:0:50:bassdrum.wav
64,192,21937,1,0,0:0:0:0:
320,192,22271,1,0,0:0:0:50:bassdrum.wav
448,192,22271,1,4,0:0:0:0:
64,192,22604,1,0,0:0:0:50:bassdrum.wav
192,192,22715,1,0,0:0:0:50:bassdrum.wav
320,192,22826,1,0,0:0:0:50:bassdrum.wav
64,192,22937,1,4,0:0:0:0:
448,192,22937,1,0,0:0:0:50:bassdrum.wav
320,192,25937,128,0,27271:0:0:0:0:
192,192,25937,1,0,0:0:0:0:bassdrum.wav
64,192,27271,128,0,28604:0:0:0:0:
448,192,27271,1,0,0:0:0:0:
320,192,27604,1,0,0:0:0:0:
448,192,27937,1,0,0:0:0:0:
320,192,28104,1,0,0:0:0:0:
192,192,28271,1,0,0:0:0:0:
448,192,28604,1,0,0:0:0:0:
320,192,28771,1,0,0:0:0:0:
64,192,28937,1,0,0:0:0:0:
192,192,29104,1,0,0:0:0:0:
320,192,29271,1,0,0:0:0:0:
448,192,29521,1,0,0:0:0:0:
320,192,29604,1,0,0:0:0:0:
192,192,29687,1,0,0:0:0:0:
64,192,29771,1,0,0:0:0:0:
192,192,29937,1,0,0:0:0:0:
192,192,30437,1,0,0:0:0:0:
320,192,30521,1,0,0:0:0:0:
448,192,30604,1,0,0:0:0:0:
64,192,30937,1,0,0:0:0:0:
320,192,31271,128,0,31937:0:0:0:0:
64,192,31937,128,0,32604:0:0:0:0:
448,192,32604,128,0,33271:0:0:0:0:
192,192,33271,128,0,33937:0:0:0:0:
320,192,33937,128,0,34604:0:0:0:0:
64,192,34604,128,0,35271:0:0:0:0:
320,192,35271,1,0,0:0:0:0:
448,192,35271,1,0,0:0:0:0:
192,192,35604,1,0,0:0:0:0:
320,192,35604,1,0,0:0:0:0:
192,192,35937,1,0,0:0:0:0:
64,192,35937,1,0,0:0:0:0:
320,192,36271,1,0,0:0:0:0:
448,192,36271,1,0,0:0:0:0:
192,192,36604,1,0,0:0:0:0:
64,192,36604,128,0,37937:0:0:0:0:
448,192,36854,1,0,0:0:0:0:
192,192,37104,1,0,0:0:0:0:
448,192,37271,1,0,0:0:0:0:
320,192,37521,1,0,0:0:0:0:
448,192,37771,1,0,0:0:0:0:
320,192,37937,1,0,0:0:0:0:
192,192,37937,128,0,39271:0:0:0:0:
448,192,38187,1,0,0:0:0:0:
64,192,38437,1,0,0:0:0:0:
320,192,38604,1,0,0:0:0:0:
448,192,38854,1,0,0:0:0:0:
64,192,39104,1,0,0:0:0:0:
320,192,39271,128,0,40604:0:0:0:20:bassdrum.wav
448,192,39271,1,0,0:0:0:0:
64,192,39521,1,0,0:0:0:0:
448,192,39771,1,0,0:0:0:23:bassdrum.wav
192,192,39937,1,0,0:0:0:26:bassdrum.wav
448,192,40271,1,0,0:0:0:33:bassdrum.wav
64,192,40604,1,0,0:0:0:50:bassdrum.wav
448,192,40937,1,0,0:0:0:50:bassdrum.wav
320,192,41021,1,0,0:0:0:0:
192,192,41104,1,0,0:0:0:50:bassdrum.wav
320,192,41187,1,0,0:0:0:0:
192,192,41271,1,0,0:0:0:50:bassdrum.wav
64,192,41354,1,0,0:0:0:0:
320,192,41437,1,0,0:0:0:50:bassdrum.wav
192,192,41521,1,0,0:0:0:0:
64,192,41604,1,0,0:0:0:50:bassdrum.wav
192,192,41687,1,0,0:0:0:0:
320,192,41771,1,0,0:0:0:50:bassdrum.wav
448,192,41854,1,0,0:0:0:0:
64,192,41937,1,0,0:0:0:50:bassdrum.wav
320,192,42104,1,0,0:0:0:50:bassdrum.wav
448,192,42271,1,0,0:0:0:50:bassdrum.wav
192,192,42437,1,0,0:0:0:50:bassdrum.wav
64,192,42604,1,0,0:0:0:50:bassdrum.wav
320,192,42771,1,0,0:0:0:50:bassdrum.wav
192,192,42937,1,0,0:0:0:50:bassdrum.wav
64,192,43104,1,0,0:0:0:50:bassdrum.wav
320,192,43271,1,0,0:0:0:50:bassdrum.wav
64,192,43437,1,0,0:0:0:50:bassdrum.wav
192,192,43604,1,0,0:0:0:50:bassdrum.wav
448,192,43771,1,0,0:0:0:50:bassdrum.wav
320,192,43937,1,0,0:0:0:50:bassdrum.wav
64,192,44104,1,0,0:0:0:50:bassdrum.wav
320,192,44271,1,0,0:0:0:50:bassdrum.wav
448,192,44437,1,0,0:0:0:50:bassdrum.wav
64,192,44604,1,0,0:0:0:50:bassdrum.wav
192,192,44687,1,0,0:0:0:50:bassdrum.wav
320,192,44771,1,0,0:0:0:50:bassdrum.wav
448,192,44854,1,0,0:0:0:50:bassdrum.wav
64,192,44937,1,0,0:0:0:50:bassdrum.wav
192,192,45021,1,0,0:0:0:50:bassdrum.wav
320,192,45104,1,0,0:0:0:50:bassdrum.wav
448,192,45187,1,0,0:0:0:50:bassdrum.wav
320,192,45271,1,0,0:0:0:50:bassdrum.wav
192,192,45354,1,0,0:0:0:50:bassdrum.wav
64,192,45437,1,0,0:0:0:50:bassdrum.wav
192,192,45521,1,0,0:0:0:50:bassdrum.wav
320,192,45604,1,0,0:0:0:50:bassdrum.wav
448,192,45687,1,0,0:0:0:50:bassdrum.wav
320,192,45771,1,0,0:0:0:50:bassdrum.wav
192,192,45854,1,0,0:0:0:50:bassdrum.wav
64,192,45937,1,0,0:0:0:50:bassdrum.wav
448,192,46021,1,0,0:0:0:50:bassdrum.wav
320,192,46104,1,0,0:0:0:50:bassdrum.wav
192,192,46187,1,0,0:0:0:50:bassdrum.wav
64,192,46271,1,0,0:0:0:50:bassdrum.wav
448,192,46354,1,0,0:0:0:50:bassdrum.wav
320,192,46437,1,0,0:0:0:50:bassdrum.wav
192,192,46521,1,0,0:0:0:50:bassdrum.wav
64,192,46604,1,0,0:0:0:50:bassdrum.wav
448,192,46687,1,0,0:0:0:50:bassdrum.wav
320,192,46771,1,0,0:0:0:50:bassdrum.wav
192,192,46854,1,0,0:0:0:50:bassdrum.wav
64,192,46937,128,0,47271:0:0:0:0:
320,192,47271,1,2,0:0:0:0:
64,192,48604,1,0,0:0:0:50:bassdrum.wav
448,192,48604,1,4,0:0:0:0:
320,192,48604,1,0,0:0:0:0:
192,192,48771,1,0,0:0:0:0:
320,192,48937,1,8,0:0:0:0:
448,192,48937,1,0,0:0:0:0:
64,192,49104,1,0,0:0:0:0:
192,192,49271,1,0,0:0:0:0:clap.wav
320,192,49271,1,0,0:0:0:50:bassdrum.wav
448,192,49437,1,0,0:0:0:0:
64,192,49604,1,8,0:0:0:0:
192,192,49604,1,0,0:0:0:0:
448,192,49771,1,0,0:0:0:0:
320,192,49854,1,0,0:0:0:0:
192,192,49937,1,0,0:0:0:50:bassdrum.wav
64,192,49937,1,0,0:0:0:0:
448,192,50104,1,0,0:0:0:0:
320,192,50271,1,8,0:0:0:0:
192,192,50271,1,0,0:0:0:0:
64,192,50437,1,0,0:0:0:0:
448,192,50604,1,0,0:0:0:0:clap.wav
192,192,50604,1,0,0:0:0:50:bassdrum.wav
64,192,50771,1,0,0:0:0:0:
448,192,50937,1,8,0:0:0:0:
320,192,50937,1,0,0:0:0:0:
0,0,51104,1,0,0:0:0:0:
192,192,51187,1,0,0:0:0:0:
320,192,51271,1,0,0:0:0:50:bassdrum.wav
448,192,51271,1,0,0:0:0:0:
64,192,51437,1,0,0:0:0:0:
448,192,51604,1,8,0:0:0:0:
192,192,51604,1,0,0:0:0:0:
320,192,51771,1,0,0:0:0:0:
192,192,51937,1,0,0:0:0:50:bassdrum.wav
64,192,51937,1,0,0:0:0:0:
320,192,52104,1,0,0:0:0:0:
448,192,52271,1,8,0:0:0:0:
64,192,52271,1,0,0:0:0:0:
192,192,52437,1,0,0:0:0:0:
320,192,52521,1,0,0:0:0:0:
192,192,52604,1,0,0:0:0:50:bassdrum.wav
448,192,52604,1,0,0:0:0:0:
64,192,52771,1,0,0:0:0:0:
320,192,52937,1,8,0:0:0:0:
448,192,52937,1,0,0:0:0:0:
192,192,53021,1,0,0:0:0:0:
64,192,53104,1,0,0:0:0:0:
192,192,53187,1,0,0:0:0:0:
320,192,53271,1,0,0:0:0:50:bassdrum.wav
448,192,53437,1,0,0:0:0:0:
320,192,53521,1,0,0:0:0:0:
192,192,53604,1,8,0:0:0:0:
320,192,53687,1,0,0:0:0:0:
192,192,53771,1,0,0:0:0:50:bassdrum.wav
64,192,53854,1,0,0:0:0:0:
192,192,53937,1,0,0:0:0:50:bassdrum.wav
320,192,53937,1,0,0:0:0:0:
64,192,54271,1,8,0:0:0:0:
448,192,54271,1,0,0:0:0:0:
448,192,54604,1,0,0:0:0:50:bassdrum.wav
192,192,54604,1,0,0:0:0:0:
64,192,54937,1,8,0:0:0:0:
320,192,54937,1,0,0:0:0:0:
448,192,55271,1,0,0:0:0:50:bassdrum.wav
320,192,55271,1,0,0:0:0:0:
64,192,55604,1,8,0:0:0:0:
192,192,55604,1,0,0:0:0:0:
320,192,55937,1,0,0:0:0:50:bassdrum.wav
192,192,55937,1,0,0:0:0:0:
320,192,56271,1,8,0:0:0:0:
448,192,56271,1,0,0:0:0:0:
448,192,56604,1,0,0:0:0:50:bassdrum.wav
64,192,56604,1,0,0:0:0:0:
192,192,56687,1,0,0:0:0:0:
320,192,56771,1,0,0:0:0:0:
448,192,56854,1,0,0:0:0:0:
320,192,56937,1,8,0:0:0:0:
192,192,57021,1,0,0:0:0:0:
64,192,57104,1,0,0:0:0:0:
192,192,57187,1,0,0:0:0:0:
320,192,57271,1,0,0:0:0:50:bassdrum.wav
448,192,57354,1,0,0:0:0:0:
64,192,57437,1,0,0:0:0:0:
192,192,57521,1,0,0:0:0:0:
320,192,57604,1,8,0:0:0:0:
448,192,57687,1,0,0:0:0:0:
320,192,57771,1,0,0:0:0:0:
192,192,57854,1,0,0:0:0:0:
64,192,57937,1,0,0:0:0:50:bassdrum.wav
448,192,58021,1,0,0:0:0:0:
320,192,58104,1,0,0:0:0:0:
192,192,58187,1,0,0:0:0:0:
64,192,58271,1,8,0:0:0:0:
320,192,58354,1,0,0:0:0:0:
192,192,58437,1,0,0:0:0:0:
64,192,58521,1,0,0:0:0:50:bassdrum.wav
192,192,58604,1,0,0:0:0:50:bassdrum.wav
320,192,58687,1,0,0:0:0:0:
448,192,58771,1,0,0:0:0:50:bassdrum.wav
320,192,58854,1,0,0:0:0:0:
192,192,58937,1,0,0:0:0:50:bassdrum.wav
64,192,59021,1,0,0:0:0:0:
192,192,59104,1,0,0:0:0:50:bassdrum.wav
320,192,59187,1,0,0:0:0:0:
448,192,59271,1,0,0:0:0:50:bassdrum.wav
64,192,59271,1,4,0:0:0:0:
192,192,59437,1,0,0:0:0:0:
320,192,59604,1,8,0:0:0:0:
448,192,59604,1,0,0:0:0:0:
192,192,59771,1,0,0:0:0:0:
64,192,59937,1,0,0:0:0:50:bassdrum.wav
448,192,59937,1,0,0:0:0:0:
320,192,60104,1,0,0:0:0:0:
64,192,60271,1,8,0:0:0:0:
192,192,60271,1,0,0:0:0:0:
448,192,60437,1,0,0:0:0:0:
320,192,60521,1,0,0:0:0:0:
192,192,60604,1,0,0:0:0:50:bassdrum.wav
64,192,60604,1,0,0:0:0:0:
320,192,60771,1,0,0:0:0:0:
64,192,60937,1,8,0:0:0:0:
448,192,60937,1,0,0:0:0:0:
192,192,61104,1,0,0:0:0:0:
320,192,61271,1,0,0:0:0:50:bassdrum.wav
448,192,61271,1,0,0:0:0:0:
192,192,61437,1,0,0:0:0:0:
64,192,61604,1,8,0:0:0:0:
448,192,61604,1,0,0:0:0:0:
320,192,61771,1,0,0:0:0:0:
192,192,61854,1,0,0:0:0:0:
64,192,61937,1,0,0:0:0:50:bassdrum.wav
448,192,61937,1,0,0:0:0:0:
192,192,62104,1,0,0:0:0:0:
320,192,62271,1,8,0:0:0:0:
448,192,62271,1,0,0:0:0:0:
64,192,62437,1,0,0:0:0:0:
192,192,62521,1,0,0:0:0:0:
320,192,62604,1,0,0:0:0:50:bassdrum.wav
64,192,62604,1,0,0:0:0:0:
448,192,62771,1,0,0:0:0:0:
320,192,62854,1,0,0:0:0:0:
192,192,62937,1,8,0:0:0:0:
64,192,63021,1,0,0:0:0:0:
192,192,63104,1,0,0:0:0:0:
320,192,63187,1,0,0:0:0:0:
448,192,63271,1,0,0:0:0:50:bassdrum.wav
320,192,63354,1,0,0:0:0:0:
192,192,63437,1,0,0:0:0:0:
64,192,63521,1,0,0:0:0:0:
192,192,63604,1,8,0:0:0:0:
320,192,63687,1,0,0:0:0:0:
448,192,63771,1,0,0:0:0:0:
64,192,63854,1,0,0:0:0:0:
192,192,63937,1,0,0:0:0:50:bassdrum.wav
320,192,64021,1,0,0:0:0:0:
448,192,64104,1,0,0:0:0:0:
64,192,64187,1,0,0:0:0:0:
192,192,64271,1,8,0:0:0:0:
320,192,64354,1,0,0:0:0:0:
448,192,64437,1,0,0:0:0:0:
320,192,64521,1,0,0:0:0:0:
64,192,64604,1,4,2:2:0:0:
192,192,64604,1,0,0:0:0:50:bassdrum.wav
320,192,64771,1,0,0:0:0:50:bassdrum.wav
448,192,64771,1,0,0:0:0:0:
64,192,64937,1,0,0:0:0:50:bassdrum.wav
192,192,64937,1,0,0:0:0:0:
448,192,65104,1,0,0:0:0:50:bassdrum.wav
192,192,65104,1,0,0:0:0:0:
64,192,65271,1,0,0:0:0:50:bassdrum.wav
320,192,65271,1,0,0:0:0:0:
192,192,65437,1,0,0:0:0:50:bassdrum.wav
448,192,65437,1,0,0:0:0:0:
64,192,65604,1,0,0:0:0:50:bassdrum.wav
448,192,65604,1,0,0:0:0:0:
192,192,65771,1,0,0:0:0:50:bassdrum.wav
320,192,65771,1,0,0:0:0:0:
64,192,65937,1,4,2:2:0:0:
448,192,65937,1,0,0:0:0:50:bassdrum.wav
320,192,66104,1,0,0:0:0:50:bassdrum.wav
64,192,66104,1,0,0:0:0:0:
192,192,66271,1,0,0:0:0:50:bassdrum.wav
448,192,66271,1,0,0:0:0:0:
64,192,66437,1,0,0:0:0:50:bassdrum.wav
320,192,66437,1,0,0:0:0:0:
192,192,66604,1,0,0:0:0:50:bassdrum.wav
448,192,66604,1,0,0:0:0:0:
64,192,66771,1,0,0:0:0:50:bassdrum.wav
192,192,66771,1,0,0:0:0:0:
320,192,66937,1,0,0:0:0:50:bassdrum.wav
448,192,66937,1,0,0:0:0:0:
192,192,67104,1,0,0:0:0:50:bassdrum.wav
320,192,67104,1,0,0:0:0:0:
64,192,67271,1,4,2:2:0:0:
448,192,67271,1,0,0:0:0:50:bassdrum.wav
192,192,67354,1,0,0:0:0:50:bassdrum.wav
320,192,67437,1,0,0:0:0:50:bassdrum.wav
448,192,67521,1,0,0:0:0:50:bassdrum.wav
320,192,67604,1,0,0:0:0:50:bassdrum.wav
192,192,67687,1,0,0:0:0:50:bassdrum.wav
64,192,67771,1,0,0:0:0:50:bassdrum.wav
192,192,67854,1,0,0:0:0:50:bassdrum.wav
320,192,67937,1,4,0:0:0:0:
448,192,68021,1,0,0:0:0:50:bassdrum.wav
320,192,68104,1,0,0:0:0:50:bassdrum.wav
192,192,68187,1,0,0:0:0:50:bassdrum.wav
64,192,68271,1,0,0:0:0:50:bassdrum.wav
192,192,68354,1,0,0:0:0:50:bassdrum.wav
320,192,68437,1,0,0:0:0:50:bassdrum.wav
192,192,68521,1,0,0:0:0:50:bassdrum.wav
448,192,68604,1,4,0:0:0:0:
64,192,68604,1,0,0:0:0:50:bassdrum.wav
320,192,68687,1,0,0:0:0:50:bassdrum.wav
192,192,68771,1,0,0:0:0:50:bassdrum.wav
64,192,68854,1,0,0:0:0:50:bassdrum.wav
320,192,68937,1,4,0:0:0:0:
192,192,69021,1,0,0:0:0:50:bassdrum.wav
320,192,69104,1,0,0:0:0:50:bassdrum.wav
448,192,69187,1,0,0:0:0:50:bassdrum.wav
64,192,69271,1,4,0:0:0:0:
192,192,69354,1,0,0:0:0:50:bassdrum.wav
320,192,69437,1,0,0:0:0:50:bassdrum.wav
192,192,69521,1,0,0:0:0:50:bassdrum.wav
64,192,69604,1,4,0:0:0:0:
448,192,69687,1,0,0:0:0:50:bassdrum.wav
320,192,69771,1,0,0:0:0:50:bassdrum.wav
192,192,69854,1,0,0:0:0:50:bassdrum.wav
64,192,69937,1,0,0:0:0:50:bassdrum.wav
448,192,69937,1,4,0:0:0:0:
320,192,69937,1,0,0:0:0:0:
192,0,70104,1,0,0:0:0:0:
320,192,70187,1,0,0:0:0:0:
448,192,70271,1,0,0:0:0:0:
64,192,70437,1,0,0:0:0:0:
192,192,70521,1,0,0:0:0:0:
448,192,70604,1,0,0:0:0:0:
320,192,70604,1,0,0:0:0:50:bassdrum.wav
64,192,70771,1,0,0:0:0:0:
320,192,70937,1,0,0:0:0:0:
64,192,71104,1,0,0:0:0:0:
448,192,71271,1,0,0:0:0:50:bassdrum.wav
192,192,71271,1,0,0:0:0:0:
64,192,71437,1,0,0:0:0:0:
448,192,71604,1,0,0:0:0:0:
320,192,71660,1,0,0:0:0:0:
192,192,71715,1,0,0:0:0:0:
64,192,71771,1,0,0:0:0:0:
320,192,71937,1,0,0:0:0:50:bassdrum.wav
448,192,71937,1,0,0:0:0:0:
64,192,72104,1,0,0:0:0:0:
192,192,72271,1,0,0:0:0:0:
320,192,72437,1,0,0:0:0:0:
448,192,72604,1,0,0:0:0:50:bassdrum.wav
64,192,72604,1,0,0:0:0:0:
192,192,72771,1,0,0:0:0:0:
320,192,72854,1,0,0:0:0:0:
448,192,72937,1,0,0:0:0:0:
192,192,73104,1,0,0:0:0:0:
64,192,73271,1,0,0:0:0:50:bassdrum.wav
448,192,73271,1,0,0:0:0:0:
192,192,73437,1,0,0:0:0:0:
320,192,73604,1,0,0:0:0:0:
448,192,73771,1,0,0:0:0:0:
320,192,73937,1,0,0:0:0:50:bassdrum.wav
192,192,73937,1,0,0:0:0:0:
64,192,74104,1,0,0:0:0:0:
192,192,74160,1,0,0:0:0:0:
320,192,74215,1,0,0:0:0:0:
448,192,74271,1,0,0:0:0:0:
192,192,74437,1,0,0:0:0:0:
64,192,74604,1,0,0:0:0:50:bassdrum.wav
320,192,74604,1,0,0:0:0:0:
448,192,74771,1,0,0:0:0:50:bassdrum.wav
192,192,74937,1,0,0:0:0:0:
64,192,74937,1,0,0:0:0:50:bassdrum.wav
448,192,75104,1,0,0:0:0:50:bassdrum.wav
64,192,75271,1,4,0:0:0:0:
320,192,75271,1,0,0:0:0:50:bassdrum.wav
448,192,75437,1,0,0:0:0:0:
320,192,75521,1,0,0:0:0:0:
192,192,75604,1,0,0:0:0:50:bassdrum.wav
448,192,75771,1,0,0:0:0:0:
320,192,75854,1,0,0:0:0:0:
192,192,75937,1,0,0:0:0:50:bassdrum.wav
64,192,76021,1,0,0:0:0:0:
192,192,76104,1,0,0:0:0:0:
320,192,76187,1,0,0:0:0:0:
448,192,76271,1,0,0:0:0:50:bassdrum.wav
64,192,76271,1,0,0:0:0:0:
448,192,76604,1,0,0:0:0:50:bassdrum.wav
320,192,76604,1,4,0:0:0:0:
64,192,76771,1,0,0:0:0:0:
448,192,76937,1,0,0:0:0:50:bassdrum.wav
192,192,76937,1,0,0:0:0:0:
320,192,77104,1,0,0:0:0:0:
64,192,77271,1,0,0:0:0:50:bassdrum.wav
448,192,77271,1,0,0:0:0:0:
320,192,77437,1,0,0:0:0:0:
192,192,77521,1,0,0:0:0:0:
64,192,77604,1,0,0:0:0:50:bassdrum.wav
192,192,77687,1,0,0:0:0:0:
320,192,77771,1,0,0:0:0:0:
448,192,77854,1,0,0:0:0:0:
192,192,77937,1,4,0:0:0:0:
320,192,77937,1,0,0:0:0:50:bassdrum.wav
64,192,78021,1,0,0:0:0:0:
192,192,78104,1,0,0:0:0:50:bassdrum.wav
320,192,78187,1,0,0:0:0:0:
448,192,78271,1,0,0:0:0:50:bassdrum.wav
320,192,78354,1,0,0:0:0:0:
192,192,78437,1,0,0:0:0:50:bassdrum.wav
64,192,78521,1,0,0:0:0:0:
320,192,78604,1,4,0:0:0:0:
448,192,78604,1,0,0:0:0:50:bassdrum.wav
192,192,78687,1,0,0:0:0:0:
64,192,78771,1,0,0:0:0:50:bassdrum.wav
192,192,78854,1,0,0:0:0:0:
320,192,78937,1,0,0:0:0:50:bassdrum.wav
448,192,79021,1,0,0:0:0:0:
320,192,79104,1,0,0:0:0:50:bassdrum.wav
192,192,79187,1,0,0:0:0:0:
448,192,79271,1,4,0:0:0:0:
64,192,79271,1,0,0:0:0:50:bassdrum.wav
320,192,79354,1,0,0:0:0:0:
192,192,79437,1,0,0:0:0:50:bassdrum.wav
64,192,79521,1,0,0:0:0:0:
192,192,79604,1,0,0:0:0:50:bassdrum.wav
320,192,79687,1,0,0:0:0:0:
448,192,79771,1,0,0:0:0:50:bassdrum.wav
320,192,79854,1,0,0:0:0:0:
64,192,79937,1,4,0:0:0:0:
192,192,79937,1,0,0:0:0:50:bassdrum.wav
448,192,80021,1,0,0:0:0:0:
320,192,80104,1,0,0:0:0:50:bassdrum.wav
192,192,80187,1,0,0:0:0:0:
64,192,80271,1,0,0:0:0:50:bassdrum.wav
192,192,80354,1,0,0:0:0:50:bassdrum.wav
320,192,80437,1,0,0:0:0:50:bassdrum.wav
448,192,80521,1,0,0:0:0:50:bassdrum.wav
64,192,80604,1,4,0:0:0:0:
320,192,80604,1,0,0:0:0:50:bassdrum.wav
192,192,80687,1,0,0:0:0:0:
320,192,80771,1,0,0:0:0:50:bassdrum.wav
448,192,80854,1,0,0:0:0:50:bassdrum.wav
320,192,80937,1,0,0:0:0:50:bassdrum.wav
192,192,81021,1,0,0:0:0:0:
64,192,81104,1,0,0:0:0:50:bassdrum.wav
192,192,81187,1,0,0:0:0:50:bassdrum.wav
320,192,81271,1,4,0:0:0:0:
448,192,81271,1,0,0:0:0:50:bassdrum.wav
192,192,81354,1,0,0:0:0:0:
64,192,81437,1,0,0:0:0:50:bassdrum.wav
192,192,81521,1,0,0:0:0:50:bassdrum.wav
320,192,81604,1,0,0:0:0:50:bassdrum.wav
448,192,81687,1,0,0:0:0:0:
320,192,81771,1,0,0:0:0:50:bassdrum.wav
192,192,81854,1,0,0:0:0:50:bassdrum.wav
64,192,81937,1,4,2:2:0:0:
320,192,81937,1,0,0:0:0:50:bassdrum.wav
448,192,82021,1,0,0:0:0:50:bassdrum.wav
320,192,82104,1,0,0:0:0:50:bassdrum.wav
192,192,82187,1,0,0:0:0:50:bassdrum.wav
64,192,82271,1,4,2:2:0:0:
448,192,82271,1,0,0:0:0:50:bassdrum.wav
320,192,82354,1,0,0:0:0:50:bassdrum.wav
192,192,82437,1,0,0:0:0:50:bassdrum.wav
64,192,82521,1,0,0:0:0:50:bassdrum.wav
192,192,82604,1,0,0:0:0:50:bassdrum.wav
448,192,82604,1,4,2:2:0:0:
320,192,82687,1,0,0:0:0:50:bassdrum.wav
192,192,82771,1,0,0:0:0:50:bassdrum.wav
64,192,82854,1,0,0:0:0:50:bassdrum.wav
192,192,82937,1,0,0:0:0:50:bassdrum.wav
320,192,82937,1,4,2:2:0:0:
448,192,83021,1,0,0:0:0:50:bassdrum.wav
320,192,83104,1,0,0:0:0:50:bassdrum.wav
192,192,83187,1,0,0:0:0:50:bassdrum.wav
64,192,83271,128,0,83937:0:0:0:50:bassdrum.wav
320,192,83937,1,4,0:0:0:0:
448,192,83937,1,0,0:0:0:50:bassdrum.wav
192,192,84104,1,0,0:0:0:0:
64,192,84271,1,8,0:0:0:0:
448,192,84271,1,0,0:0:0:0:
320,192,84437,1,0,0:0:0:0:
64,192,84604,1,0,0:0:0:50:bassdrum.wav
192,192,84604,1,0,0:0:0:0:
448,192,84771,1,0,0:0:0:0:
320,192,84937,1,8,0:0:0:0:
64,192,84937,1,0,0:0:0:0:
192,192,85104,1,0,0:0:0:0:
320,192,85271,1,0,0:0:0:50:bassdrum.wav
448,192,85271,1,0,0:0:0:0:
64,192,85437,1,0,0:0:0:0:
192,192,85604,1,8,0:0:0:0:
448,192,85604,1,0,0:0:0:0:
320,192,85771,1,0,0:0:0:0:
64,192,85937,1,0,0:0:0:50:bassdrum.wav
448,192,85937,1,0,0:0:0:0:
320,192,86104,1,0,0:0:0:0:
192,192,86271,1,8,0:0:0:0:
448,192,86271,1,0,0:0:0:0:
64,192,86437,1,0,0:0:0:0:
320,192,86604,1,0,0:0:0:50:bassdrum.wav
448,192,86604,128,0,87271:0:0:0:0:
64,192,86937,1,8,0:0:0:0:
192,192,86937,1,0,0:0:0:0:
320,192,87271,1,0,0:0:0:50:bassdrum.wav
192,192,87271,128,0,87937:0:0:0:0:
448,192,87604,1,8,0:0:0:0:
64,192,87604,1,0,0:0:0:0:
448,192,87937,1,0,0:0:0:50:bassdrum.wav
320,192,87937,128,0,88604:0:0:0:0:
64,192,88271,1,8,0:0:0:0:
192,192,88271,1,0,0:0:0:0:
448,192,88604,1,0,0:0:0:50:bassdrum.wav
64,192,88604,1,0,0:0:0:0:
320,192,88771,1,0,0:0:0:0:
64,192,88937,1,8,0:0:0:0:
192,192,88937,1,0,0:0:0:0:
448,192,89104,1,8,0:0:0:0:
320,192,89104,1,0,0:0:0:0:
64,192,89271,1,0,0:0:0:50:bassdrum.wav
192,192,89271,1,0,0:0:0:0:
448,192,89354,1,0,0:0:0:0:
320,192,89437,1,0,0:0:0:0:
192,192,89521,1,0,0:0:0:0:
64,192,89604,1,8,0:0:0:0:
192,192,89687,1,0,0:0:0:0:
320,192,89771,1,0,0:0:0:0:
448,192,89854,1,0,0:0:0:0:
320,192,89937,1,0,0:0:0:50:bassdrum.wav
64,192,90271,1,8,0:0:0:0:
192,192,90354,1,0,0:0:0:0:
320,192,90437,1,0,0:0:0:0:
448,192,90521,1,0,0:0:0:0:
320,192,90604,1,0,0:0:0:50:bassdrum.wav
192,192,90687,1,0,0:0:0:0:
64,192,90771,1,0,0:0:0:0:
192,192,90854,1,0,0:0:0:0:
448,192,90937,1,8,0:0:0:0:
320,192,91021,1,0,0:0:0:0:
192,192,91104,1,0,0:0:0:0:
64,192,91187,1,0,0:0:0:0:
320,192,91271,1,0,0:0:0:50:bassdrum.wav
448,192,91354,1,0,0:0:0:0:
320,192,91437,1,0,0:0:0:0:
192,192,91521,1,0,0:0:0:0:
64,192,91604,1,8,0:0:0:0:
320,192,91771,1,0,0:0:0:0:
192,192,91854,1,0,0:0:0:0:
64,192,91937,1,0,0:0:0:50:bassdrum.wav
448,192,92021,1,0,0:0:0:0:
320,192,92104,1,0,0:0:0:0:
192,192,92187,1,0,0:0:0:0:
64,192,92271,1,8,0:0:0:0:
192,192,92437,1,0,0:0:0:0:
320,192,92521,1,0,0:0:0:0:
448,192,92604,1,0,0:0:0:50:bassdrum.wav
64,192,92771,1,0,0:0:0:0:
192,192,92854,1,0,0:0:0:0:
320,192,92937,1,8,0:0:0:0:
448,192,93104,1,0,0:0:0:0:
320,192,93187,1,0,0:0:0:0:
192,192,93271,1,0,0:0:0:50:bassdrum.wav
64,192,93354,1,0,0:0:0:0:
192,192,93437,1,0,0:0:0:0:
320,192,93521,1,0,0:0:0:0:
448,192,93604,1,8,0:0:0:0:
320,192,93937,1,0,0:0:0:50:bassdrum.wav
64,192,94021,1,0,0:0:0:0:
192,192,94104,1,0,0:0:0:50:bassdrum.wav
448,192,94187,1,0,0:0:0:0:
320,192,94271,1,0,0:0:0:50:bassdrum.wav
64,192,94604,1,4,0:0:0:0:
192,192,94604,1,0,0:0:0:50:bassdrum.wav
448,192,94604,1,0,0:0:0:0:
320,192,94771,1,0,0:0:0:0:
448,192,94937,1,8,0:0:0:0:
192,192,94937,1,0,0:0:0:0:
64,192,95104,1,0,0:0:0:0:
448,192,95271,1,0,0:0:0:50:bassdrum.wav
320,192,95271,1,0,0:0:0:0:
192,192,95437,1,0,0:0:0:0:
448,192,95604,1,8,0:0:0:0:
64,192,95604,1,0,0:0:0:0:
320,192,95771,1,0,0:0:0:0:
192,192,95937,1,0,0:0:0:50:bassdrum.wav
64,192,95937,1,0,0:0:0:0:
320,192,96104,1,0,0:0:0:0:
192,192,96271,1,8,0:0:0:0:
448,192,96271,1,0,0:0:0:0:
64,192,96437,1,0,0:0:0:0:
448,192,96604,1,0,0:0:0:50:bassdrum.wav
320,192,96604,1,0,0:0:0:0:
64,192,96771,1,0,0:0:0:0:
192,192,96854,1,0,0:0:0:0:
320,192,96937,1,8,0:0:0:0:
192,192,97021,1,0,0:0:0:0:
448,192,97104,1,0,0:0:0:0:
320,192,97187,1,0,0:0:0:0:
192,192,97271,1,0,0:0:0:50:bassdrum.wav
64,192,97437,1,0,0:0:0:0:
192,192,97521,1,0,0:0:0:0:
320,192,97604,1,8,0:0:0:0:
448,192,97687,1,0,0:0:0:0:
320,192,97771,1,0,0:0:0:0:
192,192,97854,1,0,0:0:0:0:
64,192,97937,1,0,0:0:0:50:bassdrum.wav
192,0,98104,5,0,0:0:0:0:
320,192,98187,1,0,0:0:0:0:
448,192,98271,1,8,0:0:0:0:
320,192,98354,1,0,0:0:0:0:
192,192,98437,1,0,0:0:0:0:
320,192,98521,1,0,0:0:0:0:
448,192,98604,1,0,0:0:0:50:bassdrum.wav
64,192,98687,1,0,0:0:0:0:
192,192,98771,1,0,0:0:0:0:
320,192,98854,1,0,0:0:0:0:
448,192,98937,1,8,0:0:0:0:
64,192,99021,1,0,0:0:0:0:
192,192,99104,1,0,0:0:0:0:
448,192,99271,1,4,0:0:0:0:
320,192,99271,1,0,0:0:0:50:bassdrum.wav
192,192,99382,1,4,0:0:0:0:
64,192,99382,1,0,0:0:0:50:bassdrum.wav
448,192,99493,1,0,0:0:0:50:bassdrum.wav
320,192,99493,1,4,0:0:0:0:
192,192,99604,1,4,0:0:0:0:
64,192,99604,1,0,0:0:0:50:bassdrum.wav
320,192,99715,1,4,0:0:0:0:
448,192,99715,1,0,0:0:0:50:bassdrum.wav
64,192,99826,1,0,0:0:0:50:bassdrum.wav
192,192,99826,1,4,0:0:0:0:
448,192,99937,1,4,0:0:0:0:
320,192,99937,1,0,0:0:0:50:bassdrum.wav
64,192,99937,1,0,0:0:0:0:
192,192,100104,1,0,0:0:0:0:
320,192,100187,1,0,0:0:0:0:
448,192,100271,1,0,0:0:0:0:
64,192,100437,1,0,0:0:0:0:
192,192,100604,1,4,0:0:0:0:
320,192,100604,1,0,0:0:0:50:bassdrum.wav
448,192,100771,1,0,0:0:0:0:
320,192,100854,1,0,0:0:0:0:
192,192,100937,1,0,0:0:0:0:
64,192,101104,1,0,0:0:0:0:
320,192,101271,1,4,0:0:0:0:
448,192,101271,1,0,0:0:0:50:bassdrum.wav
64,192,101437,1,0,0:0:0:0:
192,192,101521,1,0,0:0:0:0:
320,192,101604,1,0,0:0:0:0:
192,192,101771,1,0,0:0:0:0:
64,192,101937,1,4,0:0:0:0:
448,192,101937,1,0,0:0:0:0:
320,192,102104,1,0,0:0:0:0:
192,192,102271,1,0,0:0:0:50:bassdrum.wav
64,192,102437,1,0,0:0:0:50:bassdrum.wav
448,192,102604,1,4,2:2:0:0:
192,192,102604,1,0,0:0:0:50:bassdrum.wav
320,192,102771,1,0,0:0:0:50:bassdrum.wav
64,192,102771,1,0,0:0:0:0:
320,192,102937,1,0,0:0:0:50:bassdrum.wav
448,192,102937,1,0,0:0:0:0:
192,192,103104,1,0,0:0:0:50:bassdrum.wav
64,192,103104,1,0,0:0:0:0:
448,192,103271,1,0,0:0:0:50:bassdrum.wav
192,192,103271,1,0,0:0:0:0:
320,192,103437,1,0,0:0:0:50:bassdrum.wav
64,192,103437,1,0,0:0:0:0:
320,192,103604,1,0,0:0:0:50:bassdrum.wav
448,192,103604,1,0,0:0:0:0:
192,192,103771,1,0,0:0:0:50:bassdrum.wav
64,192,103771,1,0,0:0:0:0:
320,192,103937,1,4,2:2:0:0:
192,192,103937,1,0,0:0:0:50:bassdrum.wav
448,192,104021,1,0,0:0:0:50:bassdrum.wav
320,192,104104,1,0,0:0:0:50:bassdrum.wav
192,192,104187,1,0,0:0:0:50:bassdrum.wav
64,192,104271,1,0,0:0:0:50:bassdrum.wav
448,192,104354,1,0,0:0:0:50:bassdrum.wav
320,192,104437,1,0,0:0:0:50:bassdrum.wav
192,192,104521,1,0,0:0:0:50:bassdrum.wav
64,192,104604,1,0,0:0:0:50:bassdrum.wav
192,192,104687,1,0,0:0:0:50:bassdrum.wav
320,192,104771,1,0,0:0:0:50:bassdrum.wav
448,192,104854,1,0,0:0:0:50:bassdrum.wav
320,192,104937,1,0,0:0:0:50:bassdrum.wav
192,192,105021,1,0,0:0:0:50:bassdrum.wav
64,192,105104,1,0,0:0:0:50:bassdrum.wav
192,192,105187,1,0,0:0:0:50:bassdrum.wav
320,192,105271,1,0,0:0:0:50:bassdrum.wav
448,192,105354,1,0,0:0:0:50:bassdrum.wav
64,192,105437,128,0,105604:0:0:0:50:bassdrum.wav
448,192,105771,128,0,105937:0:0:0:50:bassdrum.wav
192,192,106021,1,0,0:0:0:50:bassdrum.wav
320,192,106104,1,0,0:0:0:50:bassdrum.wav
448,192,106187,1,0,0:0:0:50:bassdrum.wav
192,192,106271,128,0,106604:0:0:0:50:bassdrum.wav
448,192,106604,128,4,109271:0:0:0:0:
64,192,106604,1,0,0:0:0:50:bassdrum.wav
64,192,109271,1,0,0:0:0:0:
64,192,110963,1,0,0:0:0:0:
192,192,111040,1,0,0:0:0:0:
320,192,111117,1,0,0:0:0:0:
64,192,111578,1,0,0:0:0:0:
192,192,112040,1,0,0:0:0:0:
320,192,112501,1,0,0:0:0:0:
64,192,112732,1,0,0:0:0:0:
192,192,112809,1,0,0:0:0:0:
320,192,112886,1,0,0:0:0:0:
448,192,112963,1,0,0:0:0:0:
64,192,113194,1,0,0:0:0:0:
192,192,113424,1,0,0:0:0:0:
448,192,113655,1,0,0:0:0:0:
320,192,113886,1,0,0:0:0:0:
192,192,114177,1,0,0:0:0:0:
64,192,114468,1,0,0:0:0:0:
448,192,114808,1,0,0:0:0:0:
64,192,114920,1,0,0:0:0:0:
192,192,114976,1,0,0:0:0:0:
320,192,115032,1,0,0:0:0:0:
448,192,115088,1,0,0:0:0:0:
64,192,115145,1,0,0:0:0:0:
64,192,116493,128,0,120201:0:0:0:0:
