osu file format v14

[General]
AudioFilename: Yooh - salvation.mp3
AudioLeadIn: 0
PreviewTime: 191132
Countdown: 1
SampleSet: None
StackLeniency: 0.7
Mode: 0
LetterboxInBreaks: 1
WidescreenStoryboard: 1

[Editor]
DistanceSpacing: 1
BeatDivisor: 4
GridSize: 4
TimelineZoom: 1

[Metadata]
Title:salvation
TitleUnicode:salvation
Artist:Yooh
ArtistUnicode:Yooh
Creator:lahphnya
Version:AR9.5
Source:
Tags:
BeatmapID:713499
BeatmapSetID:320660

[Difficulty]
HPDrainRate:4
CircleSize:4
OverallDifficulty:8
ApproachRate:9.5
SliderMultiplier:2
SliderTickRate:1

[Events]
//Background and Video events
0,0,"Konachan.com - 199485 bou_nin clouds long_hair original scenic sky.jpg",0,0
//Break Periods
2,172514,178877
2,186640,190020
//Storyboard Layer 0 (Background)
//Storyboard Layer 1 (Fail)
//Storyboard Layer 2 (Pass)
//Storyboard Layer 3 (Foreground)
//Storyboard Sound Samples

[TimingPoints]
2276,293.255131964809,4,1,0,50,1,0
87906,-133.333333333333,4,1,0,50,0,0
101982,-100,4,1,0,50,0,0
190545,-133.333333333333,4,1,0,50,0,0
191425,-111.111111111111,4,1,0,50,0,0
191718,-100,4,1,0,50,0,0
192012,-83.3333333333333,4,1,0,50,0,0
248610,-74.0740740740741,4,1,0,50,0,0
267378,-66.6666666666667,4,1,0,50,0,0
287906,-133.333333333333,4,1,0,50,0,0

[HitObjects]
344,152,2276,6,0,B|360:200|360:200|344:276,1,100
224,336,2569,2,0,B|204:280|204:280|216:216,1,100
248,136,2862,1,0,0:0:0:0:
84,60,3009,1,0,0:0:0:0:
60,172,3155,1,0,0:0:0:0:
208,40,3302,1,0,0:0:0:0:
248,136,3449,6,0,B|296:120|296:120|356:120,1,100
480,288,3742,2,0,B|432:304|432:304|380:300,1,100
164,208,4035,2,0,B|108:204|108:204|36:248,1,100
252,348,4328,2,0,B|304:336|304:336|348:296,1,100
416,180,4622,6,0,B|424:124|424:124|408:68,1,100
184,172,4915,2,0,B|168:232|168:232|184:276,1,100
184,352,5208,1,0,0:0:0:0:
60,204,5355,1,0,0:0:0:0:
276,112,5501,1,0,0:0:0:0:
248,288,5648,1,0,0:0:0:0:
124,180,5795,6,0,B|104:132|104:132|116:72,1,100
398,84,6088,2,0,B|408:132|408:132|388:180,1,100
256,352,6381,2,0,P|244:288|264:236,1,100
436,168,6674,2,0,P|452:228|440:292,1,100
440,304,6894,1,0,0:0:0:0:
440,304,6968,6,0,B|388:304|388:304|340:340|340:340|300:332|248:356,1,200
36,196,7407,1,0,0:0:0:0:
208,148,7554,2,0,P|224:84|208:36,1,100
104,216,7847,2,0,P|104:284|132:324,1,100
108,96,8141,6,0,B|56:88|56:88|8:112,1,100
164,256,8434,2,0,B|216:260|216:260|272:236,1,100
360,48,8727,2,0,B|304:44|304:44|252:76,1,100
368,236,9020,1,0,0:0:0:0:
504,172,9167,1,0,0:0:0:0:
232,128,9314,2,0,B|256:172|256:172|248:228|248:228|308:212|360:248,1,200
416,340,9754,2,0,B|368:328|368:328|316:348|316:348|272:324|192:328,1,200
104,308,10193,2,0,B|84:256|84:256|104:204,1,100
196,60,10487,5,0,0:0:0:0:
192,224,10633,1,0,0:0:0:0:
288,24,10780,1,0,0:0:0:0:
316,252,10927,1,0,0:0:0:0:
136,144,11073,2,0,B|80:140|80:140|32:168,1,100
469,162,11366,2,0,B|432:140|432:140|376:144,1,100
268,208,11660,6,0,B|268:260|268:260|296:316|296:316|344:328|404:296,1,200
212,104,12100,1,0,0:0:0:0:
128,200,12246,2,0,L|136:316,1,100
256,132,12539,2,0,L|248:20,1,100
128,88,12833,2,0,B|76:80|76:80|12:112,1,100
264,244,13126,2,0,B|316:252|316:252|368:224,1,100
128,200,13419,1,0,0:0:0:0:
128,352,13566,1,0,0:0:0:0:
256,172,13712,1,0,0:0:0:0:
248,16,13859,1,0,0:0:0:0:
36,168,14006,6,0,B|56:216|56:216|104:196|156:212|156:212|188:152,2,200
108,64,14739,2,0,B|108:92|120:116|120:116|120:184,1,100
220,328,15032,1,0,0:0:0:0:
128,276,15179,6,0,P|68:272|24:304,1,100
248,352,15472,2,0,P|304:356|352:336,1,100
280,80,15765,2,0,P|216:88|168:120,1,100
384,208,16058,2,0,P|452:200|496:160,1,100
236,44,16352,5,0,0:0:0:0:
180,180,16498,1,0,0:0:0:0:
344,116,16645,1,0,0:0:0:0:
144,88,16792,1,0,0:0:0:0:
344,116,16938,6,0,L|348:244,1,100
264,308,17232,2,0,P|208:328|152:304,1,100
24,188,17525,6,0,B|72:168|72:168|124:184,1,100
336,216,17818,2,0,B|384:228|384:228|440:200,1,100
256,52,18111,2,0,B|240:104|240:104|272:168,1,100
396,324,18405,1,0,0:0:0:0:
412,136,18551,1,0,0:0:0:0:
232,228,18698,2,0,B|180:228|132:260|132:260|84:236|32:248,1,200
128,120,19138,1,0,0:0:0:0:
168,264,19284,2,0,B|180:312|180:312|160:372,1,100
128,120,19578,2,0,B|116:72|116:72|136:12,1,100
220,92,19871,1,0,0:0:0:0:
168,208,20017,1,0,0:0:0:0:
40,72,20164,1,0,0:0:0:0:
228,24,20311,1,0,0:0:0:0:
168,208,20457,2,0,L|320:176,1,150
376,112,20751,2,0,B|400:160|400:160|384:232,1,100
192,368,21044,6,0,B|176:320|176:320|192:264,1,100
256,28,21337,2,0,B|272:80|272:80|264:132,1,100
24,184,21630,2,0,P|68:164|136:164,1,100
264,200,21924,2,0,P|328:208|372:192,1,100
476,60,22217,6,0,P|416:44|356:64,1,100
236,136,22510,2,0,P|228:216|252:272,1,100
376,356,22803,2,0,P|388:288|384:216,1,100
140,64,23097,2,0,P|136:128|152:160,1,100
360,152,23390,5,0,0:0:0:0:
200,344,23536,1,0,0:0:0:0:
456,276,23683,2,0,B|404:292|404:292|340:272,1,100
232,236,23976,1,0,0:0:0:0:
48,252,24123,1,0,0:0:0:0:
232,140,24270,1,0,0:0:0:0:
276,340,24416,1,0,0:0:0:0:
428,208,24563,6,0,B|448:160|448:160|436:84,1,100
232,140,24856,2,0,B|208:196|208:196|232:252,1,100
224,228,25076,1,0,0:0:0:0:
220,228,25149,2,0,B|280:240|280:240|320:224,1,100
216,56,25443,2,0,B|160:52|112:40|112:40|60:80,1,150
48,164,25736,6,0,B|28:212|28:212|44:272,1,100
304,372,26029,2,0,B|316:320|316:320|304:268,1,100
180,40,26322,2,0,B|160:88|160:88|176:144,1,100
432,208,26616,2,0,B|444:160|444:160|424:100,1,100
344,300,26909,5,0,0:0:0:0:
144,144,27056,1,0,0:0:0:0:
372,32,27202,1,0,0:0:0:0:
252,136,27349,1,0,0:0:0:0:
252,136,27422,1,0,0:0:0:0:
252,136,27495,2,0,P|268:192|252:236,1,100
128,356,27789,1,0,0:0:0:0:
68,160,27935,1,0,0:0:0:0:
132,40,28082,1,0,0:0:0:0:
180,20,28155,1,0,0:0:0:0:
228,28,28229,1,0,0:0:0:0:
272,52,28302,1,0,0:0:0:0:
292,96,28375,1,0,0:0:0:0:
332,128,28449,1,0,0:0:0:0:
380,132,28522,1,0,0:0:0:0:
424,108,28595,1,0,0:0:0:0:
452,68,28668,6,0,P|460:112|464:136,1,50
368,212,28815,2,0,P|372:252|376:284,1,50
219,310,28962,2,0,P|220:335|224:360,1,50
82,214,29108,2,0,P|78:239|80:264,1,50
88,352,29255,6,0,P|160:356|204:324,1,100
380,136,29548,2,0,P|320:128|260:168,1,100
112,84,29841,1,0,0:0:0:0:
112,84,30135,6,0,P|116:148|120:260,1,150
120,324,30428,6,0,B|168:312|168:312|232:312,1,100
472,272,30721,2,0,B|424:256|424:256|356:260,1,100
236,136,31015,1,0,0:0:0:0:
280,360,31161,1,0,0:0:0:0:
400,156,31308,1,0,0:0:0:0:
220,28,31454,1,0,0:0:0:0:
104,208,31601,2,0,B|88:256|88:256|104:312,1,100
248,204,31894,2,0,B|264:152|264:152|248:96,1,100
116,120,32188,1,0,0:0:0:0:
364,292,32334,1,0,0:0:0:0:
160,360,32481,2,0,L|144:244,1,100
352,224,32774,6,0,L|376:328,1,100
56,312,33067,1,0,0:0:0:0:
268,236,33214,1,0,0:0:0:0:
172,144,33361,1,0,0:0:0:0:
160,360,33507,1,0,0:0:0:0:
384,376,33654,1,0,0:0:0:0:
460,112,33800,1,0,0:0:0:0:
268,236,33947,6,0,B|256:288|256:288|276:352,1,100
408,208,34240,2,0,B|424:156|424:156|412:112,1,100
284,112,34534,1,0,0:0:0:0:
408,208,34680,1,0,0:0:0:0:
256,84,34827,1,0,0:0:0:0:
200,280,34973,1,0,0:0:0:0:
120,64,35120,6,0,B|92:112|92:112|92:168|92:168|136:200|160:256,1,200
288,308,35560,1,0,0:0:0:0:
56,344,35707,2,0,P|112:328|180:324,1,100
320,336,36000,2,0,B|336:284|336:284|324:232,1,100
228,60,36293,5,0,0:0:0:0:
192,248,36440,1,0,0:0:0:0:
196,32,36586,1,0,0:0:0:0:
332,160,36733,1,0,0:0:0:0:
72,232,36880,1,0,0:0:0:0:
220,144,37026,1,0,0:0:0:0:
212,320,37173,1,0,0:0:0:0:
16,224,37319,1,0,0:0:0:0:
236,84,37466,6,0,B|288:72|288:72|356:88,1,100
472,208,37759,2,0,B|424:228|424:228|360:220,1,100
220,144,38053,1,0,0:0:0:0:
212,320,38199,1,0,0:0:0:0:
328,356,38346,2,0,L|444:332,1,100
168,232,38639,2,0,B|112:232|72:268|72:268|80:216|48:152,1,200
148,56,39079,1,0,0:0:0:0:
300,208,39226,2,0,B|320:256|320:256|308:308,1,100
92,280,39519,2,0,B|81:233|81:233|101:185,1,100
324,164,39812,6,0,B|340:216|332:264|332:264|384:248|440:232,1,200
436,88,40252,1,0,0:0:0:0:
248,84,40399,2,0,L|120:80,1,100
40,236,40692,2,0,P|92:224|152:216,1,100
352,232,40985,6,0,B|368:280|368:280|360:344,1,100
160,200,41278,1,0,0:0:0:0:
180,28,41425,1,0,0:0:0:0:
372,168,41572,1,0,0:0:0:0:
344,368,41718,1,0,0:0:0:0:
140,296,41865,1,0,0:0:0:0:
404,260,42012,1,0,0:0:0:0:
116,140,42158,6,0,B|64:128|64:128|-8:140,1,100
372,168,42451,2,0,B|424:152|424:152|480:164,1,100
144,240,42745,2,0,B|92:228|92:228|32:248,1,100
256,360,43038,1,0,0:0:0:0:
128,108,43185,1,0,0:0:0:0:
128,108,43258,1,0,0:0:0:0:
128,108,43331,6,0,P|112:160|136:224,1,100
360,120,43624,2,0,P|320:76|280:56,1,100
340,308,43918,2,0,P|408:312|464:268,1,100
488,208,44211,2,0,P|432:188|376:208,1,100
280,232,44504,6,0,B|232:256|232:256|184:240|184:240|140:272|60:264,1,200
136,44,44944,1,0,0:0:0:0:
64,200,45091,2,0,B|56:256|56:256|88:312,1,100
228,148,45384,2,0,B|232:96|232:96|212:40,1,100
224,312,45677,6,0,B|280:320|280:320|320:300|372:304|372:304|404:344,1,200
424,128,46117,1,0,0:0:0:0:
304,360,46264,1,0,0:0:0:0:
328,56,46410,1,0,0:0:0:0:
468,228,46557,1,0,0:0:0:0:
212,272,46704,1,0,0:0:0:0:
352,32,46850,6,0,P|360:88|328:148,1,100
220,148,47144,2,0,P|156:128|92:152,1,100
40,200,47437,1,0,0:0:0:0:
148,92,47583,1,0,0:0:0:0:
20,212,47730,1,0,0:0:0:0:
232,224,47877,1,0,0:0:0:0:
48,104,48023,1,0,0:0:0:0:
116,332,48170,1,0,0:0:0:0:
260,72,48317,1,0,0:0:0:0:
104,188,48463,1,0,0:0:0:0:
284,288,48610,2,0,B|340:288|340:288|392:252,1,100
400,224,48830,1,0,0:0:0:0:
400,224,48903,2,0,B|416:172|416:172|388:108,1,100
188,196,49196,6,0,B|168:248|168:248|200:316,1,100
336,360,49490,2,0,B|352:312|352:312|344:260,1,100
176,104,49783,2,0,B|120:100|120:100|56:132,1,100
356,176,50076,2,0,B|408:176|408:176|472:144,1,100
300,88,50369,1,0,0:0:0:0:
300,264,50516,1,0,0:0:0:0:
408,96,50663,1,0,0:0:0:0:
208,160,50809,1,0,0:0:0:0:
168,304,50956,1,0,0:0:0:0:
76,124,51102,1,0,0:0:0:0:
260,128,51249,1,0,0:0:0:0:
160,328,51396,1,0,0:0:0:0:
370,284,51542,6,0,B|416:296|416:296|468:284,1,100
240,260,51836,2,0,B|188:248|188:248|124:268,1,100
24,200,52129,2,0,B|80:184|80:184|120:132,1,100
128,112,52349,1,0,0:0:0:0:
128,112,52422,2,0,B|176:88|176:88|232:96,1,100
336,120,52715,5,0,0:0:0:0:
344,240,52862,1,0,0:0:0:0:
340,88,53009,1,0,0:0:0:0:
244,216,53155,1,0,0:0:0:0:
356,64,53302,1,0,0:0:0:0:
444,176,53449,1,0,0:0:0:0:
284,320,53595,1,0,0:0:0:0:
220,112,53742,1,0,0:0:0:0:
464,160,53888,6,0,B|464:216|464:216|440:260|440:260|396:244|348:264,1,200
184,276,54328,1,0,0:0:0:0:
276,184,54475,1,0,0:0:0:0:
104,176,54622,1,0,0:0:0:0:
172,372,54768,1,0,0:0:0:0:
196,104,54915,1,0,0:0:0:0:
268,304,55061,5,0,0:0:0:0:
72,240,55208,1,0,0:0:0:0:
204,96,55355,1,0,0:0:0:0:
256,244,55501,1,0,0:0:0:0:
80,112,55648,1,0,0:0:0:0:
272,24,55795,1,0,0:0:0:0:
176,272,55941,1,0,0:0:0:0:
176,40,56088,1,0,0:0:0:0:
368,276,56234,6,0,B|380:328|380:328|368:376,1,100
288,200,56528,1,0,0:0:0:0:
460,160,56674,1,0,0:0:0:0:
368,276,56821,2,0,P|304:312|256:304,1,100
104,72,57114,1,0,0:0:0:0:
92,208,57261,1,0,0:0:0:0:
236,224,57407,6,0,P|256:168|240:120,1,100
40,200,57701,2,0,P|40:272|72:304,1,100
168,152,57994,1,0,0:0:0:0:
200,320,58141,1,0,0:0:0:0:
168,152,58287,1,0,0:0:0:0:
348,188,58434,1,0,0:0:0:0:
168,152,58580,6,0,P|76:152|48:48,1,200
248,80,59020,1,0,0:0:0:0:
344,240,59167,2,0,B|356:288|356:288|344:356,1,100
156,240,59460,2,0,B|136:188|136:188|152:132,1,100
100,316,59754,5,0,0:0:0:0:
360,244,59900,1,0,0:0:0:0:
184,168,60047,1,0,0:0:0:0:
224,356,60193,1,0,0:0:0:0:
352,120,60340,1,0,0:0:0:0:
216,320,60487,1,0,0:0:0:0:
140,124,60633,1,0,0:0:0:0:
396,248,60780,1,0,0:0:0:0:
224,356,60927,6,0,B|168:360|168:360|112:328,1,100
304,216,61220,2,0,B|360:208|360:208|416:224,1,100
488,344,61513,2,0,B|440:360|440:360|380:344,1,100
176,224,61806,1,0,0:0:0:0:
152,32,61953,1,0,0:0:0:0:
304,216,62100,6,0,B|324:268|324:268|316:316|316:316|284:328|264:348,1,150
275,337,62393,2,0,L|400:324,1,100
440,208,62686,1,0,0:0:0:0:
436,160,62759,1,0,0:0:0:0:
392,136,62833,1,0,0:0:0:0:
344,140,62906,1,0,0:0:0:0:
312,176,62979,1,0,0:0:0:0:
276,212,63053,1,0,0:0:0:0:
228,212,63126,1,0,0:0:0:0:
188,180,63199,1,0,0:0:0:0:
180,132,63273,1,0,0:0:0:0:
156,292,63419,1,0,0:0:0:0:
64,60,63566,1,0,0:0:0:0:
72,220,63712,1,0,0:0:0:0:
264,108,63859,1,0,0:0:0:0:
248,344,64006,1,0,0:0:0:0:
412,36,64152,1,0,0:0:0:0:
444,304,64299,1,0,0:0:0:0:
260,56,64446,5,0,0:0:0:0:
444,256,64592,1,0,0:0:0:0:
148,228,64739,1,0,0:0:0:0:
376,140,64885,1,0,0:0:0:0:
156,324,65032,1,0,0:0:0:0:
180,120,65179,1,0,0:0:0:0:
328,216,65325,1,0,0:0:0:0:
40,280,65472,1,0,0:0:0:0:
144,144,65619,5,0,0:0:0:0:
160,136,65692,1,0,0:0:0:0:
180,132,65765,1,0,0:0:0:0:
200,136,65839,1,0,0:0:0:0:
216,144,65912,2,0,P|224:176|228:208,3,50
260,292,66205,1,0,0:0:0:0:
292,328,66278,1,0,0:0:0:0:
340,336,66352,1,0,0:0:0:0:
388,320,66425,1,0,0:0:0:0:
412,276,66498,1,0,0:0:0:0:
412,224,66572,1,0,0:0:0:0:
376,188,66645,1,0,0:0:0:0:
360,140,66718,1,0,0:0:0:0:
372,92,66792,6,0,L|488:52,1,100
444,160,67012,2,0,P|384:184|332:160,1,100
260,152,67232,2,0,P|184:132|128:164,1,100
68,120,67451,2,0,P|56:192|104:224,1,100
136,296,67671,1,0,0:0:0:0:
100,332,67745,1,0,0:0:0:0:
52,332,67818,1,0,0:0:0:0:
24,292,67891,1,0,0:0:0:0:
32,244,67965,5,0,0:0:0:0:
296,316,68258,1,0,0:0:0:0:
248,32,68551,1,0,0:0:0:0:
212,148,68698,1,0,0:0:0:0:
212,148,68991,2,0,B|260:160|260:160|316:144|316:144|360:168|408:140,1,200
404,142,69578,1,0,0:0:0:0:
380,332,69725,1,0,0:0:0:0:
140,208,70017,1,0,0:0:0:0:
412,36,70311,1,0,0:0:0:0:
408,144,70457,1,0,0:0:0:0:
188,320,70751,1,0,0:0:0:0:
172,304,71044,1,0,0:0:0:0:
156,288,71337,1,0,0:0:0:0:
144,276,71410,1,0,0:0:0:0:
132,264,71484,1,0,0:0:0:0:
176,48,71777,1,0,0:0:0:0:
408,224,72070,1,0,0:0:0:0:
384,356,72217,1,0,0:0:0:0:
216,144,72510,5,0,0:0:0:0:
476,104,72803,1,0,0:0:0:0:
384,356,73097,1,0,0:0:0:0:
260,320,73243,1,0,0:0:0:0:
56,256,73536,1,0,0:0:0:0:
456,204,73830,1,0,0:0:0:0:
320,168,73976,1,0,0:0:0:0:
320,168,74221,6,0,L|304:232,1,66.6666666666667
260,320,74416,2,0,L|224:264,1,66.6666666666667
148,188,74612,2,0,L|220:172,1,66.6666666666667
336,144,74807,2,0,L|336:240,1,66.6666666666667
336,316,75003,6,0,P|268:328|216:304,1,100
56,280,75296,2,0,B|44:224|44:224|64:160,1,100
224,44,75589,1,0,0:0:0:0:
200,264,75736,1,0,0:0:0:0:
352,208,75883,1,0,0:0:0:0:
120,128,76029,2,0,P|72:112|12:128,1,100
56,280,76322,1,0,0:0:0:0:
164,92,76469,1,0,0:0:0:0:
248,340,76616,1,0,0:0:0:0:
248,340,76689,1,0,0:0:0:0:
248,340,76762,2,0,B|284:340|312:344|312:344|376:328,1,100
152,144,77056,1,0,0:0:0:0:
96,316,77202,1,0,0:0:0:0:
352,208,77349,5,0,0:0:0:0:
400,52,77495,1,0,0:0:0:0:
224,112,77642,1,0,0:0:0:0:
332,304,77789,2,0,B|384:316|384:316|436:296,1,100
176,204,78082,2,0,B|124:192|124:192|72:212,1,100
256,352,78375,5,0,0:0:0:0:
304,360,78449,1,0,0:0:0:0:
352,348,78522,5,0,0:0:0:0:
376,304,78595,1,0,0:0:0:0:
372,256,78668,1,0,0:0:0:0:
344,216,78742,1,0,0:0:0:0:
296,204,78815,1,0,0:0:0:0:
252,228,78888,1,0,0:0:0:0:
224,264,78962,1,0,0:0:0:0:
200,308,79035,1,0,0:0:0:0:
152,316,79108,1,0,0:0:0:0:
104,296,79182,1,0,0:0:0:0:
88,248,79255,1,0,0:0:0:0:
104,200,79328,1,0,0:0:0:0:
152,184,79402,5,0,0:0:0:0:
200,196,79475,1,0,0:0:0:0:
224,240,79548,1,0,0:0:0:0:
264,268,79622,1,0,0:0:0:0:
312,268,79695,1,0,0:0:0:0:
352,240,79768,1,0,0:0:0:0:
368,192,79841,1,0,0:0:0:0:
348,144,79915,1,0,0:0:0:0:
300,128,79988,1,0,0:0:0:0:
260,156,80061,1,0,0:0:0:0:
252,204,80135,1,0,0:0:0:0:
276,248,80208,1,0,0:0:0:0:
392,304,80575,1,0,0:0:0:0:
496,200,80868,1,0,0:0:0:0:
260,104,81161,5,0,0:0:0:0:
112,80,81454,1,0,0:0:0:0:
24,196,81748,1,0,0:0:0:0:
256,296,82041,1,0,0:0:0:0:
256,296,83947,1,0,0:0:0:0:
408,252,84534,1,0,0:0:0:0:
104,172,85120,1,0,0:0:0:0:
416,120,85707,1,0,0:0:0:0:
136,64,86293,1,0,0:0:0:0:
416,328,87026,1,0,0:0:0:0:
416,328,87906,6,0,P|380:336|328:336,1,75.0000028610231
248,320,88199,2,0,P|208:316|168:328,1,75.0000028610231
80,332,88493,2,0,P|64:276|64:228,1,75.0000028610231
144,192,88786,6,0,L|224:156,1,75.0000028610231
144,192,89079,2,0,L|124:100,1,75.0000028610231
276,168,89372,2,0,L|296:256,1,75.0000028610231
312,336,89666,1,0,0:0:0:0:
408,280,89812,1,0,0:0:0:0:
216,296,89959,2,0,B|176:292|176:292|124:300,1,75.0000028610231
312,336,90252,1,0,0:0:0:0:
368,216,90399,1,0,0:0:0:0:
228,248,90545,2,0,B|224:296|224:296|244:344,1,75.0000028610231
368,216,90839,2,0,B|372:168|372:168|360:132,1,75.0000028610231
220,48,91132,2,0,B|216:92|216:92|236:136,1,75.0000028610231
292,80,91425,2,0,P|304:132|208:192,1,150.000005722046
104,136,91865,1,0,0:0:0:0:
104,61,92012,2,0,L|104:149,1,75.0000028610231
200,200,92305,2,0,L|200:108,1,75.0000028610231
300,176,92598,2,0,L|300:264,1,75.0000028610231
388,296,92891,2,0,L|388:216,1,75.0000028610231
460,256,93185,6,0,P|408:216|316:264,1,150.000005722046
224,296,93624,1,0,0:0:0:0:
232,192,93771,1,0,0:0:0:0:
280,364,93918,1,0,0:0:0:0:
152,356,94064,6,0,L|64:340,1,75.0000028610231
224,296,94358,2,0,L|320:312,1,75.0000028610231
380,360,94651,2,0,B|392:312|392:312|376:272|376:232,1,112.500004291535
368,208,94944,5,0,0:0:0:0:
336,120,95091,1,0,0:0:0:0:
252,80,95237,1,0,0:0:0:0:
160,100,95384,1,0,0:0:0:0:
80,204,95531,2,0,L|176:192,1,75.0000028610231
252,80,95824,1,0,0:0:0:0:
336,120,95971,1,0,0:0:0:0:
368,208,96117,1,0,0:0:0:0:
328,300,96264,1,0,0:0:0:0:
444,356,96410,2,0,L|440:256,1,75.0000028610231
272,200,96704,6,0,L|272:296,1,75.0000028610231
128,348,96997,1,0,0:0:0:0:
120,236,97144,1,0,0:0:0:0:
296,168,97290,1,0,0:0:0:0:
304,288,97437,1,0,0:0:0:0:
120,236,97583,6,0,B|108:192|108:192|120:152,1,75.0000028610231
184,88,97877,1,0,0:0:0:0:
268,124,98023,1,0,0:0:0:0:
356,92,98170,1,0,0:0:0:0:
432,136,98317,1,0,0:0:0:0:
352,264,98463,2,0,L|264:252,1,75.0000028610231
120,236,98756,2,0,L|224:204,1,75.0000028610231
280,176,99050,5,0,0:0:0:0:
288,300,99196,1,0,0:0:0:0:
120,360,99343,2,0,L|116:268,1,75.0000028610231
112,156,99636,2,0,P|84:128|44:100,1,75.0000028610231
36,272,99929,2,0,P|92:260|124:232,1,75.0000028610231
192,216,100223,2,0,B|308:192|308:192|280:232,1,150.000005722046
236,312,100663,1,0,0:0:0:0:
192,216,100809,1,0,0:0:0:0:
304,232,100956,1,0,0:0:0:0:
228,348,101102,1,0,0:0:0:0:
228,348,101982,6,0,B|172:364|172:364|116:356,1,100
344,248,102275,2,0,B|396:228|396:228|452:240,1,100
188,224,102569,1,0,0:0:0:0:
208,48,102715,1,0,0:0:0:0:
436,172,102862,2,0,P|452:224|432:284,1,100
244,368,103155,2,0,P|228:316|248:256,1,100
320,308,103449,1,0,0:0:0:0:
108,280,103595,1,0,0:0:0:0:
260,32,103742,1,0,0:0:0:0:
292,120,103888,1,0,0:0:0:0:
196,108,104035,2,0,P|144:104|96:136,1,100
28,264,104328,5,0,0:0:0:0:
152,220,104475,1,0,0:0:0:0:
260,300,104622,2,0,P|336:300|368:276,1,100
456,132,104915,2,0,P|472:208|456:252,1,100
300,168,105208,2,0,P|292:96|316:52,1,100
352,280,105501,6,0,B|300:272|300:272|240:288|240:288|220:224|172:200,1,200
136,132,105941,1,0,0:0:0:0:
120,288,106088,1,0,0:0:0:0:
276,184,106234,1,0,0:0:0:0:
108,80,106381,2,0,B|96:132|96:132|104:196,1,100
192,136,106674,1,0,0:0:0:0:
112,312,106821,1,0,0:0:0:0:
204,84,106968,1,0,0:0:0:0:
216,328,107114,1,0,0:0:0:0:
408,280,107261,2,0,B|448:244|448:244|464:192,1,100
312,248,107554,2,0,B|304:300|304:300|332:360,1,100
380,180,107847,2,0,B|336:156|336:156|272:168,1,100
376,332,108141,1,0,0:0:0:0:
384,104,108287,1,0,0:0:0:0:
124,228,108434,1,0,0:0:0:0:
360,260,108580,1,0,0:0:0:0:
208,40,108727,1,0,0:0:0:0:
160,296,108874,1,0,0:0:0:0:
404,208,109020,6,0,B|352:184|352:184|288:200,1,100
224,264,109314,1,0,0:0:0:0:
232,128,109460,1,0,0:0:0:0:
76,200,109607,1,0,0:0:0:0:
92,348,109754,1,0,0:0:0:0:
244,256,109900,6,0,B|296:240|296:240|372:260,1,100
484,68,110193,2,0,B|440:88|440:88|384:80,1,100
296,156,110487,1,0,0:0:0:0:
484,212,110633,1,0,0:0:0:0:
268,64,110780,1,0,0:0:0:0:
160,260,110927,1,0,0:0:0:0:
8,136,111073,2,0,B|76:128|84:128|84:128|120:156,1,100
272,360,111366,1,0,0:0:0:0:
320,268,111513,1,0,0:0:0:0:
216,272,111660,2,0,B|232:324|232:324|280:360,1,100
484,212,111953,2,0,B|436:196|436:196|384:220,1,100
192,352,112246,2,0,B|244:360|244:360|296:332,1,100
148,168,112539,6,0,B|96:160|96:160|40:192,1,100
108,248,112833,1,0,0:0:0:0:
280,160,112979,1,0,0:0:0:0:
136,48,113126,1,0,0:0:0:0:
136,308,113273,1,0,0:0:0:0:
348,196,113419,2,0,P|360:140|344:76,1,100
200,168,113712,5,0,0:0:0:0:
244,320,113859,1,0,0:0:0:0:
284,108,114006,1,0,0:0:0:0:
76,228,114152,1,0,0:0:0:0:
284,356,114299,2,0,B|340:352|400:300|400:300|432:316|492:312,1,200
272,212,114739,1,0,0:0:0:0:
200,356,114885,1,0,0:0:0:0:
168,172,115032,1,0,0:0:0:0:
336,228,115179,1,0,0:0:0:0:
336,228,116058,6,0,B|352:172|352:172|336:116,1,100
156,56,116352,1,0,0:0:0:0:
164,268,116498,2,0,L|264:204,1,100
456,220,116792,1,0,0:0:0:0:
404,364,116938,1,0,0:0:0:0:
312,196,117085,1,0,0:0:0:0:
440,92,117232,6,0,P|456:148|448:204,1,100
348,288,117525,2,0,P|276:288|232:312,1,100
116,364,117818,6,0,P|76:316|132:188,1,200
264,120,118258,1,0,0:0:0:0:
232,304,118405,1,0,0:0:0:0:
128,88,118551,1,0,0:0:0:0:
376,212,118698,2,0,B|392:264|392:264|380:328,1,100
128,308,118991,2,0,B|120:264|120:264|136:212,1,100
256,264,119284,2,0,L|256:368,1,100
80,176,119578,5,0,0:0:0:0:
264,140,119724,1,0,0:0:0:0:
36,140,119871,1,0,0:0:0:0:
384,132,120017,1,0,0:0:0:0:
216,232,120164,1,0,0:0:0:0:
432,216,120311,1,0,0:0:0:0:
196,64,120457,2,0,B|180:120|180:120|192:188,1,100
316,320,120751,2,0,B|332:264|332:264|324:222,1,100
216,232,121044,2,0,L|112:212,1,100
352,120,121337,5,0,0:0:0:0:
396,296,121484,1,0,0:0:0:0:
216,232,121630,1,0,0:0:0:0:
372,64,121777,1,0,0:0:0:0:
416,328,121924,1,0,0:0:0:0:
328,188,122070,1,0,0:0:0:0:
156,248,122217,2,0,P|144:300|176:368,1,100
296,252,122510,2,0,P|304:188|288:148,1,100
156,24,122803,1,0,0:0:0:0:
152,152,122950,1,0,0:0:0:0:
320,116,123097,6,0,B|332:168|332:168|324:244,1,100
368,328,123390,2,0,B|424:316|424:316|508:320,1,100
156,280,123683,2,0,B|108:260|108:260|56:264,1,100
48,76,123976,1,0,0:0:0:0:
56,268,124123,1,0,0:0:0:0:
160,128,124270,1,0,0:0:0:0:
140,336,124416,1,0,0:0:0:0:
288,120,124563,1,0,0:0:0:0:
280,348,124710,1,0,0:0:0:0:
392,64,124856,2,0,B|412:112|412:112|404:180,1,100
120,320,125149,2,0,B|100:272|100:272|108:204,1,100
352,224,125443,5,0,0:0:0:0:
176,120,125589,1,0,0:0:0:0:
428,48,125736,1,0,0:0:0:0:
184,256,125883,1,0,0:0:0:0:
312,40,126029,1,0,0:0:0:0:
316,328,126176,1,0,0:0:0:0:
160,184,126322,2,0,B|144:132|144:132|168:84,1,100
392,200,126616,6,0,B|404:252|404:252|392:308,1,100
60,296,126909,1,0,0:0:0:0:
256,232,127056,1,0,0:0:0:0:
240,40,127202,1,0,0:0:0:0:
96,164,127349,1,0,0:0:0:0:
280,320,127495,1,0,0:0:0:0:
376,76,127642,1,0,0:0:0:0:
224,192,127789,1,0,0:0:0:0:
496,228,127935,1,0,0:0:0:0:
240,40,128082,1,0,0:0:0:0:
280,340,128229,1,0,0:0:0:0:
468,164,128375,5,0,0:0:0:0:
424,144,128449,1,0,0:0:0:0:
376,144,128522,1,0,0:0:0:0:
328,164,128595,1,0,0:0:0:0:
292,200,128668,1,0,0:0:0:0:
248,220,128742,1,0,0:0:0:0:
200,216,128815,1,0,0:0:0:0:
160,188,128888,1,0,0:0:0:0:
140,140,128962,1,0,0:0:0:0:
152,92,129035,1,0,0:0:0:0:
184,56,129108,2,0,L|187:22,2,33.3333333333333
35,41,129255,6,0,P|127:57|203:53,1,150
288,52,129548,2,0,P|216:64|144:124,1,150
88,200,129841,2,0,B|104:256|104:256|104:336,1,100
416,112,130135,5,0,0:0:0:0:
232,156,130281,1,0,0:0:0:0:
388,216,130428,1,0,0:0:0:0:
408,24,130575,1,0,0:0:0:0:
208,176,130721,1,0,0:0:0:0:
244,344,130868,1,0,0:0:0:0:
352,160,131015,2,0,B|360:104|360:104|336:40,1,100
167,63,131308,2,0,B|152:104|152:104|160:160,1,100
256,128,131601,2,0,L|256:4,1,100
96,316,131894,1,0,0:0:0:0:
316,252,132041,1,0,0:0:0:0:
184,196,132188,2,0,B|176:248|176:248|188:304,1,100
356,160,132481,1,0,0:0:0:0:
344,28,132627,1,0,0:0:0:0:
196,100,132774,2,0,P|188:156|208:224,1,100
312,368,133067,2,0,P|320:296|304:236,1,100
408,32,133361,2,0,P|400:88|420:160,1,100
464,296,133654,6,0,B|416:312|368:292|368:292|316:300|316:300|264:356,1,200
136,344,134094,1,0,0:0:0:0:
68,212,134240,1,0,0:0:0:0:
288,216,134387,1,0,0:0:0:0:
176,256,134534,2,0,B|160:204|160:204|176:136,1,100
392,244,134827,2,0,B|404:300|404:300|384:344,1,100
120,268,135120,1,0,0:0:0:0:
348,144,135267,1,0,0:0:0:0:
208,348,135413,5,0,0:0:0:0:
160,64,135560,1,0,0:0:0:0:
296,280,135707,1,0,0:0:0:0:
388,72,135853,1,0,0:0:0:0:
128,164,136000,1,0,0:0:0:0:
160,360,136146,2,0,L|224:348,1,50
304,348,136293,2,0,P|308:288|272:224,1,100
200,152,136586,2,0,P|260:148|304:116,1,100
444,48,136880,2,0,P|472:108|452:196,1,150
408,248,137173,5,0,0:0:0:0:
352,112,137319,1,0,0:0:0:0:
300,348,137466,1,0,0:0:0:0:
168,180,137613,1,0,0:0:0:0:
308,24,137759,2,0,P|320:80|312:148,1,100
188,352,138053,2,0,P|176:296|196:236,1,100
100,36,138346,6,0,P|116:100|92:160,1,100
48,288,138639,1,0,0:0:0:0:
180,216,138786,1,0,0:0:0:0:
244,364,138932,2,0,B|300:368|300:368|344:352,1,100
480,200,139226,2,0,B|424:192|424:192|380:224,1,100
140,260,139519,5,0,0:0:0:0:
176,88,139666,1,0,0:0:0:0:
320,200,139812,1,0,0:0:0:0:
100,168,139959,1,0,0:0:0:0:
300,52,140105,1,0,0:0:0:0:
292,280,140252,1,0,0:0:0:0:
144,140,140399,2,0,B|136:88|136:88|164:28,1,100
332,136,140692,6,0,B|356:180|356:180|368:236|368:236|348:280|348:280|308:292|284:320,1,200
164,348,141132,1,0,0:0:0:0:
64,228,141278,1,0,0:0:0:0:
260,196,141425,1,0,0:0:0:0:
392,360,141572,2,0,P|416:312|416:256,1,100
308,32,141865,2,0,P|288:96|296:168,1,100
184,356,142158,2,0,P|204:304|200:248,1,100
112,40,142451,1,0,0:0:0:0:
64,204,142598,1,0,0:0:0:0:
64,204,142671,1,0,0:0:0:0:
64,204,142745,2,0,B|112:208|112:208|168:180,1,100
360,112,143038,1,0,0:0:0:0:
388,152,143111,1,0,0:0:0:0:
392,204,143185,1,0,0:0:0:0:
376,252,143258,1,0,0:0:0:0:
332,276,143331,1,0,0:0:0:0:
192,168,143478,1,0,0:0:0:0:
184,356,143624,1,0,0:0:0:0:
296,192,143771,1,0,0:0:0:0:
68,304,143918,2,0,B|48:256|48:256|64:184,1,100
240,256,144211,5,0,0:0:0:0:
420,356,144358,1,0,0:0:0:0:
304,112,144504,1,0,0:0:0:0:
284,352,144651,1,0,0:0:0:0:
168,212,144797,1,0,0:0:0:0:
424,168,144944,1,0,0:0:0:0:
184,356,145091,5,0,0:0:0:0:
152,116,145237,1,0,0:0:0:0:
364,236,145384,1,0,0:0:0:0:
408,36,145531,1,0,0:0:0:0:
232,212,145677,1,0,0:0:0:0:
472,192,145824,1,0,0:0:0:0:
224,80,145971,2,0,B|212:136|212:136|224:204,1,100
336,352,146264,2,0,B|348:304|348:304|336:248,1,100
352,56,146557,1,0,0:0:0:0:
448,256,146704,1,0,0:0:0:0:
196,352,146850,2,0,P|180:280|204:224,1,100
304,28,147144,2,0,P|320:88|308:152,1,100
404,368,147437,2,0,P|400:304|424:252,1,100
488,100,147730,2,0,B|432:96|432:96|412:156|412:156|364:136|296:176,1,200
220,200,148170,2,0,P|196:272|272:364,1,200
368,212,148610,1,0,0:0:0:0:
392,36,148756,1,0,0:0:0:0:
240,132,148903,1,0,0:0:0:0:
280,344,149050,1,0,0:0:0:0:
368,212,149196,1,0,0:0:0:0:
228,96,149343,1,0,0:0:0:0:
104,240,149490,2,0,B|96:288|96:288|112:352,1,100
248,236,149783,1,0,0:0:0:0:
192,76,149929,2,0,P|128:56|44:168,1,200
356,276,150369,5,0,0:0:0:0:
420,104,150516,1,0,0:0:0:0:
252,144,150663,1,0,0:0:0:0:
284,344,150809,1,0,0:0:0:0:
440,208,150956,1,0,0:0:0:0:
412,24,151102,1,0,0:0:0:0:
412,24,151176,1,0,0:0:0:0:
412,24,151249,6,0,P|352:20|300:48,1,100
200,124,151542,2,0,P|140:136|80:124,1,100
28,52,151836,2,0,L|32:168,1,100
168,356,152129,2,0,L|164:232,1,100
280,28,152422,2,0,L|288:132,1,100
432,356,152715,2,0,L|420:200,1,150
416,120,153009,5,0,0:0:0:0:
320,304,153155,1,0,0:0:0:0:
196,40,153302,2,0,B|184:96|184:96|208:152,1,100
384,184,153595,1,0,0:0:0:0:
104,152,153742,1,0,0:0:0:0:
276,64,153888,1,0,0:0:0:0:
224,256,154035,1,0,0:0:0:0:
196,40,154182,1,0,0:0:0:0:
396,188,154328,1,0,0:0:0:0:
124,272,154475,1,0,0:0:0:0:
244,160,154622,1,0,0:0:0:0:
332,312,154768,6,0,P|312:360|248:376,1,100
136,104,155061,1,0,0:0:0:0:
48,232,155208,2,0,P|124:252|168:228,1,100
304,216,155501,1,0,0:0:0:0:
304,216,155575,1,0,0:0:0:0:
304,216,155648,2,0,P|368:204|412:228,1,100
180,356,155941,2,0,P|172:288|196:232,1,100
272,36,156234,2,0,P|284:88|276:148,1,100
340,348,156528,5,0,0:0:0:0:
388,356,156601,1,0,0:0:0:0:
432,332,156674,1,0,0:0:0:0:
440,280,156748,1,0,0:0:0:0:
412,236,156821,1,0,0:0:0:0:
372,208,156894,1,0,0:0:0:0:
364,160,156968,1,0,0:0:0:0:
388,116,157041,1,0,0:0:0:0:
436,96,157114,1,0,0:0:0:0:
336,24,157261,2,0,L|336:64,2,33.3333333333333
336,24,157407,2,0,P|280:40|164:52,1,150
104,56,157701,2,0,P|180:60|256:120,1,150
288,200,157994,2,0,B|300:252|300:252|288:320,1,100
216,88,158287,5,0,0:0:0:0:
388,152,158434,1,0,0:0:0:0:
152,252,158580,1,0,0:0:0:0:
304,360,158727,1,0,0:0:0:0:
308,128,158874,1,0,0:0:0:0:
136,276,159020,1,0,0:0:0:0:
364,364,159167,1,0,0:0:0:0:
312,96,159314,1,0,0:0:0:0:
120,280,159460,1,0,0:0:0:0:
128,52,159607,1,0,0:0:0:0:
88,224,159754,1,0,0:0:0:0:
252,168,159900,1,0,0:0:0:0:
304,276,160047,5,0,0:0:0:0:
224,96,160193,1,0,0:0:0:0:
176,300,160340,1,0,0:0:0:0:
364,168,160487,1,0,0:0:0:0:
168,208,160633,1,0,0:0:0:0:
376,324,160780,1,0,0:0:0:0:
252,268,160927,1,0,0:0:0:0:
296,64,161073,1,0,0:0:0:0:
440,220,161220,1,0,0:0:0:0:
212,232,161366,2,0,P|176:152|248:40,1,200
220,55,161733,1,0,0:0:0:0:
220,55,161806,5,0,0:0:0:0:
304,148,161953,1,0,0:0:0:0:
104,92,162100,1,0,0:0:0:0:
324,48,162246,1,0,0:0:0:0:
288,240,162393,1,0,0:0:0:0:
184,136,162539,1,0,0:0:0:0:
152,360,162686,1,0,0:0:0:0:
72,184,162833,1,0,0:0:0:0:
272,212,162979,1,0,0:0:0:0:
276,316,163126,1,0,0:0:0:0:
264,92,163273,1,0,0:0:0:0:
460,184,163419,1,0,0:0:0:0:
416,24,163566,6,0,P|400:80|428:140,1,100
436,260,163859,1,0,0:0:0:0:
360,332,164006,2,0,L|248:308,1,100
168,304,164299,1,0,0:0:0:0:
20,184,164446,2,0,P|68:156|120:172,1,100
216,196,164739,1,0,0:0:0:0:
264,184,164812,1,0,0:0:0:0:
312,192,164885,1,0,0:0:0:0:
360,172,164959,1,0,0:0:0:0:
408,180,165032,2,0,B|416:128|416:128|396:68,1,100
336,248,165325,5,0,0:0:0:0:
148,216,165472,1,0,0:0:0:0:
352,332,165619,1,0,0:0:0:0:
268,96,165765,1,0,0:0:0:0:
192,224,165912,1,0,0:0:0:0:
288,332,166058,1,0,0:0:0:0:
112,144,166205,1,0,0:0:0:0:
192,328,166352,1,0,0:0:0:0:
284,184,166498,1,0,0:0:0:0:
88,288,166645,1,0,0:0:0:0:
304,236,166792,1,0,0:0:0:0:
176,92,166938,1,0,0:0:0:0:
192,328,167085,5,0,0:0:0:0:
404,200,167232,1,0,0:0:0:0:
116,208,167378,1,0,0:0:0:0:
352,64,167525,1,0,0:0:0:0:
328,332,167671,1,0,0:0:0:0:
216,144,167818,1,0,0:0:0:0:
416,32,167965,1,0,0:0:0:0:
416,272,168111,1,0,0:0:0:0:
272,88,168258,1,0,0:0:0:0:
256,340,168405,1,0,0:0:0:0:
148,52,168551,1,0,0:0:0:0:
120,272,168698,1,0,0:0:0:0:
120,272,168771,1,0,0:0:0:0:
120,272,168844,6,0,P|192:276|256:248,1,100
304,168,169138,1,0,0:0:0:0:
428,212,169284,2,0,B|448:260|448:260|432:328,1,100
304,56,169578,1,0,0:0:0:0:
224,344,169724,2,0,B|200:292|200:292|216:224,1,100
304,168,170017,1,0,0:0:0:0:
172,124,170164,2,0,B|120:112|120:112|52:148,1,100
208,28,170457,1,0,0:0:0:0:
352,240,170604,2,0,B|404:248|404:248|448:212,1,100
416,80,170897,2,0,B|360:72|360:72|312:108,1,100
180,176,171190,1,0,0:0:0:0:
164,368,171337,1,0,0:0:0:0:
364,224,171484,5,0,0:0:0:0:
400,188,171557,1,0,0:0:0:0:
400,140,171630,1,0,0:0:0:0:
372,96,171704,1,0,0:0:0:0:
324,80,171777,1,0,0:0:0:0:
276,84,171850,1,0,0:0:0:0:
236,116,171924,1,0,0:0:0:0:
188,120,171997,1,0,0:0:0:0:
148,88,172070,2,0,L|152:16,1,50
236,28,172217,2,0,L|236:64,2,33.3333333333333
292,128,179402,5,0,0:0:0:0:
240,272,179548,1,0,0:0:0:0:
224,80,179695,1,0,0:0:0:0:
256,304,179841,1,0,0:0:0:0:
112,236,179988,1,0,0:0:0:0:
352,136,180135,1,0,0:0:0:0:
148,144,180281,1,0,0:0:0:0:
368,244,180428,1,0,0:0:0:0:
244,104,180575,1,0,0:0:0:0:
192,348,180721,1,0,0:0:0:0:
260,224,180868,1,0,0:0:0:0:
212,244,180941,1,0,0:0:0:0:
164,236,181015,1,0,0:0:0:0:
116,252,181088,1,0,0:0:0:0:
68,252,181161,5,0,0:0:0:0:
124,152,181308,1,0,0:0:0:0:
212,244,181454,1,0,0:0:0:0:
288,152,181601,1,0,0:0:0:0:
376,296,181748,1,0,0:0:0:0:
456,216,181894,1,0,0:0:0:0:
312,36,182041,2,0,P|300:108|320:180,1,100
396,360,182334,2,0,P|408:296|392:252,1,100
452,28,182627,2,0,P|444:92|472:164,1,100
396,360,182921,5,0,0:0:0:0:
348,368,182994,1,0,0:0:0:0:
300,352,183067,1,0,0:0:0:0:
268,312,183141,1,0,0:0:0:0:
220,296,183214,1,0,0:0:0:0:
172,300,183287,1,0,0:0:0:0:
128,328,183361,1,0,0:0:0:0:
80,336,183434,1,0,0:0:0:0:
36,312,183507,1,0,0:0:0:0:
24,264,183580,1,0,0:0:0:0:
40,216,183654,1,0,0:0:0:0:
84,196,183727,1,0,0:0:0:0:
132,212,183800,5,0,0:0:0:0:
176,236,183874,1,0,0:0:0:0:
224,240,183947,1,0,0:0:0:0:
272,236,184020,1,0,0:0:0:0:
320,224,184094,1,0,0:0:0:0:
364,196,184167,1,0,0:0:0:0:
384,148,184240,1,0,0:0:0:0:
376,96,184314,1,0,0:0:0:0:
340,64,184387,1,0,0:0:0:0:
292,56,184460,1,0,0:0:0:0:
248,80,184534,1,0,0:0:0:0:
228,124,184607,1,0,0:0:0:0:
236,172,184680,1,0,0:0:0:0:
340,320,184973,5,0,0:0:0:0:
488,216,185267,1,0,0:0:0:0:
204,32,185560,1,0,0:0:0:0:
188,212,185853,1,0,0:0:0:0:
40,264,186146,1,0,0:0:0:0:
256,100,186440,1,0,0:0:0:0:
256,40,190545,6,0,B|228:88|228:88|236:136|236:136|272:132|304:168|308:192|308:192|344:160|380:164,1,262.500010013581
416,120,191132,2,0,L|416:220,1,75.0000028610231
288,352,191425,2,0,P|272:312|276:236,1,89.9999972534181
240,20,191718,2,0,P|240:88|224:152,1,100
60,272,192012,2,0,P|120:256|184:256,1,119.999996337891
388,296,192305,6,0,B|380:232|380:232|424:192|424:192|404:156|420:104,1,179.999994506836
400,60,192598,1,0,0:0:0:0:
352,36,192671,1,0,0:0:0:0:
296,40,192745,1,0,0:0:0:0:
256,76,192818,1,0,0:0:0:0:
236,128,192891,2,0,B|224:188|224:188|244:256,1,119.999996337891
304,352,193185,1,0,0:0:0:0:
252,340,193258,1,0,0:0:0:0:
200,328,193331,1,0,0:0:0:0:
152,352,193405,1,0,0:0:0:0:
100,364,193478,1,0,0:0:0:0:
48,364,193551,2,0,P|32:304|64:240,1,119.999996337891
120,204,193771,2,0,P|152:112|148:60,1,119.999996337891
240,40,193991,2,0,P|304:24|364:56,1,119.999996337891
416,112,194211,1,0,0:0:0:0:
232,276,194358,1,0,0:0:0:0:
184,44,194504,1,0,0:0:0:0:
416,88,194651,6,0,B|424:148|424:148|392:200|400:296,1,179.999994506836
368,336,194944,1,0,0:0:0:0:
320,356,195017,1,0,0:0:0:0:
264,348,195091,1,0,0:0:0:0:
236,304,195164,1,0,0:0:0:0:
188,276,195237,1,0,0:0:0:0:
132,280,195311,2,0,B|116:224|116:224|124:136,1,119.999996337891
192,88,195531,1,0,0:0:0:0:
244,72,195604,1,0,0:0:0:0:
296,80,195677,1,0,0:0:0:0:
348,100,195751,1,0,0:0:0:0:
400,104,195824,5,0,0:0:0:0:
448,84,195897,2,0,B|476:124|476:124|476:160|496:224,1,119.999996337891
480,292,196117,2,0,B|420:280|420:280|344:312,1,119.999996337891
272,356,196337,2,0,L|272:216,1,119.999996337891
368,56,196557,2,0,L|368:136,1,59.9999981689454
244,152,196704,1,0,0:0:0:0:
356,232,196850,2,0,P|356:272|352:304,1,59.9999981689454
224,332,196997,5,0,0:0:0:0:
176,356,197070,1,0,0:0:0:0:
120,352,197144,1,0,0:0:0:0:
88,308,197217,1,0,0:0:0:0:
84,256,197290,1,0,0:0:0:0:
120,216,197363,1,0,0:0:0:0:
172,200,197437,1,0,0:0:0:0:
200,152,197510,1,0,0:0:0:0:
184,100,197583,2,0,B|144:56|144:56|64:48,1,119.999996337891
44,148,197803,1,0,0:0:0:0:
44,148,197877,2,0,B|84:192|84:192|164:200,1,119.999996337891
248,192,198097,1,0,0:0:0:0:
300,176,198170,6,0,B|328:156|328:156|344:120,3,59.9999981689454
424,64,198463,2,0,B|460:48|460:48|488:52,3,59.9999981689454
480,160,198756,2,0,B|424:184|424:184|360:168,1,119.999996337891
280,136,198976,2,0,B|216:120|216:120|156:160,1,119.999996337891
104,212,199196,1,0,0:0:0:0:
284,328,199343,6,0,B|332:328|360:336|360:336|392:296,1,119.999996337891
420,216,199563,2,0,B|432:156|432:156|408:52,1,119.999996337891
280,136,199783,2,0,B|292:196|292:196|272:276|272:276|316:252,1,179.999994506836
384,296,200076,2,0,P|356:336|336:352,1,59.9999981689454
252,360,200223,2,0,P|200:352|176:336,1,59.9999981689454
124,288,200369,2,0,P|96:248|76:208,1,59.9999981689454
80,144,200516,6,0,L|76:16,1,119.999996337891
172,80,200736,2,0,L|176:212,1,119.999996337891
260,240,200956,1,0,0:0:0:0:
364,84,201102,6,0,P|428:56|496:88,1,119.999996337891
488,160,201322,2,0,P|428:184|368:164,1,119.999996337891
288,156,201542,2,0,L|296:240,1,59.9999981689454
336,336,201689,6,0,L|464:284,1,119.999996337891
228,288,201909,2,0,L|348:236,1,119.999996337891
160,220,202129,2,0,B|104:208|104:208|48:224|48:224|64:280|36:312,1,179.999994506836
48,368,202422,1,0,0:0:0:0:
112,64,202569,1,0,0:0:0:0:
184,324,202715,1,0,0:0:0:0:
296,112,202862,6,0,B|352:88|352:88|432:108,1,119.999996337891
480,212,203082,2,0,B|424:244|424:244|368:224,1,119.999996337891
272,208,203302,2,0,L|204:184,1,59.9999981689454
112,168,203449,2,0,B|88:224|88:224|112:300,1,119.999996337891
232,360,203668,2,0,B|248:304|248:304|220:240,1,119.999996337891
192,152,203888,2,0,L|192:80,1,59.9999981689454
368,40,204035,1,0,0:0:0:0:
368,40,204108,6,0,B|384:104|384:104|368:200,1,119.999996337891
344,264,204328,2,0,B|400:240|400:240|480:276,1,119.999996337891
448,344,204548,1,0,0:0:0:0:
448,344,204622,2,0,B|392:368|392:368|332:340,1,119.999996337891
220,252,204841,2,0,B|160:240|160:240|96:268,1,119.999996337891
36,316,205061,1,0,0:0:0:0:
56,328,205135,1,0,0:0:0:0:
76,344,205208,6,0,P|88:268|68:200,1,119.999996337891
88,144,205428,1,0,0:0:0:0:
88,144,205501,2,0,P|136:104|212:116,1,119.999996337891
272,152,205721,1,0,0:0:0:0:
272,152,205795,2,0,P|332:160|384:112,1,119.999996337891
448,64,206015,1,0,0:0:0:0:
448,64,206088,2,0,B|456:124|440:192|440:192|464:256,1,179.999994506836
480,292,206381,5,0,0:0:0:0:
452,340,206454,1,0,0:0:0:0:
400,352,206528,1,0,0:0:0:0:
356,320,206601,1,0,0:0:0:0:
352,268,206674,1,0,0:0:0:0:
316,228,206748,1,0,0:0:0:0:
264,224,206821,1,0,0:0:0:0:
220,256,206894,1,0,0:0:0:0:
216,312,206968,5,0,0:0:0:0:
172,344,207041,1,0,0:0:0:0:
120,344,207114,1,0,0:0:0:0:
80,308,207188,1,0,0:0:0:0:
72,256,207261,1,0,0:0:0:0:
108,216,207334,1,0,0:0:0:0:
152,184,207407,1,0,0:0:0:0:
160,132,207481,1,0,0:0:0:0:
144,80,207554,5,0,0:0:0:0:
96,56,207627,1,0,0:0:0:0:
44,68,207701,1,0,0:0:0:0:
16,112,207774,1,0,0:0:0:0:
20,164,207847,1,0,0:0:0:0:
56,204,207921,1,0,0:0:0:0:
108,204,207994,1,0,0:0:0:0:
148,168,208067,1,0,0:0:0:0:
204,164,208141,2,0,B|264:148|264:148|328:176,1,119.999996337891
380,212,208361,2,0,P|444:220|492:188,1,119.999996337891
488,108,208580,1,0,0:0:0:0:
368,36,208727,6,0,L|364:168,1,119.999996337891
276,96,208947,2,0,L|272:232,1,119.999996337891
184,144,209167,1,0,0:0:0:0:
184,144,209240,1,0,0:0:0:0:
184,144,209314,2,0,L|180:268,1,119.999996337891
136,344,209534,2,0,P|64:356|28:320,1,119.999996337891
44,216,209754,1,0,0:0:0:0:
44,216,209827,1,0,0:0:0:0:
44,216,209900,6,0,P|100:196|156:224,1,119.999996337891
252,268,210120,1,0,0:0:0:0:
252,268,210193,2,0,L|236:116,1,119.999996337891
328,40,210413,1,0,0:0:0:0:
360,84,210487,1,0,0:0:0:0:
376,136,210560,1,0,0:0:0:0:
400,272,210707,5,0,0:0:0:0:
392,324,210780,1,0,0:0:0:0:
264,344,210927,1,0,0:0:0:0:
248,292,211000,1,0,0:0:0:0:
204,264,211073,2,0,B|144:248|144:248|64:284,1,119.999996337891
340,112,211366,2,0,B|404:120|404:120|472:72,1,119.999996337891
232,44,211660,1,0,0:0:0:0:
200,88,211733,1,0,0:0:0:0:
204,140,211806,1,0,0:0:0:0:
248,176,211880,1,0,0:0:0:0:
280,220,211953,1,0,0:0:0:0:
288,272,212026,1,0,0:0:0:0:
272,324,212100,1,0,0:0:0:0:
232,360,212173,1,0,0:0:0:0:
180,364,212246,1,0,0:0:0:0:
140,328,212319,6,0,P|80:264|20:252,1,119.999996337891
40,216,212539,2,0,B|96:184|96:184|160:200,1,119.999996337891
224,240,212759,2,0,L|232:112,1,119.999996337891
232,72,212979,1,0,0:0:0:0:
400,156,213126,2,0,L|400:232,1,59.9999981689454
400,292,213273,1,0,0:0:0:0:
180,364,213419,6,0,B|152:312|152:312|160:240|160:240|104:212,1,179.999994506836
68,196,213712,1,0,0:0:0:0:
48,144,213786,1,0,0:0:0:0:
68,96,213859,1,0,0:0:0:0:
120,76,213932,1,0,0:0:0:0:
172,88,214006,1,0,0:0:0:0:
200,136,214079,1,0,0:0:0:0:
248,156,214152,1,0,0:0:0:0:
300,144,214226,1,0,0:0:0:0:
336,104,214299,2,0,B|344:64|344:64|336:28,3,59.9999981689454
288,24,214592,5,0,0:0:0:0:
236,44,214666,2,0,L|244:188,1,119.999996337891
248,216,214885,2,0,P|188:248|124:232,1,119.999996337891
36,172,215105,2,0,P|88:144|160:152,1,119.999996337891
224,196,215325,1,0,0:0:0:0:
260,236,215399,1,0,0:0:0:0:
260,288,215472,1,0,0:0:0:0:
312,272,215545,1,0,0:0:0:0:
368,276,215619,1,0,0:0:0:0:
416,300,215692,1,0,0:0:0:0:
448,344,215765,6,0,B|456:304|456:304|440:256,3,59.9999981689454
352,160,216058,2,0,B|348:192|348:192|360:232,3,59.9999981689454
352,340,216352,1,0,0:0:0:0:
300,352,216425,1,0,0:0:0:0:
248,344,216498,1,0,0:0:0:0:
204,312,216572,1,0,0:0:0:0:
188,260,216645,2,0,B|160:256|160:256|100:284,3,59.9999981689454
32,300,216938,1,0,0:0:0:0:
16,248,217012,1,0,0:0:0:0:
32,196,217085,1,0,0:0:0:0:
80,172,217158,1,0,0:0:0:0:
132,180,217232,1,0,0:0:0:0:
168,220,217305,1,0,0:0:0:0:
176,272,217378,1,0,0:0:0:0:
172,324,217451,1,0,0:0:0:0:
216,356,217525,6,0,L|356:320,1,119.999996337891
372,312,217745,2,0,B|384:244|384:244|336:160,1,119.999996337891
296,140,217965,1,0,0:0:0:0:
436,44,218111,2,0,B|432:184|432:180,1,119.999996337891
336,240,218331,2,0,L|344:104,1,119.999996337891
248,172,218551,2,0,B|232:232|232:232|256:304,1,119.999996337891
156,352,218771,2,0,L|112:200,1,119.999996337891
84,132,218991,1,0,0:0:0:0:
44,344,219138,1,0,0:0:0:0:
156,352,219284,6,0,P|216:328|288:348,1,119.999996337891
360,292,219504,2,0,P|380:232|448:196,1,119.999996337891
488,124,219724,2,0,L|488:44,1,59.9999981689454
396,32,219871,6,0,P|344:68|336:132,1,119.999996337891
328,156,220091,2,0,P|260:132|192:152,1,119.999996337891
180,152,220311,2,0,L|184:220,1,59.9999981689454
180,304,220457,2,0,B|132:316|96:336|96:336|56:304|16:288,2,179.999994506836
216,296,220971,2,0,P|284:280|340:308,1,119.999996337891
388,360,221190,1,0,0:0:0:0:
304,88,221337,1,0,0:0:0:0:
216,296,221484,1,0,0:0:0:0:
180,152,221630,2,0,B|120:144|120:144|60:184,1,119.999996337891
96,264,221850,2,0,B|160:264|160:264|208:216,1,119.999996337891
260,168,222070,1,0,0:0:0:0:
380,76,222217,2,0,L|392:208,1,119.999996337891
416,292,222437,2,0,P|480:276|500:208,1,119.999996337891
472,136,222657,1,0,0:0:0:0:
260,168,222803,6,0,P|256:236|296:324,1,119.999996337891
280,328,223023,1,0,0:0:0:0:
280,328,223097,2,0,P|200:360|140:328,1,119.999996337891
48,224,223390,1,0,0:0:0:0:
48,224,223463,2,0,P|104:196|168:216,1,119.999996337891
240,260,223683,1,0,0:0:0:0:
264,212,223756,1,0,0:0:0:0:
268,156,223830,1,0,0:0:0:0:
316,128,223903,1,0,0:0:0:0:
356,92,223976,6,0,B|416:88|416:88|488:112,1,119.999996337891
376,280,224270,2,0,B|316:296|316:296|256:276,1,119.999996337891
116,96,224563,2,0,B|176:76|176:76|248:92,1,119.999996337891
144,272,224856,2,0,B|88:296|88:296|16:272,1,119.999996337891
216,136,225149,5,0,0:0:0:0:
252,176,225223,1,0,0:0:0:0:
268,228,225296,1,0,0:0:0:0:
256,280,225369,1,0,0:0:0:0:
232,328,225443,1,0,0:0:0:0:
284,320,225516,1,0,0:0:0:0:
336,332,225589,1,0,0:0:0:0:
384,356,225663,1,0,0:0:0:0:
436,352,225736,1,0,0:0:0:0:
472,312,225809,1,0,0:0:0:0:
472,256,225883,1,0,0:0:0:0:
432,220,225956,1,0,0:0:0:0:
380,228,226029,1,0,0:0:0:0:
348,268,226102,1,0,0:0:0:0:
352,324,226176,1,0,0:0:0:0:
312,364,226249,1,0,0:0:0:0:
260,368,226322,5,0,0:0:0:0:
220,332,226396,1,0,0:0:0:0:
216,280,226469,1,0,0:0:0:0:
244,236,226542,1,0,0:0:0:0:
248,180,226616,1,0,0:0:0:0:
220,132,226689,1,0,0:0:0:0:
168,116,226762,1,0,0:0:0:0:
116,128,226836,1,0,0:0:0:0:
92,176,226909,2,0,B|80:236|80:236|104:320,1,119.999996337891
116,328,227129,2,0,B|180:340|180:340|256:312,1,119.999996337891
264,304,227349,1,0,0:0:0:0:
412,180,227495,2,0,B|424:216|424:216|420:252,3,59.9999981689454
372,320,227789,2,0,B|340:340|340:340|300:336,3,59.9999981689454
224,288,228082,5,0,0:0:0:0:
172,276,228155,1,0,0:0:0:0:
116,280,228229,1,0,0:0:0:0:
64,296,228302,1,0,0:0:0:0:
20,324,228375,1,0,0:0:0:0:
28,272,228449,1,0,0:0:0:0:
32,220,228522,1,0,0:0:0:0:
28,168,228595,1,0,0:0:0:0:
20,116,228668,1,0,0:0:0:0:
36,116,228962,5,0,0:0:0:0:
56,116,229255,1,0,0:0:0:0:
76,116,229548,1,0,0:0:0:0:
96,116,229841,6,0,B|112:176|112:176|100:240,1,119.999996337891
184,328,230135,1,0,0:0:0:0:
236,348,230208,1,0,0:0:0:0:
288,340,230281,1,0,0:0:0:0:
316,292,230355,1,0,0:0:0:0:
320,240,230428,1,0,0:0:0:0:
284,200,230501,1,0,0:0:0:0:
288,144,230575,1,0,0:0:0:0:
328,108,230648,1,0,0:0:0:0:
380,108,230721,1,0,0:0:0:0:
424,140,230795,1,0,0:0:0:0:
432,192,230868,1,0,0:0:0:0:
412,232,230941,1,0,0:0:0:0:
396,284,231015,5,0,0:0:0:0:
412,336,231088,2,0,B|468:312|468:312|496:232,1,119.999996337891
432,192,231308,2,0,B|384:200|360:200|360:200|324:252,1,119.999996337891
296,312,231528,2,0,P|240:332|168:312,1,119.999996337891
100,272,231748,1,0,0:0:0:0:
184,48,231894,1,0,0:0:0:0:
212,96,231968,1,0,0:0:0:0:
220,148,232041,1,0,0:0:0:0:
264,180,232114,1,0,0:0:0:0:
316,172,232188,2,0,B|360:144|360:144|440:144,1,119.999996337891
464,268,232481,5,0,0:0:0:0:
440,316,232554,1,0,0:0:0:0:
392,340,232627,1,0,0:0:0:0:
340,324,232701,1,0,0:0:0:0:
316,276,232774,1,0,0:0:0:0:
336,224,232847,1,0,0:0:0:0:
316,172,232921,1,0,0:0:0:0:
268,144,232994,1,0,0:0:0:0:
216,152,233067,1,0,0:0:0:0:
184,196,233141,1,0,0:0:0:0:
188,248,233214,1,0,0:0:0:0:
156,292,233287,1,0,0:0:0:0:
104,300,233361,5,0,0:0:0:0:
56,276,233434,2,0,B|28:220|28:220|44:148,1,119.999996337891
72,128,233654,2,0,B|124:100|124:100|200:120,1,119.999996337891
224,136,233874,2,0,B|288:144|288:144|360:96,1,119.999996337891
408,68,234094,1,0,0:0:0:0:
460,60,234167,1,0,0:0:0:0:
492,104,234240,1,0,0:0:0:0:
484,156,234314,1,0,0:0:0:0:
432,172,234387,1,0,0:0:0:0:
380,156,234460,5,0,0:0:0:0:
332,184,234534,1,0,0:0:0:0:
308,232,234607,1,0,0:0:0:0:
320,284,234680,1,0,0:0:0:0:
364,316,234754,1,0,0:0:0:0:
416,312,234827,1,0,0:0:0:0:
448,268,234900,1,0,0:0:0:0:
448,216,234973,1,0,0:0:0:0:
416,172,235047,1,0,0:0:0:0:
368,152,235120,2,0,B|360:112|360:112|368:68,3,59.9999981689454
232,160,235413,2,0,B|240:196|240:196|240:240,3,59.9999981689454
216,308,235707,5,0,0:0:0:0:
172,340,235780,1,0,0:0:0:0:
120,348,235853,1,0,0:0:0:0:
72,320,235927,1,0,0:0:0:0:
44,272,236000,1,0,0:0:0:0:
56,220,236073,1,0,0:0:0:0:
100,188,236146,1,0,0:0:0:0:
156,192,236220,1,0,0:0:0:0:
204,216,236293,2,0,B|240:220|240:220|276:200,2,59.9999981689454
188,124,236513,2,0,B|220:104|220:104|232:68,2,59.9999981689454
100,84,236733,1,0,0:0:0:0:
100,84,236880,6,0,B|80:144|80:144|108:216,1,119.999996337891
120,232,237100,2,0,B|180:252|180:252|272:228,1,119.999996337891
324,208,237319,2,0,P|344:288|320:360,1,119.999996337891
204,272,237539,2,0,P|200:188|240:144,1,119.999996337891
300,104,237759,1,0,0:0:0:0:
240,360,237906,1,0,0:0:0:0:
192,76,238053,2,0,B|164:88|124:88|124:88|96:116|52:140|-4:120,2,179.999994506836
296,188,238639,2,0,P|372:200|444:124,2,179.999994506836
188,180,239226,6,0,B|176:248|176:248|192:320,1,119.999996337891
232,320,239446,2,0,B|292:336|292:336|356:304,1,119.999996337891
404,248,239666,2,0,L|412:120,1,119.999996337891
412,40,239885,2,0,P|348:28|292:64,1,119.999996337891
280,92,240105,1,0,0:0:0:0:
236,124,240179,1,0,0:0:0:0:
184,132,240252,1,0,0:0:0:0:
136,108,240325,1,0,0:0:0:0:
104,64,240399,6,0,L|88:212,1,119.999996337891
96,236,240619,1,0,0:0:0:0:
124,284,240692,1,0,0:0:0:0:
176,292,240765,1,0,0:0:0:0:
224,264,240839,1,0,0:0:0:0:
232,212,240912,1,0,0:0:0:0:
204,164,240985,1,0,0:0:0:0:
196,112,241058,1,0,0:0:0:0:
232,68,241132,1,0,0:0:0:0:
284,60,241205,1,0,0:0:0:0:
324,96,241278,2,0,B|384:112|384:112|456:92,1,119.999996337891
484,84,241498,1,0,0:0:0:0:
484,84,241572,6,0,B|500:144|500:144|476:216,1,119.999996337891
420,260,241792,2,0,B|364:280|364:280|300:256,1,119.999996337891
232,212,242012,1,0,0:0:0:0:
180,208,242085,1,0,0:0:0:0:
128,228,242158,2,0,B|108:288|108:288|124:344|124:344|160:328|204:336,1,179.999994506836
264,324,242451,2,0,B|272:260|272:260|248:192,1,119.999996337891
160,76,242671,1,0,0:0:0:0:
160,76,242745,2,0,P|148:160|184:220,1,119.999996337891
264,372,243038,2,0,P|292:272|284:232,1,119.999996337891
356,24,243331,2,0,P|352:100|388:164,1,119.999996337891
452,356,243624,2,0,P|464:284|452:224,1,119.999996337891
440,60,243918,5,0,0:0:0:0:
388,64,243991,1,0,0:0:0:0:
352,104,244064,1,0,0:0:0:0:
356,160,244138,1,0,0:0:0:0:
396,196,244211,1,0,0:0:0:0:
448,196,244284,1,0,0:0:0:0:
484,236,244358,1,0,0:0:0:0:
492,288,244431,1,0,0:0:0:0:
464,336,244504,1,0,0:0:0:0:
412,348,244578,1,0,0:0:0:0:
368,320,244651,1,0,0:0:0:0:
332,280,244724,1,0,0:0:0:0:
280,264,244797,1,0,0:0:0:0:
228,276,244871,1,0,0:0:0:0:
188,308,244944,1,0,0:0:0:0:
164,356,245017,1,0,0:0:0:0:
112,372,245091,5,0,0:0:0:0:
60,356,245164,1,0,0:0:0:0:
40,304,245237,1,0,0:0:0:0:
52,252,245311,1,0,0:0:0:0:
96,220,245384,1,0,0:0:0:0:
148,232,245457,1,0,0:0:0:0:
188,268,245531,1,0,0:0:0:0:
204,320,245604,1,0,0:0:0:0:
252,340,245677,2,0,B|300:344|300:344|328:328|376:304,1,119.999996337891
432,240,245897,2,0,B|440:176|440:176|412:112,1,119.999996337891
352,52,246117,1,0,0:0:0:0:
300,56,246190,1,0,0:0:0:0:
260,92,246264,5,0,0:0:0:0:
316,228,246410,1,0,0:0:0:0:
204,368,246557,1,0,0:0:0:0:
64,308,246704,1,0,0:0:0:0:
92,128,246850,1,0,0:0:0:0:
140,104,246924,1,0,0:0:0:0:
192,100,246997,1,0,0:0:0:0:
240,124,247070,1,0,0:0:0:0:
280,164,247144,1,0,0:0:0:0:
332,180,247217,1,0,0:0:0:0:
384,168,247290,1,0,0:0:0:0:
424,132,247363,1,0,0:0:0:0:
444,80,247437,5,0,0:0:0:0:
444,120,247730,1,0,0:0:0:0:
444,160,248023,1,0,0:0:0:0:
444,200,248317,1,0,0:0:0:0:
444,244,248610,6,0,B|396:284|396:284|312:292,1,135.000000514984
268,292,248830,1,0,0:0:0:0:
216,296,248903,1,0,0:0:0:0:
168,320,248976,1,0,0:0:0:0:
128,356,249050,1,0,0:0:0:0:
120,304,249123,1,0,0:0:0:0:
88,260,249196,1,0,0:0:0:0:
64,212,249270,1,0,0:0:0:0:
76,160,249343,1,0,0:0:0:0:
108,116,249416,1,0,0:0:0:0:
164,112,249490,1,0,0:0:0:0:
212,136,249563,1,0,0:0:0:0:
236,184,249636,1,0,0:0:0:0:
236,240,249710,1,0,0:0:0:0:
200,280,249783,6,0,B|144:296|144:296|64:268,1,135.000000514984
40,224,250003,1,0,0:0:0:0:
36,172,250076,1,0,0:0:0:0:
68,128,250149,1,0,0:0:0:0:
108,116,250223,1,0,0:0:0:0:
156,136,250296,1,0,0:0:0:0:
176,188,250369,1,0,0:0:0:0:
164,240,250443,1,0,0:0:0:0:
128,280,250516,1,0,0:0:0:0:
140,332,250589,1,0,0:0:0:0:
180,368,250663,1,0,0:0:0:0:
232,364,250736,1,0,0:0:0:0:
276,332,250809,1,0,0:0:0:0:
280,276,250883,1,0,0:0:0:0:
268,224,250956,2,0,B|256:156|256:156|296:72,1,135.000000514984
472,264,251249,5,0,0:0:0:0:
448,312,251322,1,0,0:0:0:0:
400,340,251396,1,0,0:0:0:0:
348,328,251469,1,0,0:0:0:0:
324,280,251542,1,0,0:0:0:0:
332,228,251616,1,0,0:0:0:0:
320,176,251689,1,0,0:0:0:0:
272,152,251762,1,0,0:0:0:0:
216,156,251836,1,0,0:0:0:0:
176,196,251909,1,0,0:0:0:0:
172,248,251982,1,0,0:0:0:0:
196,296,252056,1,0,0:0:0:0:
244,320,252129,5,0,0:0:0:0:
296,308,252202,2,0,B|364:284|364:284|424:304,1,135.000000514984
472,328,252422,2,0,L|468:168,1,135.000000514984
452,96,252642,2,0,P|380:116|332:172,1,135.000000514984
280,228,252862,1,0,0:0:0:0:
124,172,253009,1,0,0:0:0:0:
32,336,253155,1,0,0:0:0:0:
180,364,253302,1,0,0:0:0:0:
228,340,253375,1,0,0:0:0:0:
276,312,253449,1,0,0:0:0:0:
328,324,253522,1,0,0:0:0:0:
376,344,253595,2,0,P|464:328|496:268,1,135.000000514984
476,152,253888,5,0,0:0:0:0:
464,100,253962,1,0,0:0:0:0:
424,64,254035,1,0,0:0:0:0:
372,68,254108,1,0,0:0:0:0:
336,108,254182,1,0,0:0:0:0:
336,160,254255,1,0,0:0:0:0:
372,200,254328,1,0,0:0:0:0:
384,252,254402,1,0,0:0:0:0:
368,304,254475,1,0,0:0:0:0:
328,340,254548,1,0,0:0:0:0:
272,348,254622,1,0,0:0:0:0:
228,320,254695,1,0,0:0:0:0:
212,268,254768,1,0,0:0:0:0:
228,216,254841,1,0,0:0:0:0:
216,164,254915,1,0,0:0:0:0:
176,128,254988,1,0,0:0:0:0:
124,116,255061,5,0,0:0:0:0:
72,136,255135,1,0,0:0:0:0:
40,180,255208,1,0,0:0:0:0:
32,232,255281,1,0,0:0:0:0:
52,284,255355,1,0,0:0:0:0:
96,316,255428,1,0,0:0:0:0:
148,328,255501,1,0,0:0:0:0:
200,308,255575,1,0,0:0:0:0:
228,260,255648,5,0,0:0:0:0:
232,208,255721,1,0,0:0:0:0:
208,160,255795,1,0,0:0:0:0:
204,108,255868,1,0,0:0:0:0:
232,60,255941,1,0,0:0:0:0:
280,32,256015,1,0,0:0:0:0:
332,36,256088,1,0,0:0:0:0:
376,68,256161,1,0,0:0:0:0:
396,116,256234,1,0,0:0:0:0:
388,168,256308,1,0,0:0:0:0:
348,204,256381,1,0,0:0:0:0:
324,252,256454,1,0,0:0:0:0:
328,308,256528,1,0,0:0:0:0:
360,352,256601,1,0,0:0:0:0:
412,368,256674,1,0,0:0:0:0:
464,352,256748,1,0,0:0:0:0:
492,308,256821,5,0,0:0:0:0:
492,256,256894,1,0,0:0:0:0:
460,212,256968,1,0,0:0:0:0:
408,200,257041,1,0,0:0:0:0:
356,216,257114,1,0,0:0:0:0:
332,264,257188,1,0,0:0:0:0:
288,296,257261,1,0,0:0:0:0:
236,292,257334,1,0,0:0:0:0:
196,256,257407,1,0,0:0:0:0:
188,204,257481,1,0,0:0:0:0:
220,160,257554,1,0,0:0:0:0:
228,108,257627,1,0,0:0:0:0:
204,60,257701,1,0,0:0:0:0:
156,40,257774,1,0,0:0:0:0:
104,60,257847,1,0,0:0:0:0:
76,108,257921,1,0,0:0:0:0:
92,160,257994,6,0,B|108:228|108:228|80:300,1,135.000000514984
136,360,258214,2,0,B|204:328|204:328|276:344,1,135.000000514984
376,356,258434,2,0,P|448:320|464:256,1,135.000000514984
464,184,258654,2,0,P|436:100|376:60,1,135.000000514984
312,36,258874,1,0,0:0:0:0:
216,336,259020,1,0,0:0:0:0:
412,228,259167,6,0,B|344:252|344:252|264:212,1,135.000000514984
168,160,259387,2,0,B|100:144|100:144|24:188,1,135.000000514984
64,280,259607,1,0,0:0:0:0:
64,280,259680,1,0,0:0:0:0:
64,280,259754,2,0,B|136:292|136:292|196:252,1,135.000000514984
304,168,259973,2,0,B|368:144|368:144|464:160,1,135.000000514984
460,300,260193,1,0,0:0:0:0:
216,360,260340,5,0,0:0:0:0:
164,344,260413,1,0,0:0:0:0:
136,296,260487,1,0,0:0:0:0:
152,244,260560,1,0,0:0:0:0:
200,216,260633,2,0,P|264:140|264:80,1,135.000000514984
128,16,260927,2,0,P|80:68|64:140,1,135.000000514984
76,232,261146,2,0,P|152:208|232:224,1,135.000000514984
304,256,261366,1,0,0:0:0:0:
348,284,261440,1,0,0:0:0:0:
372,332,261513,6,0,B|392:268|392:268|376:192,1,135.000000514984
264,24,261806,2,0,B|240:88|240:88|268:172,1,135.000000514984
464,360,262100,2,0,B|480:288|480:288|452:208,1,135.000000514984
128,128,262393,2,0,B|112:196|112:196|140:288,1,135.000000514984
456,132,262686,5,0,0:0:0:0:
404,120,262759,1,0,0:0:0:0:
352,108,262833,1,0,0:0:0:0:
308,140,262906,1,0,0:0:0:0:
264,172,262979,2,0,B|196:180|196:180|124:132,1,135.000000514984
48,56,263273,1,0,0:0:0:0:
20,104,263346,1,0,0:0:0:0:
32,156,263419,1,0,0:0:0:0:
80,184,263493,1,0,0:0:0:0:
132,176,263566,1,0,0:0:0:0:
164,132,263639,1,0,0:0:0:0:
212,108,263712,1,0,0:0:0:0:
268,112,263786,1,0,0:0:0:0:
312,144,263859,5,0,0:0:0:0:
324,196,263932,1,0,0:0:0:0:
296,244,264006,1,0,0:0:0:0:
244,248,264079,1,0,0:0:0:0:
212,292,264152,1,0,0:0:0:0:
228,344,264226,1,0,0:0:0:0:
280,364,264299,1,0,0:0:0:0:
328,340,264372,1,0,0:0:0:0:
380,320,264446,6,0,B|424:288|424:288|440:244|464:196,1,135.000000514984
424,128,264666,2,0,B|388:96|368:60|368:60|296:48,1,135.000000514984
180,56,264885,1,0,0:0:0:0:
136,88,264959,1,0,0:0:0:0:
120,140,265032,2,0,B|104:180|100:208|100:208|80:180|52:136,1,135.000000514984
40,132,265252,2,0,P|112:108|172:116,1,135.000000514984
248,152,265472,1,0,0:0:0:0:
300,164,265545,1,0,0:0:0:0:
352,156,265619,2,0,B|408:108|408:108|412:32,1,135.000000514984
326,36,265839,2,0,P|314:96|358:160,1,135.000000514984
392,188,266058,1,0,0:0:0:0:
400,244,266132,1,0,0:0:0:0:
372,288,266205,6,0,L|232:276,1,135.000000514984
256,360,266425,2,0,L|112:340,1,135.000000514984
72,316,266645,1,0,0:0:0:0:
64,264,266718,1,0,0:0:0:0:
92,216,266792,1,0,0:0:0:0:
144,200,266865,1,0,0:0:0:0:
188,232,266938,1,0,0:0:0:0:
204,284,267012,1,0,0:0:0:0:
252,304,267085,1,0,0:0:0:0:
304,296,267158,1,0,0:0:0:0:
340,256,267232,1,0,0:0:0:0:
340,204,267305,1,0,0:0:0:0:
300,164,267378,6,0,B|280:88|280:88|328:8,1,150.000005722046
376,12,267598,1,0,0:0:0:0:
436,20,267671,1,0,0:0:0:0:
468,72,267745,1,0,0:0:0:0:
452,128,267818,1,0,0:0:0:0:
400,156,267891,1,0,0:0:0:0:
340,144,267965,1,0,0:0:0:0:
316,88,268038,1,0,0:0:0:0:
288,36,268111,1,0,0:0:0:0:
228,32,268185,1,0,0:0:0:0:
180,68,268258,1,0,0:0:0:0:
176,128,268331,1,0,0:0:0:0:
220,168,268405,1,0,0:0:0:0:
240,220,268478,1,0,0:0:0:0:
220,276,268551,5,0,0:0:0:0:
168,248,268624,1,0,0:0:0:0:
108,244,268698,1,0,0:0:0:0:
64,284,268771,1,0,0:0:0:0:
60,344,268844,1,0,0:0:0:0:
108,380,268918,1,0,0:0:0:0:
168,368,268991,1,0,0:0:0:0:
200,320,269064,1,0,0:0:0:0:
192,260,269138,1,0,0:0:0:0:
156,212,269211,1,0,0:0:0:0:
164,152,269284,1,0,0:0:0:0:
212,112,269358,1,0,0:0:0:0:
272,116,269431,1,0,0:0:0:0:
320,152,269504,1,0,0:0:0:0:
328,212,269578,1,0,0:0:0:0:
304,268,269651,1,0,0:0:0:0:
248,292,269724,5,0,0:0:0:0:
228,236,269797,1,0,0:0:0:0:
176,208,269871,1,0,0:0:0:0:
116,216,269944,1,0,0:0:0:0:
76,260,270017,1,0,0:0:0:0:
72,320,270091,1,0,0:0:0:0:
116,360,270164,1,0,0:0:0:0:
168,368,270237,1,0,0:0:0:0:
224,340,270311,1,0,0:0:0:0:
232,280,270384,1,0,0:0:0:0:
216,224,270457,1,0,0:0:0:0:
180,176,270531,1,0,0:0:0:0:
140,128,270604,1,0,0:0:0:0:
144,68,270677,1,0,0:0:0:0:
188,28,270751,1,0,0:0:0:0:
248,20,270824,5,0,0:0:0:0:
260,80,270897,1,0,0:0:0:0:
224,128,270971,1,0,0:0:0:0:
164,152,271044,1,0,0:0:0:0:
104,140,271117,1,0,0:0:0:0:
48,156,271190,1,0,0:0:0:0:
20,208,271264,1,0,0:0:0:0:
24,268,271337,1,0,0:0:0:0:
56,320,271410,1,0,0:0:0:0:
116,336,271484,1,0,0:0:0:0:
172,316,271557,1,0,0:0:0:0:
204,264,271630,1,0,0:0:0:0:
176,208,271704,1,0,0:0:0:0:
204,156,271777,1,0,0:0:0:0:
260,136,271850,1,0,0:0:0:0:
316,160,271924,1,0,0:0:0:0:
336,216,271997,1,0,0:0:0:0:
332,276,272070,5,0,0:0:0:0:
380,312,272144,1,0,0:0:0:0:
440,308,272217,1,0,0:0:0:0:
488,272,272290,1,0,0:0:0:0:
492,212,272363,2,0,B|496:136|496:136|444:80,1,150.000005722046
280,40,272657,5,0,0:0:0:0:
228,72,272730,1,0,0:0:0:0:
180,108,272803,1,0,0:0:0:0:
188,168,272877,1,0,0:0:0:0:
192,228,272950,2,0,B|192:264|192:264|208:312,3,75.0000028610231
296,340,273243,2,0,B|336:344|336:344|376:320,3,75.0000028610231
428,236,273536,2,0,B|432:188|432:188|420:132,3,75.0000028610231
336,80,273830,5,0,0:0:0:0:
280,64,273903,1,0,0:0:0:0:
228,92,273976,1,0,0:0:0:0:
216,152,274050,1,0,0:0:0:0:
248,200,274123,1,0,0:0:0:0:
296,236,274196,1,0,0:0:0:0:
304,296,274270,1,0,0:0:0:0:
272,344,274343,1,0,0:0:0:0:
216,364,274416,6,0,B|136:344|136:344|56:344,1,150.000005722046
52,160,274636,2,0,P|124:108|232:112,1,150.000005722046
356,112,274856,2,0,P|432:132|496:200,1,150.000005722046
416,340,275149,1,0,0:0:0:0:
364,312,275223,1,0,0:0:0:0:
304,300,275296,1,0,0:0:0:0:
256,336,275369,1,0,0:0:0:0:
196,352,275443,1,0,0:0:0:0:
136,344,275516,1,0,0:0:0:0:
92,304,275589,5,0,0:0:0:0:
76,244,275663,1,0,0:0:0:0:
100,192,275736,1,0,0:0:0:0:
152,164,275809,1,0,0:0:0:0:
212,168,275883,1,0,0:0:0:0:
244,220,275956,1,0,0:0:0:0:
248,280,276029,1,0,0:0:0:0:
288,324,276102,1,0,0:0:0:0:
348,328,276176,1,0,0:0:0:0:
396,292,276249,1,0,0:0:0:0:
412,236,276322,1,0,0:0:0:0:
384,184,276396,1,0,0:0:0:0:
328,164,276469,1,0,0:0:0:0:
308,108,276542,1,0,0:0:0:0:
332,52,276616,1,0,0:0:0:0:
392,44,276689,1,0,0:0:0:0:
432,88,276762,6,0,P|352:88|280:152,1,150.000005722046
224,180,276982,2,0,P|144:208|60:160,1,150.000005722046
44,88,277202,2,0,B|32:168|32:168|60:268,1,150.000005722046
184,348,277422,2,0,B|200:272|200:272|176:196,1,150.000005722046
144,96,277642,1,0,0:0:0:0:
332,52,277789,1,0,0:0:0:0:
472,216,277935,6,0,P|476:300|432:364,1,150.000005722046
360,344,278155,2,0,B|280:328|280:328|212:364,1,150.000005722046
116,344,278375,1,0,0:0:0:0:
116,344,278449,1,0,0:0:0:0:
116,344,278522,2,0,L|92:196,1,150.000005722046
200,220,278742,2,0,L|236:388,1,150.000005722046
316,264,278962,5,0,0:0:0:0:
376,252,279035,1,0,0:0:0:0:
428,284,279108,1,0,0:0:0:0:
408,228,279182,1,0,0:0:0:0:
412,168,279255,1,0,0:0:0:0:
436,112,279328,1,0,0:0:0:0:
484,76,279402,2,0,L|300:88,1,150.000005722046
224,96,279695,5,0,0:0:0:0:
196,148,279768,1,0,0:0:0:0:
140,164,279841,1,0,0:0:0:0:
80,152,279915,1,0,0:0:0:0:
52,100,279988,1,0,0:0:0:0:
60,40,280061,1,0,0:0:0:0:
116,20,280135,1,0,0:0:0:0:
164,56,280208,1,0,0:0:0:0:
164,116,280281,5,0,0:0:0:0:
140,164,280355,1,0,0:0:0:0:
152,224,280428,1,0,0:0:0:0:
200,260,280501,1,0,0:0:0:0:
260,256,280575,1,0,0:0:0:0:
300,212,280648,1,0,0:0:0:0:
356,196,280721,1,0,0:0:0:0:
412,216,280795,1,0,0:0:0:0:
436,272,280868,5,0,0:0:0:0:
448,212,280941,1,0,0:0:0:0:
408,168,281015,1,0,0:0:0:0:
348,164,281088,1,0,0:0:0:0:
312,212,281161,1,0,0:0:0:0:
324,272,281234,1,0,0:0:0:0:
304,328,281308,1,0,0:0:0:0:
248,352,281381,1,0,0:0:0:0:
192,336,281454,5,0,0:0:0:0:
212,280,281528,1,0,0:0:0:0:
260,256,281601,1,0,0:0:0:0:
320,256,281674,1,0,0:0:0:0:
376,280,281748,1,0,0:0:0:0:
436,272,281821,1,0,0:0:0:0:
472,224,281894,1,0,0:0:0:0:
480,164,281968,1,0,0:0:0:0:
460,108,282041,2,0,B|444:72|444:72|444:32,2,75.0000028610231
356,100,282261,2,0,B|364:144|364:144|352:192,2,75.0000028610231
268,144,282481,1,0,0:0:0:0:
208,136,282554,1,0,0:0:0:0:
164,176,282627,5,0,0:0:0:0:
156,236,282701,1,0,0:0:0:0:
188,284,282774,1,0,0:0:0:0:
244,300,282847,1,0,0:0:0:0:
300,280,282921,1,0,0:0:0:0:
328,228,282994,1,0,0:0:0:0:
388,220,283067,1,0,0:0:0:0:
440,248,283141,1,0,0:0:0:0:
456,304,283214,2,0,B|464:340|464:340|456:380,2,75.0000028610231
352,320,283434,2,0,B|340:280|340:280|348:236,2,75.0000028610231
260,256,283654,1,0,0:0:0:0:
200,248,283727,1,0,0:0:0:0:
144,272,283800,5,0,0:0:0:0:
96,232,283874,1,0,0:0:0:0:
84,172,283947,1,0,0:0:0:0:
120,124,284020,1,0,0:0:0:0:
180,112,284094,1,0,0:0:0:0:
228,148,284167,1,0,0:0:0:0:
244,208,284240,1,0,0:0:0:0:
228,264,284314,1,0,0:0:0:0:
252,320,284387,1,0,0:0:0:0:
308,340,284460,1,0,0:0:0:0:
368,328,284534,1,0,0:0:0:0:
400,276,284607,1,0,0:0:0:0:
396,216,284680,1,0,0:0:0:0:
352,176,284754,1,0,0:0:0:0:
336,120,284827,1,0,0:0:0:0:
372,72,284900,1,0,0:0:0:0:
432,64,284973,6,0,B|456:136|456:136|436:212,1,150.000005722046
356,284,285193,2,0,B|288:320|288:320|212:300,1,150.000005722046
120,272,285413,1,0,0:0:0:0:
32,160,285560,2,0,P|104:120|216:144,1,150.000005722046
260,168,285780,2,0,P|336:176|404:128,1,150.000005722046
448,64,286000,1,0,0:0:0:0:
256,60,286146,5,0,0:0:0:0:
256,60,287906,2,0,B|256:108|256:108|240:148|240:148|208:132|160:152|160:152|216:128|208:68|192:32,1,300.000011444092
176,48,289666,1,0,0:0:0:0:
152,52,290839,1,0,0:0:0:0:
132,56,293185,1,0,0:0:0:0:
256,192,293258,12,0,295531,0:0:0:0:
