osu file format v13

[General]
AudioFilename: Yooh - salvation.mp3
AudioLeadIn: 0
PreviewTime: 204932
Countdown: 0
SampleSet: Soft
StackLeniency: 0.3
Mode: 0
LetterboxInBreaks: 0
WidescreenStoryboard: 0

[Editor]
DistanceSpacing: 1
BeatDivisor: 4
GridSize: 4
TimelineZoom: 1

[Metadata]
Title:salvation
TitleUnicode:salvation
Artist:Yooh
ArtistUnicode:Yooh
Creator:ktgster
Version:Redemption
Source:
Tags:Voltage Ignition 2
BeatmapID:427090
BeatmapSetID:177444

[Difficulty]
HPDrainRate:6
CircleSize:5
OverallDifficulty:8.5
ApproachRate:9
SliderMultiplier:1.7
SliderTickRate:1

[Events]
//Background and Video events
0,0,"Background.jpg",0,0
//Break Periods
2,183876,190577
//Storyboard Layer 0 (Background)
//Storyboard Layer 1 (Fail)
//Storyboard Layer 2 (Pass)
//Storyboard Layer 3 (Foreground)
//Storyboard Sound Samples
//Background Colour Transformations
3,100,163,162,255

[TimingPoints]
1177,312.5,4,2,0,5,1,0
2427,-125,4,2,1,60,0,0
22427,-111.111111111111,4,2,1,70,0,0
29927,-111.111111111111,4,2,0,40,0,0
30552,-111.111111111111,4,2,0,60,0,0
31177,-111.111111111111,4,2,0,80,0,0
32427,-100,4,2,0,70,0,0
69927,-100,4,1,0,40,0,0
70552,-100,4,1,0,60,0,0
71177,-100,4,2,0,90,0,0
72427,312.5,3,1,0,80,1,0
78989,-100,3,1,0,70,0,0
79927,-100,3,1,0,80,0,0
87427,312.5,5,2,0,60,1,0
87505,-100,5,2,0,5,0,0
89614,-200,5,2,1,20,0,0
90161,-200,5,2,1,25,0,0
90708,-200,5,2,1,30,0,0
91411,-166.666666666667,5,2,1,35,0,0
92036,-142.857142857143,5,2,1,40,0,0
92661,-125,5,2,1,45,0,0
93286,-125,5,2,1,5,0,0
93677,312.5,3,2,1,40,1,0
93677,-200,3,2,1,40,0,0
108520,-200,3,2,0,55,0,0
108677,-133.333333333333,3,2,0,70,0,0
123677,-100,3,2,1,70,0,0
136723,-100,3,2,0,40,0,0
137505,-100,3,2,0,60,0,0
137739,-100,3,2,0,80,0,0
138677,-90.9090909090909,3,2,0,90,0,1
166723,-90.9090909090909,3,1,0,50,0,1
167505,-90.9090909090909,3,1,0,70,0,1
167739,-90.9090909090909,3,1,0,90,0,1
168677,-100,3,2,0,80,0,0
168755,-100,3,2,0,70,0,0
194848,-100,3,2,0,50,0,0
195864,-100,3,2,0,60,0,0
196802,-100,3,2,0,70,0,0
198677,312.5,4,2,0,50,1,0
198755,-100,4,2,0,5,0,0
203052,-133.333333333333,4,2,1,20,0,0
204302,-133.333333333333,4,2,0,40,0,0
204927,-83.3333333333333,4,2,0,80,0,1
224848,-83.3333333333333,4,2,0,80,0,0
224927,-83.3333333333333,4,2,0,80,0,1
243677,-66.6666666666667,4,2,0,80,0,1
244848,-66.6666666666667,4,2,0,80,0,0
244927,-83.3333333333333,4,2,0,80,0,1
263677,-66.6666666666667,4,2,0,80,0,1
264848,-66.6666666666667,4,2,0,80,0,0
264927,-83.3333333333333,4,2,0,80,0,1
284848,-83.3333333333333,4,2,0,80,0,0
284927,-83.3333333333333,4,2,0,80,0,1
302348,-83.3333333333333,4,2,0,60,0,1
303052,-83.3333333333333,4,2,0,80,0,1
303677,-83.3333333333333,4,2,0,90,0,1
304927,-200,4,2,0,100,0,0
305005,-200,4,2,1,20,0,0
306802,-200,4,2,1,60,0,0
307505,-200,4,2,1,20,0,0
308364,-200,4,2,1,60,0,0
308755,-200,4,2,1,20,0,0
309927,-200,4,2,1,60,0,0
310005,-200,4,2,1,20,0,0
312427,-200,4,2,1,60,0,0
312505,-200,4,2,1,20,0,0
314927,-200,4,2,1,60,0,1
315005,-200,4,2,1,60,0,0

[Colours]
Combo1 : 255,192,0
Combo2 : 128,128,255
Combo3 : 0,71,157
Combo4 : 255,156,108

[HitObjects]
256,192,864,12,0,2036,0:0:0:0:
60,318,2427,5,2,0:0:0:0:
193,291,2739,1,0,0:0:0:0:
102,189,3052,1,0,0:0:0:0:
132,128,3208,1,0,0:0:0:0:
194,101,3364,1,0,0:0:0:0:
261,110,3520,1,0,0:0:0:0:
311,155,3677,6,0,P|332:215|308:291,2,136,0|0|0,0:0|0:0|0:0,0:0:0:0:
193,223,4614,1,0,0:0:0:0:
66,173,4927,6,0,L|47:25,1,136,0|0,0:0|0:0,0:0:0:0:
172,95,5552,1,0,0:0:0:0:
234,122,5708,1,0,0:0:0:0:
301,120,5864,1,0,0:0:0:0:
361,88,6020,1,0,0:0:0:0:
394,28,6177,5,0,0:0:0:0:
444,154,6489,1,0,0:0:0:0:
328,225,6802,2,0,P|288:222|214:292,1,136,0|0,0:0|0:0,0:0:0:0:
199,345,7270,1,2,0:0:0:0:
199,345,7348,1,0,0:0:0:0:
199,345,7427,5,2,0:0:0:0:
69,302,7739,1,0,0:0:0:0:
171,212,8052,1,0,0:0:0:0:
213,159,8208,1,0,0:0:0:0:
219,91,8364,1,0,0:0:0:0:
181,34,8520,1,0,0:0:0:0:
114,17,8677,6,0,P|50:30|16:101,2,136,0|0|0,0:0|0:0|0:0,0:0:0:0:
248,29,9614,1,0,0:0:0:0:
331,136,9927,6,0,L|179:152,1,136,2|0,0:0|0:0,0:0:0:0:
149,200,10395,1,2,0:0:0:0:
183,258,10552,1,0,0:0:0:0:
249,244,10708,1,0,0:0:0:0:
315,258,10864,1,2,0:0:0:0:
361,307,11020,1,0,0:0:0:0:
390,368,11177,5,0,0:0:0:0:
419,235,11489,1,0,0:0:0:0:
285,206,11802,1,2,0:0:0:0:
257,339,12114,1,0,0:0:0:0:
121,355,12427,6,0,P|87:296|93:229,1,136,2|0,0:0|0:0,0:0:0:0:
144,185,12895,1,0,0:0:0:0:
207,210,13052,2,0,P|210:171|195:140,1,68,0|0,0:0|0:0,0:0:0:0:
136,117,13364,1,0,0:0:0:0:
136,117,13520,1,0,0:0:0:0:
153,50,13677,5,0,0:0:0:0:
218,33,13833,1,0,0:0:0:0:
276,67,13989,2,0,P|345:80|419:49,2,136,0|0|0,0:0|0:0|0:0,0:0:0:0:
183,167,14927,6,0,L|200:309,1,136,2|0,0:0|0:0,0:0:0:0:
248,348,15395,1,0,0:0:0:0:
315,359,15552,1,0,0:0:0:0:
290,295,15708,1,0,0:0:0:0:
309,229,15864,1,0,0:0:0:0:
371,201,16020,1,0,0:0:0:0:
437,215,16177,5,0,0:0:0:0:
450,148,16333,1,0,0:0:0:0:
425,84,16489,2,0,P|390:65|292:91,2,136,0|0|0,0:0|0:0|0:0,0:0:0:0:
502,195,17427,5,2,0:0:0:0:
475,328,17739,1,0,0:0:0:0:
417,291,17895,1,0,0:0:0:0:
359,254,18052,1,0,0:0:0:0:
293,270,18208,1,0,0:0:0:0:
229,247,18364,1,0,0:0:0:0:
191,190,18520,1,0,0:0:0:0:
200,122,18677,6,0,L|214:47,1,68,0|0,0:0|0:0,0:0:0:0:
152,24,18989,2,0,L|122:180,2,136,0|0|0,0:0|0:0|0:0,0:0:0:0:
265,100,19927,5,2,0:0:0:0:
393,142,20239,2,0,P|423:190|404:267,1,136,0|0,0:0|0:0,0:0:0:0:
355,309,20708,1,0,0:0:0:0:
291,285,20864,1,0,0:0:0:0:
232,318,21020,1,0,0:0:0:0:
168,292,21177,6,0,L|165:209,1,68,0|0,0:0|0:0,0:0:0:0:
220,183,21489,2,0,P|142:191|94:129,1,136,0|0,0:0|0:0,0:0:0:0:
87,88,21958,1,0,0:0:0:0:
110,24,22114,1,0,0:0:0:0:
248,20,22427,5,2,1:2:0:0:
393,66,22739,1,0,1:0:0:0:
279,169,23052,2,0,P|272:209|280:261,1,76.4999976654053,0|0,1:0|0:0,0:0:0:0:
332,295,23364,1,0,1:0:0:0:
332,295,23520,1,0,0:0:0:0:
272,343,23677,6,0,L|192:354,1,76.4999976654053,0|0,1:0|0:0,0:0:0:0:
120,361,23989,1,0,1:0:0:0:
162,213,24302,1,0,1:0:0:0:
66,93,24614,1,0,1:0:0:0:
66,93,24770,1,0,0:0:0:0:
114,33,24927,5,2,1:2:0:0:
246,108,25239,1,0,1:0:0:0:
383,41,25552,2,0,L|408:133,1,76.4999976654053,0|0,1:0|0:0,0:0:0:0:
384,188,25864,1,0,1:0:0:0:
442,236,26020,1,0,0:0:0:0:
413,306,26177,6,0,L|354:258,1,76.4999976654053,0|0,1:0|0:0,0:0:0:0:
295,306,26489,2,0,P|260:327|154:292,2,152.999995330811,0|0|0,1:0|1:0|1:0,0:0:0:0:
354,258,27270,1,0,1:0:0:0:
384,188,27427,5,4,1:0:0:0:
384,188,27583,1,0,1:0:0:0:
311,164,27739,1,0,1:0:0:0:
311,164,27895,1,0,1:0:0:0:
239,192,28052,1,0,1:0:0:0:
239,192,28208,1,0,1:0:0:0:
166,168,28364,1,0,1:0:0:0:
166,168,28520,1,0,1:0:0:0:
103,264,28677,5,4,1:0:0:0:
103,264,28833,1,0,1:0:0:0:
206,298,28989,1,0,1:0:0:0:
206,298,29145,1,0,1:0:0:0:
308,258,29302,1,0,1:0:0:0:
308,258,29458,1,0,1:0:0:0:
412,292,29614,1,0,1:0:0:0:
412,292,29770,1,0,1:0:0:0:
429,164,29927,5,0,1:0:0:0:
415,136,30005,1,0,1:0:0:0:
392,115,30083,1,0,1:0:0:0:
362,107,30161,1,0,1:0:0:0:
331,107,30239,1,0,1:0:0:0:
302,118,30317,1,0,1:0:0:0:
277,136,30395,1,0,1:0:0:0:
264,164,30473,1,0,1:0:0:0:
254,193,30552,1,0,1:0:0:0:
249,223,30631,1,0,1:0:0:0:
236,251,30709,1,0,1:0:0:0:
211,269,30787,1,0,1:0:0:0:
182,280,30865,1,0,1:0:0:0:
151,280,30943,1,0,1:0:0:0:
121,272,31021,1,0,1:0:0:0:
98,251,31099,1,0,1:0:0:0:
84,223,31177,5,0,1:0:0:0:
125,159,31333,1,0,1:0:0:0:
88,92,31489,1,0,1:0:0:0:
88,92,31802,2,0,P|128:67|244:95,1,152.999995330811,0|0,1:0|0:0,0:0:0:0:
267,146,32270,1,0,0:0:0:0:
243,219,32427,6,0,P|228:267|334:309,1,170,4|0,1:0|1:0,0:0:0:0:
384,271,32895,1,0,0:0:0:0:
459,311,33052,2,0,P|468:266|454:224,1,85,2|0,3:2|0:0,0:0:0:0:
383,186,33364,1,0,1:0:0:0:
350,107,33520,1,0,0:0:0:0:
384,28,33677,5,2,3:2:0:0:
299,38,33833,1,0,0:0:0:0:
216,19,33989,2,0,P|217:64|239:97,1,85,0|0,1:0|0:0,0:0:0:0:
157,165,34302,2,0,P|156:120|134:87,1,85,2|0,3:2|0:0,0:0:0:0:
76,149,34614,1,0,1:0:0:0:
55,231,34770,1,0,0:0:0:0:
43,315,34927,6,0,P|123:341|212:303,1,170,2|0,3:2|1:0,0:0:0:0:
258,250,35395,1,0,0:0:0:0:
337,218,35552,2,0,L|434:229,2,85,2|0|0,3:2|0:0|1:0,0:0:0:0:
293,144,36020,1,0,0:0:0:0:
367,102,36177,6,0,P|334:69|222:97,1,170,2|0,3:2|1:0,0:0:0:0:
214,177,36645,1,0,0:0:0:0:
258,250,36802,2,0,P|263:288|251:342,1,85,2|0,3:2|0:0,0:0:0:0:
176,365,37114,1,0,1:0:0:0:
135,290,37270,1,0,0:0:0:0:
49,296,37427,6,0,L|70:114,1,170,2|0,3:2|1:0,0:0:0:0:
146,94,37895,1,0,0:0:0:0:
226,65,38052,2,0,L|206:233,1,170,2|0,3:2|1:0,0:0:0:0:
257,301,38520,1,0,0:0:0:0:
331,342,38677,6,0,P|341:291|327:255,1,85,2|0,3:2|0:0,0:0:0:0:
258,216,38989,1,0,1:0:0:0:
183,257,39145,1,0,0:0:0:0:
107,216,39302,2,0,P|97:165|111:129,1,85,2|0,3:2|0:0,0:0:0:0:
180,90,39614,1,0,1:0:0:0:
255,131,39770,1,0,0:0:0:0:
258,216,39927,6,0,P|326:177|329:91,1,170,2|0,3:2|1:0,0:0:0:0:
255,50,40395,1,0,0:0:0:0:
180,90,40552,2,0,L|166:180,1,85,2|0,3:2|0:0,0:0:0:0:
89,209,40864,1,0,1:0:0:0:
89,209,41020,1,0,0:0:0:0:
124,286,41177,6,0,P|212:285|288:337,1,170,2|0,3:2|1:0,0:0:0:0:
362,344,41645,1,0,0:0:0:0:
432,295,41802,2,0,L|443:206,1,85,2|0,3:2|0:0,0:0:0:0:
378,154,42114,1,2,1:2:0:0:
430,87,42270,1,0,1:0:0:0:
367,29,42427,6,0,P|330:47|277:49,1,85,4|0,1:0|0:0,0:0:0:0:
204,28,42739,1,0,1:0:0:0:
134,76,42895,1,0,0:0:0:0:
118,159,43052,2,0,P|155:177|208:179,1,85,2|0,3:2|0:0,0:0:0:0:
281,158,43364,1,0,1:0:0:0:
351,206,43520,1,0,0:0:0:0:
372,288,43677,5,2,3:2:0:0:
290,265,43833,1,0,0:0:0:0:
209,291,43989,1,0,1:0:0:0:
155,357,44145,1,0,0:0:0:0:
155,357,44223,1,0,0:0:0:0:
155,357,44302,2,0,L|57:340,1,85,2|0,3:2|0:0,0:0:0:0:
41,263,44614,2,0,L|124:277,1,85,0|0,1:0|0:0,0:0:0:0:
179,212,44927,5,2,3:2:0:0:
179,212,45083,1,0,0:0:0:0:
117,153,45239,2,0,P|106:113|125:49,1,85,0|0,1:0|0:0,0:0:0:0:
191,36,45552,1,2,3:2:0:0:
257,88,45708,1,0,0:0:0:0:
332,50,45864,2,0,P|342:88|315:147,1,85,0|0,1:0|0:0,0:0:0:0:
286,204,46177,5,2,3:2:0:0:
336,273,46333,1,0,0:0:0:0:
288,343,46489,2,0,P|332:358|377:346,1,85,0|0,1:0|0:0,0:0:0:0:
420,283,46802,1,2,3:2:0:0:
336,273,46958,1,0,0:0:0:0:
251,275,47114,1,0,1:0:0:0:
167,259,47270,1,0,0:0:0:0:
92,300,47427,5,2,3:2:0:0:
92,300,47505,1,0,0:0:0:0:
92,300,47583,1,0,0:0:0:0:
54,223,47739,1,0,1:0:0:0:
129,183,47895,1,0,0:0:0:0:
147,159,47974,1,0,0:0:0:0:
157,131,48053,1,2,3:2:0:0:
155,101,48131,1,0,0:0:0:0:
148,72,48209,1,0,0:0:0:0:
135,46,48287,1,0,0:0:0:0:
110,29,48365,1,0,1:0:0:0:
134,11,48443,1,0,0:0:0:0:
163,4,48521,1,0,0:0:0:0:
192,3,48599,1,0,0:0:0:0:
219,16,48678,5,2,3:2:0:0:
265,85,48833,1,0,0:0:0:0:
349,98,48989,1,0,1:0:0:0:
428,67,49145,1,0,0:0:0:0:
484,131,49302,2,0,L|471:227,1,85,2|0,3:2|0:0,0:0:0:0:
390,233,49614,1,0,1:0:0:0:
390,233,49770,1,0,0:0:0:0:
439,304,49927,5,2,3:2:0:0:
439,304,50005,1,0,0:0:0:0:
439,304,50083,1,0,0:0:0:0:
354,312,50239,2,0,L|267:303,1,85,0|0,1:0|0:0,0:0:0:0:
306,225,50552,2,0,L|390:233,1,85,2|0,3:2|0:0,0:0:0:0:
447,169,50864,1,0,1:0:0:0:
392,104,51020,1,0,0:0:0:0:
307,116,51177,6,0,P|221:103|168:32,1,170,2|0,3:2|1:0,0:0:0:0:
88,19,51645,1,0,0:0:0:0:
45,93,51802,2,0,P|108:146|119:229,1,170,2|0,3:2|1:0,0:0:0:0:
74,301,52270,1,0,1:0:0:0:
74,301,52348,1,0,1:0:0:0:
74,301,52427,5,4,1:0:0:0:
147,343,52583,1,0,0:0:0:0:
223,305,52739,1,0,1:0:0:0:
298,342,52895,1,0,0:0:0:0:
367,292,53052,1,2,3:2:0:0:
319,221,53208,1,0,0:0:0:0:
319,221,53286,1,0,0:0:0:0:
319,221,53364,1,0,1:0:0:0:
385,168,53520,1,0,0:0:0:0:
407,85,53677,5,2,3:2:0:0:
325,108,53833,1,0,0:0:0:0:
250,68,53989,1,0,1:0:0:0:
221,60,54067,1,0,0:0:0:0:
191,60,54145,1,0,0:0:0:0:
162,68,54223,1,0,0:0:0:0:
136,84,54302,1,2,3:2:0:0:
83,150,54458,1,0,0:0:0:0:
83,150,54536,1,0,0:0:0:0:
83,150,54614,1,0,1:0:0:0:
133,218,54770,1,0,0:0:0:0:
82,286,54927,6,0,L|183:302,1,85,2|0,3:2|0:0,0:0:0:0:
250,305,55239,1,0,1:0:0:0:
279,299,55317,1,0,0:0:0:0:
308,294,55395,1,0,0:0:0:0:
337,289,55473,1,0,0:0:0:0:
366,284,55552,1,2,3:2:0:0:
422,221,55708,1,0,0:0:0:0:
338,203,55864,1,0,1:0:0:0:
309,197,55942,1,0,0:0:0:0:
280,192,56020,1,0,0:0:0:0:
251,187,56098,1,0,0:0:0:0:
222,182,56177,5,2,3:2:0:0:
178,108,56333,1,0,0:0:0:0:
178,108,56411,1,0,0:0:0:0:
178,108,56489,1,0,1:0:0:0:
230,41,56645,1,0,0:0:0:0:
250,62,56723,1,0,0:0:0:0:
277,74,56802,1,2,3:2:0:0:
306,78,56880,1,0,0:0:0:0:
335,79,56958,1,0,0:0:0:0:
364,76,57036,1,0,0:0:0:0:
391,64,57114,1,0,1:0:0:0:
461,111,57270,1,0,0:0:0:0:
414,182,57427,6,0,L|440:283,1,85,2|0,3:2|0:0,0:0:0:0:
355,294,57739,1,0,1:0:0:0:
349,265,57817,1,0,0:0:0:0:
343,237,57895,1,0,0:0:0:0:
269,195,58052,1,2,3:2:0:0:
242,183,58130,1,0,0:0:0:0:
213,180,58208,1,0,0:0:0:0:
183,185,58286,1,0,0:0:0:0:
157,200,58364,1,0,1:0:0:0:
98,261,58520,1,0,0:0:0:0:
141,334,58677,6,0,L|237:338,1,85,2|0,3:2|0:0,0:0:0:0:
310,342,58989,1,0,1:0:0:0:
338,334,59067,1,0,0:0:0:0:
361,315,59145,1,0,0:0:0:0:
373,287,59223,1,0,0:0:0:0:
372,256,59302,1,2,3:2:0:0:
355,231,59380,1,0,0:0:0:0:
329,216,59458,1,0,0:0:0:0:
302,202,59536,1,0,0:0:0:0:
285,177,59614,1,0,1:0:0:0:
284,146,59693,1,0,0:0:0:0:
296,118,59771,1,0,0:0:0:0:
319,99,59849,1,0,0:0:0:0:
347,91,59927,6,0,P|393:89|442:113,1,85,2|0,3:2|0:0,0:0:0:0:
489,162,60239,1,0,1:0:0:0:
501,246,60395,1,0,0:0:0:0:
498,275,60473,1,0,0:0:0:0:
483,301,60552,1,2,3:2:0:0:
457,286,60630,1,0,0:0:0:0:
429,275,60708,1,0,0:0:0:0:
399,275,60786,1,0,0:0:0:0:
370,282,60864,1,0,1:0:0:0:
341,290,60942,1,0,0:0:0:0:
311,290,61020,1,0,0:0:0:0:
283,279,61098,1,0,0:0:0:0:
257,264,61176,5,2,3:2:0:0:
215,189,61333,1,0,0:0:0:0:
256,115,61489,1,0,1:0:0:0:
235,93,61567,1,0,0:0:0:0:
206,83,61645,1,0,0:0:0:0:
176,83,61723,1,0,0:0:0:0:
148,94,61802,1,2,3:2:0:0:
90,156,61958,1,0,0:0:0:0:
90,156,62036,1,0,0:0:0:0:
90,156,62114,1,2,1:2:0:0:
126,232,62270,1,0,1:0:0:0:
77,302,62427,5,4,1:0:0:0:
151,342,62583,1,0,0:0:0:0:
179,348,62661,1,0,0:0:0:0:
208,348,62739,1,0,1:0:0:0:
236,338,62817,1,0,0:0:0:0:
262,324,62895,1,0,0:0:0:0:
281,301,62973,1,0,0:0:0:0:
293,273,63052,1,2,3:2:0:0:
321,193,63208,1,0,0:0:0:0:
333,165,63287,1,0,0:0:0:0:
352,142,63365,1,0,1:0:0:0:
378,128,63443,1,0,0:0:0:0:
406,118,63521,1,0,0:0:0:0:
490,110,63677,5,2,3:2:0:0:
484,194,63833,1,0,0:0:0:0:
399,203,63989,1,0,1:0:0:0:
370,196,64067,1,0,0:0:0:0:
340,196,64145,1,0,0:0:0:0:
311,202,64223,1,0,0:0:0:0:
284,216,64302,1,2,3:2:0:0:
221,273,64458,1,0,0:0:0:0:
194,287,64537,1,0,0:0:0:0:
165,293,64615,1,0,1:0:0:0:
135,293,64693,1,0,0:0:0:0:
106,286,64771,1,0,0:0:0:0:
80,271,64848,1,0,0:0:0:0:
62,246,64927,5,4,1:0:0:0:
107,174,65083,1,0,0:0:0:0:
81,92,65239,1,0,1:0:0:0:
110,96,65317,1,0,0:0:0:0:
139,92,65395,1,0,0:0:0:0:
166,80,65473,1,0,0:0:0:0:
188,59,65552,1,2,3:2:0:0:
263,20,65708,1,0,0:0:0:0:
285,41,65787,1,0,0:0:0:0:
312,53,65865,1,0,1:0:0:0:
341,57,65943,1,0,0:0:0:0:
370,53,66021,1,0,0:0:0:0:
451,30,66177,5,2,3:2:0:0:
487,106,66333,1,0,0:0:0:0:
405,130,66489,1,0,1:0:0:0:
380,146,66567,1,0,0:0:0:0:
364,171,66645,1,0,0:0:0:0:
361,200,66723,1,0,0:0:0:0:
369,228,66802,1,2,3:2:0:0:
339,222,66880,1,0,0:0:0:0:
309,225,66958,1,0,0:0:0:0:
281,236,67036,1,0,0:0:0:0:
260,257,67114,1,0,1:0:0:0:
239,278,67192,1,0,0:0:0:0:
211,289,67270,1,0,0:0:0:0:
181,292,67348,1,0,0:0:0:0:
151,286,67426,5,2,1:2:0:0:
109,211,67583,1,0,1:0:0:0:
152,137,67739,1,0,1:0:0:0:
193,212,67895,1,0,1:0:0:0:
279,62,68052,5,2,1:2:0:0:
237,137,68208,1,0,1:0:0:0:
280,211,68364,1,0,1:0:0:0:
321,136,68520,1,0,1:0:0:0:
365,209,68677,5,2,1:2:0:0:
280,211,68833,1,0,1:0:0:0:
321,136,68989,1,0,1:0:0:0:
365,209,69145,1,0,1:0:0:0:
193,212,69302,5,2,1:2:0:0:
189,42,69458,1,0,1:0:0:0:
358,37,69614,1,0,1:0:0:0:
365,208,69770,1,0,1:0:0:0:
193,212,69927,5,0,0:0:0:0:
192,245,70005,1,0,0:0:0:0:
212,272,70083,1,0,0:0:0:0:
243,284,70161,1,0,0:0:0:0:
276,279,70239,1,0,0:0:0:0:
309,273,70317,1,0,0:0:0:0:
340,285,70395,1,0,0:0:0:0:
360,312,70473,1,0,0:0:0:0:
359,345,70551,1,0,0:0:0:0:
401,353,70630,1,0,0:0:0:0:
443,348,70708,1,0,0:0:0:0:
474,319,70786,1,0,0:0:0:0:
484,277,70864,1,0,0:0:0:0:
475,235,70942,1,0,0:0:0:0:
448,201,71020,1,0,0:0:0:0:
408,186,71098,1,0,0:0:0:0:
365,192,71177,6,0,L|310:212,2,42.5,2|2|2,1:2|0:2|0:2,0:0:0:0:
336,112,71411,2,0,L|305:142,2,42.5,2|2|2,1:2|0:2|0:2,0:0:0:0:
268,61,71645,2,0,L|250:99,2,42.5,2|2|2,1:2|0:2|0:2,0:0:0:0:
185,43,71879,2,0,L|188:85,2,42.5,2|2|2,1:2|0:2|0:2,0:0:0:0:
105,75,72114,2,0,L|126:111,1,42.5,2|2,1:2|0:2,0:0:0:0:
41,131,72270,2,0,L|58:144,2,21.25,0|0|0,1:0|1:0|1:0,0:0:0:0:
82,161,72427,5,4,0:0:0:0:
250,140,72739,1,0,0:0:0:0:
184,297,73052,1,0,0:0:0:0:
184,297,73208,1,0,0:0:0:0:
184,297,73520,6,0,L|277:311,1,85,0|0,0:0|2:0,0:0:0:0:
349,282,73833,2,0,L|442:296,1,85,0|0,0:0|2:0,0:0:0:0:
502,245,74145,1,0,0:0:0:0:
502,245,74302,6,0,P|513:165|497:72,1,170,0|0,0:0|0:0,0:0:0:0:
334,31,74927,1,0,0:0:0:0:
334,31,75083,1,0,0:0:0:0:
381,193,75395,5,0,0:0:0:0:
215,152,75708,1,0,0:0:0:0:
334,31,76020,1,0,0:0:0:0:
334,31,76098,1,0,0:0:0:0:
334,31,76177,5,0,0:0:0:0:
290,195,76489,1,0,0:0:0:0:
454,150,76802,1,0,0:0:0:0:
454,150,76958,1,0,0:0:0:0:
454,150,77270,6,0,L|438:253,1,85,0|0,0:0|2:0,0:0:0:0:
359,259,77583,2,0,L|343:362,1,85,0|0,0:0|2:0,0:0:0:0:
263,364,77895,1,0,0:0:0:0:
193,314,78052,6,0,P|163:291|33:323,1,170,0|0,0:0|0:0,0:0:0:0:
123,165,78677,1,0,0:0:0:0:
123,165,78833,1,0,0:0:0:0:
123,165,79093,6,0,L|201:172,1,56.6666666666667,4|0,0:0|0:0,0:0:0:0:
227,117,79302,2,0,L|305:110,1,56.6666666666667,4|0,0:0|0:0,0:0:0:0:
316,174,79510,2,0,L|394:181,1,56.6666666666667,4|0,0:0|0:0,0:0:0:0:
420,126,79719,2,0,L|498:119,1,56.6666666666667,4|0,0:0|0:0,0:0:0:0:
511,182,79927,5,4,0:0:0:0:
490,264,80083,1,0,0:0:0:0:
405,258,80239,2,0,P|371:255|299:278,1,85,0|0,0:0|0:0,0:0:0:0:
255,320,80552,1,0,0:0:0:0:
179,280,80708,2,0,L|165:179,1,85,0|0,0:0|0:0,0:0:0:0:
248,22,81020,6,0,P|253:73|234:122,1,85,0|0,0:0|0:0,0:0:0:0:
74,209,81333,2,0,P|63:167|69:126,1,85,0|0,0:0|0:0,0:0:0:0:
257,206,81645,1,0,0:0:0:0:
257,206,81723,1,0,0:0:0:0:
257,206,81802,6,0,L|341:216,1,85,0|0,0:0|0:0,0:0:0:0:
409,166,82114,1,0,0:0:0:0:
409,166,82270,1,0,0:0:0:0:
358,96,82427,1,0,0:0:0:0:
422,41,82583,2,0,P|384:15|328:19,1,85,0|0,0:0|0:0,0:0:0:0:
257,206,82895,6,0,L|365:189,1,85,0|0,0:0|0:0,0:0:0:0:
179,100,83208,2,0,P|145:126|126:169,1,85,0|0,0:0|0:0,0:0:0:0:
95,296,83520,1,0,0:0:0:0:
211,348,83677,5,4,0:0:0:0:
227,322,83755,1,0,0:0:0:0:
253,308,83833,1,0,0:0:0:0:
282,308,83911,1,0,0:0:0:0:
311,313,83989,1,0,0:0:0:0:
339,322,84067,1,0,0:0:0:0:
368,322,84145,1,0,0:0:0:0:
394,308,84223,1,0,0:0:0:0:
410,282,84302,2,0,L|411:229,3,42.5,0|0|0|0,0:0|0:0|0:0|0:0,0:0:0:0:
408,209,84614,5,4,0:0:0:0:
392,183,84692,1,0,0:0:0:0:
366,169,84770,1,0,0:0:0:0:
337,169,84848,1,0,0:0:0:0:
308,174,84926,1,0,0:0:0:0:
280,183,85004,1,0,0:0:0:0:
251,183,85082,1,0,0:0:0:0:
225,169,85160,1,0,0:0:0:0:
209,143,85239,2,0,L|208:90,3,42.5,0|0|0|0,0:0|0:0|0:0|0:0,0:0:0:0:
210,70,85552,5,4,0:0:0:0:
136,224,85864,1,2,0:2:0:0:
68,68,86177,1,2,0:2:0:0:
256,344,86489,5,4,0:0:0:0:
330,190,86801,1,2,0:2:0:0:
398,346,87114,1,2,0:2:0:0:
476,116,87427,5,4,3:0:0:0:
256,192,87505,12,0,88989,0:0:0:0:
457,312,89614,6,0,P|397:284|336:306,1,127.5,2|0,0:0|2:0,0:0:0:0:
326,316,90161,2,0,P|285:330|192:263,1,148.75,2|0,0:0|2:0,0:0:0:0:
197,259,90786,2,0,P|252:213|324:224,1,148.75,2|0,0:0|2:0,0:0:0:0:
346,237,91411,2,0,P|432:256|482:172,1,178.499994552612,2|0,0:0|2:0,0:0:0:0:
487,162,92036,2,0,P|457:89|328:108,1,208.249993644715,2|0,0:0|2:0,0:0:0:0:
319,117,92661,2,0,P|283:154|248:10,1,306,2|0,0:0|2:0,0:0:0:0:
467,189,93677,6,0,L|461:240,1,42.5,0|0,0:0|0:0,0:0:0:0:
399,217,93989,2,0,L|393:268,1,42.5,0|0,0:0|0:0,0:0:0:0:
332,277,94302,1,2,0:0:0:0:
271,164,94614,6,0,L|265:113,1,42.5,0|0,0:0|0:0,0:0:0:0:
203,136,94926,2,0,L|197:85,1,42.5,0|0,0:0|0:0,0:0:0:0:
136,76,95239,1,2,0:0:0:0:
33,202,95552,6,0,L|90:212,1,42.5,0|0,0:0|0:0,0:0:0:0:
118,255,95864,2,0,L|175:265,1,42.5,0|0,0:0|0:0,0:0:0:0:
205,307,96177,1,2,0:0:0:0:
206,308,96333,1,0,0:0:0:0:
264,283,96489,6,0,L|321:273,1,42.5,0|0,0:0|0:0,0:0:0:0:
349,230,96801,2,0,L|406:220,1,42.5,0|0,0:0|0:0,0:0:0:0:
430,172,97114,2,0,L|487:162,1,42.5,2|0,0:0|0:0,0:0:0:0:
503,109,97427,5,0,0:0:0:0:
503,109,97739,1,0,0:0:0:0:
470,54,97895,1,0,0:0:0:0:
408,34,98052,1,2,0:0:0:0:
346,48,98208,1,0,0:0:0:0:
305,97,98364,1,0,0:0:0:0:
336,220,98677,1,0,0:0:0:0:
213,186,98989,1,2,0:0:0:0:
213,186,99302,6,0,L|223:242,1,42.5,2|0,0:0|0:0,0:0:0:0:
157,236,99614,2,0,L|167:292,1,42.5,2|0,0:0|0:0,0:0:0:0:
100,283,99927,1,2,0:0:0:0:
100,283,100083,1,2,0:0:0:0:
85,220,100239,6,0,L|75:164,1,42.5,2|0,0:0|0:0,0:0:0:0:
139,162,100552,2,0,L|153:107,1,42.5,2|0,0:0|0:0,0:0:0:0:
213,120,100864,2,0,L|249:76,1,42.5,2|0,0:0|0:0,0:0:0:0:
304,85,101177,6,0,L|294:141,1,42.5,2|0,0:0|0:0,0:0:0:0:
360,135,101489,2,0,L|350:191,1,42.5,0|0,0:0|0:0,0:0:0:0:
416,182,101802,1,2,0:0:0:0:
301,237,102114,6,0,L|311:293,1,42.5,0|0,0:0|0:0,0:0:0:0:
245,287,102426,2,0,L|255:343,1,42.5,0|0,0:0|0:0,0:0:0:0:
189,334,102739,1,2,0:0:0:0:
72,281,103052,6,0,L|82:225,1,42.5,0|0,0:0|0:0,0:0:0:0:
141,253,103364,2,0,L|151:197,1,42.5,0|0,0:0|0:0,0:0:0:0:
209,231,103677,1,2,0:0:0:0:
220,168,103833,1,2,0:0:0:0:
180,117,103989,2,0,P|200:106|225:104,1,42.5,2|0,0:0|0:0,0:0:0:0:
270,64,104302,2,0,P|292:62|316:71,1,42.5,2|0,0:0|0:0,0:0:0:0:
369,42,104614,2,0,P|390:50|407:68,1,42.5,2|0,0:0|0:0,0:0:0:0:
435,119,104927,5,2,0:0:0:0:
435,119,105239,1,0,0:0:0:0:
465,175,105395,1,0,0:0:0:0:
465,239,105552,1,2,0:0:0:0:
437,296,105708,1,0,0:0:0:0:
377,319,105864,2,0,L|327:314,1,42.5,0|0,0:0|0:0,0:0:0:0:
324,251,106177,2,0,L|366:255,1,42.5,2|0,0:0|0:0,0:0:0:0:
381,193,106489,2,0,L|338:188,1,42.5,2|0,0:0|0:0,0:0:0:0:
305,133,106802,6,0,P|283:151|179:138,1,127.5,2|0,0:0|0:0,0:0:0:0:
145,100,107427,1,2,0:0:0:0:
86,75,107583,1,0,0:0:0:0:
31,107,107739,2,0,P|12:137|125:211,1,212.5,2|0,0:0|0:0,0:0:0:0:
195,154,108677,6,0,L|206:79,1,63.7500024318696,4|0,3:0|0:0,0:0:0:0:
274,127,108989,2,0,L|285:52,1,63.7500024318696,2|0,0:0|0:0,0:0:0:0:
351,105,109302,2,0,L|362:30,1,63.7500024318696,2|0,0:0|0:0,0:0:0:0:
481,193,109614,6,0,L|470:268,1,63.7500024318696,0|0,3:0|0:0,0:0:0:0:
402,220,109926,2,0,L|391:295,1,63.7500024318696,0|0,0:0|0:0,0:0:0:0:
325,242,110239,2,0,L|314:317,1,63.7500024318696,2|0,0:0|0:0,0:0:0:0:
196,305,110552,6,0,L|187:242,1,63.7500024318696,0|0,3:0|0:0,0:0:0:0:
119,283,110865,2,0,L|110:220,1,63.7500024318696,0|0,0:0|0:0,0:0:0:0:
40,256,111177,1,0,0:0:0:0:
31,177,111333,1,2,0:0:0:0:
55,101,111489,6,0,P|88:88|122:91,1,63.7500024318696,2|0,0:0|0:0,0:0:0:0:
169,148,111802,2,0,P|163:183|144:211,1,63.7500024318696,2|0,0:0|0:0,0:0:0:0:
71,224,112114,2,0,P|43:201|28:170,1,63.7500024318696,2|0,0:0|0:0,0:0:0:0:
194,72,112427,6,0,L|274:86,1,63.7500024318696,2|0,3:2|0:0,0:0:0:0:
335,97,112739,1,0,0:0:0:0:
355,173,112895,1,0,0:0:0:0:
412,82,113052,1,0,0:0:0:0:
432,193,113208,1,0,0:0:0:0:
466,351,113364,5,2,0:0:0:0:
446,275,113520,1,0,0:0:0:0:
350,360,113677,1,2,0:0:0:0:
364,283,113833,1,0,0:0:0:0:
244,327,113989,1,2,0:0:0:0:
289,263,114145,1,0,0:0:0:0:
285,80,114302,5,2,0:0:0:0:
240,144,114458,1,0,0:0:0:0:
179,47,114614,1,2,0:0:0:0:
165,124,114770,1,0,0:0:0:0:
63,56,114927,1,2,0:0:0:0:
83,132,115083,1,2,0:0:0:0:
117,206,115239,6,0,L|180:217,1,63.7500024318696,2|0,0:0|0:0,0:0:0:0:
312,65,115552,2,0,L|271:113,1,63.7500024318696,2|0,0:0|0:0,0:0:0:0:
337,304,115864,2,0,L|316:244,1,63.7500024318696,2|0,0:0|0:0,0:0:0:0:
229,33,116177,5,2,0:0:0:0:
229,33,116333,1,0,0:0:0:0:
203,157,116489,1,2,0:0:0:0:
203,157,116645,1,0,0:0:0:0:
107,71,116802,1,2,0:0:0:0:
282,366,117114,5,2,0:0:0:0:
282,366,117270,1,0,0:0:0:0:
308,242,117426,1,2,0:0:0:0:
308,242,117582,1,0,0:0:0:0:
404,328,117739,2,0,L|421:253,1,63.7500024318696,2|0,0:0|0:0,0:0:0:0:
431,187,118052,5,2,0:0:0:0:
361,149,118208,1,0,0:0:0:0:
306,12,118364,1,2,0:0:0:0:
304,92,118520,1,0,0:0:0:0:
211,206,118677,1,0,0:0:0:0:
281,168,118833,1,2,0:0:0:0:
281,168,118989,5,2,0:0:0:0:
211,206,119145,1,0,0:0:0:0:
156,343,119301,1,2,0:0:0:0:
154,263,119457,1,0,0:0:0:0:
61,149,119614,1,2,0:0:0:0:
131,187,119770,1,0,0:0:0:0:
231,282,119927,6,0,L|234:364,1,63.7500024318696,2|0,0:0|0:0,0:0:0:0:
308,370,120239,1,0,0:0:0:0:
386,355,120395,1,0,0:0:0:0:
447,303,120552,1,2,0:0:0:0:
463,225,120708,1,0,0:0:0:0:
458,145,120864,6,0,P|446:113|423:93,1,63.7500024318696,2|0,0:0|0:0,0:0:0:0:
295,140,121177,2,0,P|326:146|357:137,1,63.7500024318696,2|0,0:0|0:0,0:0:0:0:
381,1,121489,2,0,P|361:25|354:56,1,63.7500024318696,2|0,0:0|0:0,0:0:0:0:
374,233,121802,6,0,P|380:274|257:316,1,191.250007295609,2|0,0:0|0:0,0:0:0:0:
198,279,122427,1,2,0:0:0:0:
123,307,122583,1,0,0:0:0:0:
46,284,122739,2,0,B|16:164|136:164|92:24,1,255.000009727478,2|0,0:0|0:0,0:0:0:0:
310,38,123677,6,0,P|335:118|299:204,1,170,4|0,1:0|0:0,0:0:0:0:
233,240,124145,1,0,1:0:0:0:
151,215,124302,2,0,P|152:264|169:298,1,85,10|0,0:0|0:0,0:0:0:0:
319,365,124614,6,0,L|307:281,1,85,0|0,1:0|0:0,0:0:0:0:
138,131,124927,2,0,L|150:215,1,85,0|0,1:0|0:0,0:0:0:0:
315,114,125239,1,10,0:0:0:0:
315,114,125395,1,0,0:0:0:0:
183,32,125552,6,0,L|90:29,1,85,0|0,1:0|0:0,0:0:0:0:
37,88,125864,1,0,0:0:0:0:
85,157,126020,1,0,1:0:0:0:
35,226,126177,1,10,0:0:0:0:
119,235,126333,1,2,0:0:0:0:
200,211,126489,6,0,P|248:203|317:215,1,85,2|0,1:2|0:0,0:0:0:0:
277,120,126802,2,0,P|323:133|381:173,1,85,2|0,1:2|0:0,0:0:0:0:
386,71,127114,2,0,P|422:102|458:163,1,85,10|0,1:2|0:0,0:0:0:0:
476,316,127427,6,0,P|439:349|324:313,1,170,0|0,1:0|0:0,0:0:0:0:
287,250,127895,1,0,1:0:0:0:
292,164,128052,1,10,0:0:0:0:
349,101,128208,1,0,0:0:0:0:
302,29,128364,6,0,L|201:38,1,85,0|0,1:0|0:0,0:0:0:0:
264,108,128677,2,0,L|349:101,1,85,0|0,1:0|0:0,0:0:0:0:
414,154,128989,1,10,0:0:0:0:
372,228,129145,1,0,0:0:0:0:
424,295,129302,6,0,P|376:313|341:307,1,85,2|0,1:2|0:0,0:0:0:0:
267,270,129614,1,0,0:0:0:0:
193,312,129770,1,0,1:0:0:0:
128,256,129927,2,0,P|86:252|47:269,1,85,10|0,1:2|0:0,0:0:0:0:
47,114,130239,6,0,P|86:131|128:128,1,85,0|0,1:0|0:0,0:0:0:0:
193,182,130552,2,0,P|235:181|271:159,1,85,0|0,1:0|0:0,0:0:0:0:
341,206,130864,2,0,P|378:187|402:152,1,85,10|0,1:2|1:0,0:0:0:0:
415,28,131177,6,0,L|228:41,1,170,4|0,1:0|1:0,0:0:0:0:
195,108,131645,1,0,0:0:0:0:
234,183,131802,1,10,1:2:0:0:
181,249,131958,1,0,0:0:0:0:
97,232,132114,6,0,P|113:302|202:333,1,170,0|0,1:0|1:0,0:0:0:0:
278,303,132583,1,0,0:0:0:0:
352,343,132739,1,10,1:2:0:0:
427,304,132895,1,0,0:0:0:0:
380,232,133052,6,0,L|389:118,1,85,4|0,1:0|0:0,0:0:0:0:
302,155,133364,2,0,L|311:41,1,85,0|0,1:0|0:0,0:0:0:0:
225,87,133677,1,10,1:2:0:0:
219,171,133833,1,2,0:0:0:0:
54,183,133989,6,0,L|45:297,1,85,2|0,1:2|0:0,0:0:0:0:
128,244,134301,2,0,L|168:351,1,85,2|0,1:2|0:0,0:0:0:0:
223,268,134614,2,0,L|304:348,1,85,10|0,1:2|0:0,0:0:0:0:
367,342,134927,5,4,1:0:0:0:
443,304,135083,1,0,1:0:0:0:
471,223,135239,1,0,1:0:0:0:
454,139,135395,1,0,1:0:0:0:
387,85,135552,1,2,1:2:0:0:
302,86,135708,1,2,1:2:0:0:
345,158,135864,5,4,1:0:0:0:
307,234,136020,1,0,1:0:0:0:
226,262,136176,1,0,1:0:0:0:
142,245,136332,1,0,1:0:0:0:
88,178,136489,1,2,1:2:0:0:
89,93,136645,1,2,1:2:0:0:
146,30,136802,5,4,1:0:0:0:
175,24,136880,1,0,1:0:0:0:
204,24,136958,1,0,1:0:0:0:
232,30,137036,1,0,1:0:0:0:
255,47,137114,1,0,1:0:0:0:
280,61,137192,1,0,1:0:0:0:
308,67,137270,1,0,1:0:0:0:
337,67,137348,1,0,1:0:0:0:
366,61,137426,1,0,1:0:0:0:
448,38,137583,2,0,L|480:29,3,21.25,0|0|0|0,1:0|1:0|1:0|1:0,0:0:0:0:
488,25,137739,5,2,1:2:0:0:
410,268,138052,1,2,1:2:0:0:
221,96,138364,1,2,1:2:0:0:
142,339,138677,6,0,P|100:353|37:340,1,93.5000028533936,0|0,1:0|0:0,0:0:0:0:
17,260,138989,1,0,1:0:0:0:
75,187,139145,1,0,0:0:0:0:
12,117,139302,2,0,P|52:95|109:101,1,93.5000028533936,2|0,1:2|0:0,0:0:0:0:
104,280,139614,6,0,P|57:282|17:259,1,93.5000028533936,0|0,1:0|0:0,0:0:0:0:
75,187,139927,1,0,1:0:0:0:
107,183,140005,1,0,0:0:0:0:
139,179,140083,1,0,0:0:0:0:
171,175,140161,1,0,0:0:0:0:
203,171,140239,1,2,1:2:0:0:
295,160,140395,1,0,0:0:0:0:
388,151,140552,6,0,P|396:101|386:47,1,93.5000028533936,0|0,1:0|0:0,0:0:0:0:
302,25,140864,1,0,1:0:0:0:
279,48,140942,1,0,0:0:0:0:
248,60,141020,1,0,0:0:0:0:
215,65,141098,1,0,0:0:0:0:
182,59,141177,1,2,1:2:0:0:
150,48,141255,1,0,0:0:0:0:
125,26,141333,1,2,0:0:0:0:
47,77,141489,6,0,L|65:188,1,93.5000028533936,2|0,1:2|0:0,0:0:0:0:
168,277,141802,2,0,L|154:185,1,93.5000028533936,2|0,1:2|0:0,0:0:0:0:
104,345,142114,1,2,1:2:0:0:
242,218,142270,1,0,0:0:0:0:
242,218,142348,1,0,0:0:0:0:
242,218,142427,6,0,L|256:310,1,93.5000028533936,2|0,1:2|0:0,0:0:0:0:
337,356,142739,1,0,1:0:0:0:
429,342,142895,1,2,0:0:0:0:
485,266,143052,1,0,1:0:0:0:
462,175,143208,1,2,0:0:0:0:
381,128,143364,6,0,L|272:138,1,93.5000028533936,0|0,1:0|0:0,0:0:0:0:
127,70,143677,2,0,L|193:137,1,93.5000028533936,0|0,1:0|0:0,0:0:0:0:
216,307,143989,2,0,L|242:217,1,93.5000028533936,2|0,1:2|0:0,0:0:0:0:
19,215,144302,6,0,P|0:273|100:331,1,187.000005706787,2|2,1:2|1:2,0:0:0:0:
168,283,144770,1,0,0:0:0:0:
168,283,144848,1,0,0:0:0:0:
168,283,144927,1,2,1:2:0:0:
256,310,145083,1,0,0:0:0:0:
266,279,145161,1,0,0:0:0:0:
276,248,145239,5,2,1:2:0:0:
176,148,145395,1,0,1:0:0:0:
313,180,145552,1,2,1:2:0:0:
270,66,145708,1,0,0:0:0:0:
371,125,145864,1,2,1:2:0:0:
388,23,146020,1,0,0:0:0:0:
388,23,146098,1,0,0:0:0:0:
388,23,146177,6,0,P|440:12|491:38,1,93.5000028533936,4|0,1:0|0:0,0:0:0:0:
509,113,146489,1,0,1:0:0:0:
443,179,146645,1,0,0:0:0:0:
494,258,146802,2,0,L|381:293,1,93.5000028533936,2|0,1:2|0:0,0:0:0:0:
233,266,147114,6,0,L|323:239,1,93.5000028533936,0|0,1:0|0:0,0:0:0:0:
352,149,147427,1,0,1:0:0:0:
332,122,147505,1,0,0:0:0:0:
301,110,147583,1,0,0:0:0:0:
268,109,147661,1,0,0:0:0:0:
237,120,147739,1,2,1:2:0:0:
177,192,147895,1,0,0:0:0:0:
140,278,148052,5,0,1:0:0:0:
51,248,148208,1,0,0:0:0:0:
51,248,148286,1,0,0:0:0:0:
51,248,148364,1,0,1:0:0:0:
29,157,148520,1,0,0:0:0:0:
29,157,148598,1,0,0:0:0:0:
29,157,148677,1,0,1:0:0:0:
58,68,148833,1,2,0:0:0:0:
144,32,148989,6,0,L|232:61,1,93.5000028533936,2|0,1:2|0:0,0:0:0:0:
369,96,149302,2,0,L|298:157,1,93.5000028533936,2|0,1:2|0:0,0:0:0:0:
202,259,149614,2,0,L|183:167,1,93.5000028533936,2|0,1:2|0:0,0:0:0:0:
176,135,149848,1,0,0:0:0:0:
170,102,149927,6,0,P|117:98|77:116,1,93.5000028533936,4|0,1:0|0:0,0:0:0:0:
37,196,150239,1,0,1:0:0:0:
71,282,150395,1,2,0:0:0:0:
155,323,150552,1,0,1:0:0:0:
248,317,150708,1,2,0:0:0:0:
320,258,150864,6,0,L|338:166,1,93.5000028533936,4|0,1:0|0:0,0:0:0:0:
153,94,151177,2,0,L|223:155,1,93.5000028533936,0|0,1:0|0:0,0:0:0:0:
377,31,151489,2,0,L|288:60,1,93.5000028533936,0|0,1:0|0:0,0:0:0:0:
40,126,151802,6,0,P|27:168|39:230,1,93.5000028533936,4|0,1:0|0:0,0:0:0:0:
53,242,152036,1,0,1:0:0:0:
81,259,152114,1,0,1:0:0:0:
165,219,152270,1,2,0:0:0:0:
232,284,152427,1,0,1:0:0:0:
261,298,152505,1,0,0:0:0:0:
293,300,152583,1,0,0:0:0:0:
325,295,152661,1,0,0:0:0:0:
354,280,152739,5,4,1:0:0:0:
398,198,152895,1,0,1:0:0:0:
476,249,153052,2,0,P|477:149|385:103,1,187.000005706787,0|0,1:0|1:0,0:0:0:0:
325,139,153520,1,0,1:0:0:0:
325,139,153598,1,0,1:0:0:0:
325,139,153677,6,0,L|340:38,1,93.5000028533936,4|0,1:0|0:0,0:0:0:0:
229,134,153989,2,0,L|199:36,1,93.5000028533936,0|0,1:0|0:0,0:0:0:0:
151,175,154302,2,0,L|83:98,1,93.5000028533936,2|0,1:2|0:0,0:0:0:0:
78,275,154614,6,0,L|63:376,1,93.5000028533936,0|0,1:0|0:0,0:0:0:0:
174,280,154926,2,0,L|203:377,1,93.5000028533936,0|0,1:0|0:0,0:0:0:0:
252,239,155239,2,0,L|319:315,1,93.5000028533936,2|0,1:2|0:0,0:0:0:0:
463,95,155552,6,0,P|425:74|367:71,1,93.5000028533936,0|0,1:0|0:0,0:0:0:0:
222,176,155864,2,0,P|259:153|290:104,1,93.5000028533936,0|0,1:0|0:0,0:0:0:0:
116,35,156177,1,0,1:0:0:0:
37,172,156333,1,2,0:0:0:0:
118,308,156489,6,0,L|232:331,1,93.5000028533936,2|0,1:2|0:0,0:0:0:0:
372,233,156802,2,0,L|299:323,1,93.5000028533936,2|0,1:2|0:0,0:0:0:0:
208,152,157114,2,0,L|245:262,1,93.5000028533936,2|0,1:2|0:0,0:0:0:0:
251,270,157348,1,0,1:0:0:0:
266,299,157427,6,0,P|305:344|430:317,1,187.000005706787,0|0,1:0|1:0,0:0:0:0:
465,245,157895,1,2,0:0:0:0:
427,158,158052,1,0,1:0:0:0:
474,77,158208,1,0,0:0:0:0:
474,77,158286,1,0,0:0:0:0:
474,77,158364,6,0,P|424:63|374:79,1,93.5000028533936,0|0,1:0|0:0,0:0:0:0:
302,26,158677,2,0,P|256:51|232:98,1,93.5000028533936,2|0,1:2|0:0,0:0:0:0:
145,109,158989,2,0,P|130:159|147:209,1,93.5000028533936,2|0,1:2|0:0,0:0:0:0:
89,276,159302,6,0,P|114:321|252:315,1,187.000005706787,0|0,1:0|1:0,0:0:0:0:
299,259,159770,2,0,P|387:245|447:311,1,187.000005706787,2|0,0:0|0:0,0:0:0:0:
453,344,160161,1,0,1:0:0:0:
443,375,160239,5,0,1:0:0:0:
358,334,160395,1,0,1:0:0:0:
264,345,160552,2,0,P|210:288|244:184,1,187.000005706787,0|0,1:0|1:0,0:0:0:0:
317,146,161020,1,0,0:0:0:0:
317,146,161098,1,0,1:0:0:0:
317,146,161177,6,0,L|409:159,1,93.5000028533936,4|0,1:0|0:0,0:0:0:0:
244,87,161489,2,0,L|151:100,1,93.5000028533936,0|0,1:0|0:0,0:0:0:0:
316,27,161802,2,0,L|408:40,1,93.5000028533936,2|0,1:2|0:0,0:0:0:0:
147,210,162114,6,0,L|54:196,1,93.5000028533936,0|0,1:0|0:0,0:0:0:0:
220,269,162426,2,0,L|312:255,1,93.5000028533936,0|0,1:0|0:0,0:0:0:0:
148,329,162739,2,0,L|55:315,1,93.5000028533936,2|0,1:2|0:0,0:0:0:0:
55,69,163052,6,0,L|148:55,1,93.5000028533936,4|0,1:0|0:0,0:0:0:0:
302,138,163364,2,0,L|209:124,1,93.5000028533936,0|0,1:0|0:0,0:0:0:0:
47,202,163677,1,0,1:0:0:0:
139,190,163833,1,2,0:0:0:0:
213,245,163989,6,0,P|212:294|183:344,1,93.5000028533936,2|0,1:2|0:0,0:0:0:0:
231,128,164302,2,0,P|189:102|160:52,1,93.5000028533936,2|0,1:2|0:0,0:0:0:0:
323,202,164614,2,0,P|366:179|424:179,1,93.5000028533936,2|0,1:2|0:0,0:0:0:0:
442,182,164848,1,0,1:0:0:0:
472,193,164927,5,4,1:0:0:0:
497,282,165083,1,0,1:0:0:0:
453,364,165239,1,0,1:0:0:0:
360,373,165395,1,0,1:0:0:0:
277,328,165552,1,0,1:0:0:0:
249,238,165708,1,0,1:0:0:0:
291,154,165864,5,4,1:0:0:0:
263,64,166020,1,0,1:0:0:0:
180,19,166177,1,0,1:0:0:0:
87,28,166333,1,0,1:0:0:0:
45,110,166489,1,0,1:0:0:0:
68,199,166645,1,0,1:0:0:0:
156,231,166802,5,0,0:0:0:0:
202,237,166880,1,0,0:0:0:0:
247,226,166958,1,0,0:0:0:0:
282,195,167036,1,0,0:0:0:0:
296,150,167114,1,0,0:0:0:0:
310,105,167192,1,0,0:0:0:0:
345,74,167270,1,0,0:0:0:0:
390,63,167348,1,0,0:0:0:0:
436,69,167426,1,0,0:0:0:0:
490,145,167583,2,0,L|493:171,3,23.3750007133484,0|0|0|0,0:0|0:0|0:0|0:0,0:0:0:0:
495,191,167739,5,0,0:0:0:0:
203,360,168052,1,0,0:0:0:0:
198,23,168364,1,0,0:0:0:0:
198,23,168677,6,0,L|97:38,1,85,4|0,1:0|0:0,0:0:0:0:
53,95,168989,1,0,1:0:0:0:
47,124,169067,1,0,0:0:0:0:
52,153,169145,1,2,0:0:0:0:
127,192,169302,1,0,1:0:0:0:
133,163,169380,1,0,0:0:0:0:
128,134,169458,1,2,0:0:0:0:
207,104,169614,6,0,L|308:119,1,85,2|0,1:2|0:0,0:0:0:0:
323,194,169926,1,0,1:0:0:0:
376,260,170083,2,0,P|332:279|268:262,1,85,2|0,0:0|1:0,0:0:0:0:
323,194,170395,1,2,0:0:0:0:
133,318,170552,6,0,L|114:229,1,85,2|0,1:2|0:0,0:0:0:0:
97,151,170864,1,0,1:0:0:0:
182,161,171020,2,0,L|201:250,1,85,2|0,0:0|1:0,0:0:0:0:
218,328,171332,1,0,0:0:0:0:
291,285,171489,6,0,L|272:196,1,85,2|0,1:2|0:0,0:0:0:0:
255,118,171801,1,0,1:0:0:0:
340,128,171957,2,0,L|359:217,1,85,2|0,0:0|1:0,0:0:0:0:
376,295,172269,1,0,0:0:0:0:
376,295,172348,1,0,1:0:0:0:
376,295,172427,5,2,1:2:0:0:
438,237,172583,1,0,0:0:0:0:
357,211,172739,1,0,1:0:0:0:
273,193,172895,1,2,0:0:0:0:
192,167,173051,1,0,1:0:0:0:
254,109,173207,1,0,0:2:0:0:
110,39,173364,5,2,1:2:0:0:
48,97,173520,1,0,0:0:0:0:
129,123,173676,1,0,1:0:0:0:
211,144,173832,1,2,0:0:0:0:
292,170,173988,1,0,1:0:0:0:
230,228,174144,1,0,0:2:0:0:
232,61,174302,6,0,L|346:46,1,85,2|0,1:2|0:0,0:0:0:0:
401,53,174614,1,0,1:0:0:0:
469,104,174770,1,2,0:0:0:0:
488,187,174927,1,0,1:0:0:0:
451,263,175083,1,2,0:0:0:0:
451,263,175161,1,0,1:0:0:0:
451,263,175239,5,0,1:0:0:0:
371,233,175395,1,0,1:0:0:0:
298,278,175552,2,0,P|253:308|115:302,1,170,2|2,1:2|1:2,0:0:0:0:
66,270,176020,1,2,0:0:0:0:
66,270,176098,1,0,1:0:0:0:
66,270,176177,6,0,L|54:185,1,85,4|0,1:0|0:0,0:0:0:0:
109,121,176489,1,0,1:0:0:0:
188,150,176645,1,2,0:0:0:0:
273,146,176802,1,0,1:0:0:0:
345,101,176958,1,2,0:0:0:0:
421,137,177114,6,0,L|410:232,1,85,2|0,1:2|0:0,0:0:0:0:
385,302,177427,1,0,1:0:0:0:
307,267,177583,1,2,0:0:0:0:
224,288,177739,1,0,1:0:0:0:
179,359,177895,1,2,0:0:0:0:
264,363,178052,6,0,L|361:365,2,85,4|0|0,1:0|0:0|1:0,0:0:0:0:
138,284,178520,2,0,L|41:286,2,85,2|0|2,0:0|1:0|0:0,0:0:0:0:
288,166,178989,6,0,P|296:124|285:62,2,85,2|0|0,1:2|0:0|1:0,0:0:0:0:
138,284,179458,2,0,P|130:326|141:388,2,85,2|0|0,0:0|1:0|0:0,0:0:0:0:
155,259,179848,1,0,1:0:0:0:
174,235,179927,6,0,P|220:226|328:295,1,170,4|0,1:0|1:0,0:0:0:0:
405,266,180395,1,2,0:0:0:0:
425,183,180552,1,0,1:0:0:0:
385,108,180708,1,2,0:0:0:0:
300,102,180864,6,0,P|254:111|146:42,1,170,4|0,1:0|1:0,0:0:0:0:
78,95,181333,1,2,0:0:0:0:
58,178,181490,1,0,1:0:0:0:
98,253,181646,1,2,0:0:0:0:
98,253,181724,1,0,1:0:0:0:
98,253,181803,5,4,1:0:0:0:
156,191,181958,1,0,1:0:0:0:
237,166,182114,1,2,1:2:0:0:
321,172,182270,1,0,1:2:0:0:
388,224,182427,1,2,1:2:0:0:
420,302,182583,1,0,1:2:0:0:
335,297,182739,5,4,1:0:0:0:
306,292,182817,1,0,1:2:0:0:
277,289,182895,1,2,1:2:0:0:
245,209,183052,1,2,1:2:0:0:
330,216,183208,1,0,1:2:0:0:
359,221,183286,1,0,1:2:0:0:
388,224,183364,1,2,1:2:0:0:
356,146,183520,2,0,L|319:140,4,21.25,0|0|0|0|0,1:0|1:0|1:0|1:0|1:0,0:0:0:0:
60,324,191177,5,4,1:0:0:0:
141,345,191333,1,0,1:0:0:0:
221,316,191489,1,0,1:0:0:0:
269,246,191645,1,0,1:0:0:0:
269,160,191802,1,0,1:0:0:0:
208,96,191958,1,0,1:0:0:0:
269,32,192114,5,0,1:0:0:0:
208,96,192270,1,0,1:0:0:0:
208,182,192427,1,0,1:0:0:0:
256,252,192583,1,0,1:0:0:0:
336,281,192739,1,0,1:0:0:0:
417,260,192895,1,0,1:0:0:0:
452,60,193052,5,4,1:0:0:0:
371,39,193208,1,0,1:0:0:0:
291,68,193364,1,0,1:0:0:0:
243,138,193520,1,0,1:0:0:0:
243,224,193677,1,0,1:0:0:0:
304,288,193833,1,0,1:0:0:0:
243,352,193989,5,0,1:0:0:0:
304,288,194145,1,0,1:0:0:0:
304,202,194302,1,0,1:0:0:0:
256,132,194458,1,0,1:0:0:0:
176,103,194614,1,0,1:0:0:0:
95,124,194770,1,0,1:0:0:0:
24,328,194927,5,4,1:0:0:0:
45,328,195005,1,0,1:0:0:0:
66,328,195083,1,0,1:0:0:0:
87,328,195161,1,0,1:0:0:0:
109,328,195239,1,0,1:0:0:0:
130,328,195317,1,0,1:0:0:0:
151,328,195395,1,0,1:0:0:0:
172,328,195473,1,0,1:0:0:0:
194,328,195552,1,0,1:0:0:0:
215,328,195630,1,0,1:0:0:0:
236,328,195708,1,0,1:0:0:0:
257,328,195786,1,0,1:0:0:0:
279,328,195864,1,4,1:0:0:0:
300,328,195942,1,0,1:0:0:0:
321,328,196020,1,0,1:0:0:0:
342,328,196098,1,0,1:0:0:0:
364,328,196177,1,0,1:0:0:0:
385,328,196255,1,0,1:0:0:0:
406,328,196333,1,0,1:0:0:0:
427,328,196411,1,0,1:0:0:0:
449,328,196489,1,0,1:0:0:0:
470,328,196567,1,0,1:0:0:0:
492,328,196645,2,0,L|492:296,3,21.25,0|0|0|0,1:0|1:0|1:0|1:0,0:0:0:0:
492,284,196802,5,0,1:0:0:0:
378,57,197114,1,2,1:2:0:0:
270,289,197427,1,2,1:2:0:0:
270,17,197739,5,0,1:0:0:0:
162,249,198052,1,2,1:2:0:0:
48,22,198364,1,2,1:2:0:0:
256,192,198677,5,2,1:2:0:0:
256,192,198755,12,0,202427,0:0:0:0:
126,327,203052,6,0,P|89:300|206:195,1,255.000009727478,0|2,0:0|0:0,0:0:0:0:
248,224,203833,1,0,0:0:0:0:
328,241,203989,1,2,0:0:0:0:
414,218,204145,1,0,0:0:0:0:
467,137,204302,1,2,0:0:0:0:
456,35,204458,1,2,0:0:0:0:
362,89,204614,2,0,P|331:99|273:95,1,63.7500024318696,2|0,0:0|0:0,0:0:0:0:
179,20,204927,6,0,P|112:19|112:144,1,203.999993774414,4|0,1:0|1:0,0:0:0:0:
123,155,205317,1,0,0:0:0:0:
157,163,205395,1,2,0:0:0:0:
178,263,205552,1,0,1:0:0:0:
212,255,205630,1,2,0:0:0:0:
246,245,205708,1,0,0:0:0:0:
307,182,205864,1,2,1:2:0:0:
332,157,205942,1,0,0:0:0:0:
366,149,206020,1,2,0:0:0:0:
401,153,206098,1,0,0:0:0:0:
433,168,206177,5,0,1:0:0:0:
450,215,206255,2,0,L|483:312,1,101.999996887207,2|0,0:0|0:0,0:0:0:0:
377,220,206489,2,0,L|410:317,1,101.999996887207,0|0,1:0|0:0,0:0:0:0:
305,228,206723,2,0,L|355:372,1,152.999995330811,2|2,0:0|0:0,0:0:0:0:
249,332,207114,1,2,1:2:0:0:
210,226,207270,1,0,0:0:0:0:
210,226,207427,6,0,P|233:312|141:357,1,203.999993774414,2|0,1:2|1:0,0:0:0:0:
121,331,207817,1,0,0:0:0:0:
101,301,207895,1,2,0:0:0:0:
92,198,208052,1,0,1:0:0:0:
121,175,208130,1,2,0:0:0:0:
157,173,208208,1,0,0:0:0:0:
257,188,208364,1,2,1:2:0:0:
293,186,208442,1,0,0:0:0:0:
322,163,208520,1,2,0:0:0:0:
331,128,208598,1,0,0:0:0:0:
323,92,208677,5,0,1:0:0:0:
273,81,208755,2,0,L|123:64,1,101.999996887207,2|0,0:0|0:0,0:0:0:0:
216,160,208989,2,0,L|66:143,1,101.999996887207,2|0,1:2|0:0,0:0:0:0:
153,242,209223,2,0,L|1:223,1,152.999995330811,2|2,0:0|0:0,0:0:0:0:
42,316,209614,1,2,1:2:0:0:
139,344,209770,1,0,1:0:0:0:
248,308,209927,5,2,1:2:0:0:
282,298,210005,1,0,0:0:0:0:
316,306,210083,1,0,0:0:0:0:
408,348,210239,1,0,1:0:0:0:
467,265,210395,1,0,0:0:0:0:
433,252,210473,1,0,0:0:0:0:
408,225,210552,1,2,1:2:0:0:
395,191,210630,1,0,0:0:0:0:
396,155,210708,1,0,0:0:0:0:
411,122,210786,1,2,0:0:0:0:
443,107,210864,1,2,1:2:0:0:
418,80,210942,1,0,0:0:0:0:
383,70,211020,1,0,0:0:0:0:
347,75,211098,1,2,0:0:0:0:
315,92,211177,6,0,L|296:192,1,101.999996887207,2|0,1:2|0:0,0:0:0:0:
189,228,211489,2,0,L|208:128,1,101.999996887207,2|0,1:2|0:0,0:0:0:0:
323,311,211802,2,0,P|269:298|203:326,1,101.999996887207,2|0,1:2|0:0,0:0:0:0:
200,335,212036,2,0,L|43:318,1,152.999995330811,2|0,0:0|0:0,0:0:0:0:
29,217,212427,5,0,1:0:0:0:
63,224,212505,1,0,0:0:0:0:
98,222,212583,1,0,0:0:0:0:
130,208,212661,1,2,0:0:0:0:
197,132,212817,1,0,0:0:0:0:
214,100,212895,1,2,0:0:0:0:
240,76,212973,1,0,0:0:0:0:
272,62,213051,1,0,1:0:0:0:
307,60,213129,1,2,0:0:0:0:
341,67,213207,1,0,0:0:0:0:
420,131,213364,1,0,1:0:0:0:
363,215,213520,1,2,0:0:0:0:
436,286,213677,6,0,P|373:317|288:286,1,152.999995330811,0|2,1:0|0:0,0:0:0:0:
269,251,213989,2,0,L|259:189,1,50.9999984436036,0|0,1:0|0:0,0:0:0:0:
289,158,214145,2,0,L|279:96,1,50.9999984436036,2|0,0:0|0:0,0:0:0:0:
243,71,214302,2,0,P|180:40|95:71,1,152.999995330811,0|2,1:0|1:2,0:0:0:0:
76,106,214614,2,0,L|66:168,1,50.9999984436036,0|0,1:0|0:0,0:0:0:0:
96,199,214770,2,0,L|86:261,1,50.9999984436036,2|0,1:2|0:0,0:0:0:0:
54,288,214927,5,4,1:0:0:0:
144,333,215083,1,0,0:0:0:0:
144,333,215161,2,0,L|247:347,1,101.999996887207,2|0,0:0|0:0,0:0:0:0:
280,351,215395,1,2,0:0:0:0:
365,294,215552,1,0,1:0:0:0:
364,258,215630,1,0,0:0:0:0:
363,222,215708,1,2,0:0:0:0:
285,158,215864,1,0,1:0:0:0:
348,78,216020,1,2,0:0:0:0:
258,29,216177,6,0,L|134:43,1,101.999996887207,2|0,1:2|0:0,0:0:0:0:
122,49,216411,2,0,P|110:120|177:140,1,152.999995330811,2|0,0:0|0:0,0:0:0:0:
275,118,216802,2,0,L|399:132,1,101.999996887207,2|0,1:2|0:0,0:0:0:0:
411,138,217036,2,0,P|423:209|356:229,1,152.999995330811,2|0,0:0|0:0,0:0:0:0:
256,212,217427,5,2,1:2:0:0:
283,310,217583,1,0,0:0:0:0:
283,310,217661,2,0,P|233:313|186:285,1,101.999996887207,2|0,0:0|0:0,0:0:0:0:
167,241,217895,2,0,L|163:174,1,50.9999984436036,2|0,0:0|0:0,0:0:0:0:
161,138,218052,1,2,1:2:0:0:
188,40,218208,1,0,0:0:0:0:
188,40,218286,2,0,P|138:37|91:65,1,101.999996887207,2|0,0:0|0:0,0:0:0:0:
72,109,218520,2,0,L|68:176,1,50.9999984436036,2|0,0:0|0:0,0:0:0:0:
67,211,218677,5,2,1:2:0:0:
64,246,218755,1,0,0:0:0:0:
61,281,218833,1,0,0:0:0:0:
198,347,218989,1,2,1:2:0:0:
195,312,219067,1,0,0:0:0:0:
192,277,219145,1,0,0:0:0:0:
323,198,219302,5,2,1:2:0:0:
320,233,219380,1,0,0:0:0:0:
317,268,219458,1,0,0:0:0:0:
454,334,219614,1,2,1:2:0:0:
451,299,219692,1,0,0:0:0:0:
448,264,219770,1,0,1:0:0:0:
435,110,219927,5,4,1:0:0:0:
400,118,220005,1,2,0:2:0:0:
364,116,220083,1,2,0:2:0:0:
330,104,220161,1,2,0:2:0:0:
304,79,220239,1,2,1:2:0:0:
212,34,220395,1,0,0:0:0:0:
113,62,220552,1,0,1:0:0:0:
93,91,220630,1,0,0:0:0:0:
86,126,220708,1,0,0:0:0:0:
92,160,220786,1,0,0:0:0:0:
117,185,220864,1,0,1:0:0:0:
141,210,220942,1,0,0:0:0:0:
147,244,221020,1,0,0:0:0:0:
140,279,221098,1,0,0:0:0:0:
120,308,221176,5,2,1:2:0:0:
154,298,221255,1,2,0:2:0:0:
189,298,221333,1,2,0:2:0:0:
223,306,221411,1,2,0:2:0:0:
250,328,221489,1,2,1:2:0:0:
345,293,221645,1,0,0:0:0:0:
431,348,221802,1,2,1:2:0:0:
435,246,221958,1,0,0:0:0:0:
435,246,222036,1,2,0:0:0:0:
481,155,222192,1,0,0:0:0:0:
481,155,222270,1,2,0:0:0:0:
458,54,222427,5,4,1:0:0:0:
384,124,222583,1,0,1:0:0:0:
360,24,222739,1,0,1:0:0:0:
286,94,222895,1,0,1:0:0:0:
309,193,223052,1,0,1:0:0:0:
235,263,223208,1,0,1:0:0:0:
211,163,223364,1,0,1:0:0:0:
137,233,223520,1,0,1:0:0:0:
54,49,223677,6,0,P|105:29|201:39,1,152.999995330811,4|0,1:0|0:0,0:0:0:0:
233,54,223989,1,0,1:0:0:0:
289,138,224145,1,0,1:0:0:0:
192,171,224302,1,0,1:0:0:0:
192,171,224380,1,0,1:0:0:0:
235,263,224536,1,0,1:0:0:0:
235,263,224614,1,0,1:0:0:0:
331,231,224770,1,0,1:0:0:0:
364,219,224848,1,0,1:0:0:0:
397,232,224927,6,0,P|487:232|457:136,1,203.999993774414,4|0,1:0|1:0,0:0:0:0:
443,123,225317,1,0,0:0:0:0:
408,115,225395,1,2,0:0:0:0:
372,117,225473,1,0,0:0:0:0:
339,132,225552,1,0,1:0:0:0:
313,156,225630,1,2,0:0:0:0:
247,235,225786,1,0,0:0:0:0:
222,261,225864,1,2,1:2:0:0:
188,275,225943,1,0,0:0:0:0:
152,277,226021,1,2,0:0:0:0:
118,264,226099,1,0,0:0:0:0:
90,241,226177,5,0,1:0:0:0:
131,210,226255,2,0,P|138:157|127:91,1,101.999996887207,2|0,0:0|0:0,0:0:0:0:
217,156,226489,2,0,P|217:98|194:44,1,101.999996887207,0|0,1:0|0:0,0:0:0:0:
299,82,226723,2,0,P|304:156|274:252,1,152.999995330811,2|2,0:0|0:0,0:0:0:0:
251,328,227114,1,2,1:2:0:0:
351,310,227270,1,0,0:0:0:0:
439,333,227427,6,0,P|486:239|382:202,1,203.999993774414,2|0,1:2|1:0,0:0:0:0:
384,198,227817,1,0,0:0:0:0:
348,203,227895,1,2,0:0:0:0:
312,199,227973,1,0,0:0:0:0:
277,187,228052,1,0,1:0:0:0:
249,164,228130,1,2,0:0:0:0:
195,77,228286,1,0,0:0:0:0:
164,58,228364,1,2,1:2:0:0:
128,52,228443,1,0,0:0:0:0:
92,51,228521,1,2,0:0:0:0:
57,59,228599,1,0,0:0:0:0:
27,78,228677,5,0,1:0:0:0:
52,122,228755,2,0,P|59:175|48:241,1,101.999996887207,2|0,0:0|0:0,0:0:0:0:
138,176,228989,2,0,P|138:234|115:288,1,101.999996887207,0|0,1:0|0:0,0:0:0:0:
220,250,229223,2,0,P|225:176|195:80,1,152.999995330811,2|2,0:0|0:0,0:0:0:0:
298,58,229614,1,2,1:2:0:0:
396,83,229770,1,0,1:0:0:0:
455,166,229927,5,2,1:2:0:0:
452,201,230005,1,0,0:0:0:0:
449,236,230083,1,0,0:0:0:0:
348,252,230239,1,0,1:0:0:0:
351,217,230317,1,0,0:0:0:0:
354,182,230395,1,0,0:0:0:0:
359,146,230473,1,0,0:0:0:0:
363,110,230552,1,2,1:2:0:0:
289,39,230708,1,0,0:0:0:0:
261,61,230786,1,2,0:0:0:0:
227,73,230864,1,2,1:2:0:0:
191,74,230942,1,0,0:0:0:0:
156,66,231020,1,0,0:0:0:0:
124,48,231098,1,2,0:0:0:0:
100,20,231177,5,2,1:2:0:0:
37,100,231333,1,0,0:0:0:0:
37,100,231411,1,0,0:0:0:0:
37,100,231489,1,2,1:2:0:0:
93,184,231645,1,0,0:0:0:0:
93,184,231723,1,0,0:0:0:0:
93,184,231802,2,0,P|101:232|83:303,1,101.999996887207,2|0,1:2|0:0,0:0:0:0:
71,313,232036,2,0,P|159:302|231:352,1,152.999995330811,2|0,0:0|0:0,0:0:0:0:
275,249,232427,5,0,1:0:0:0:
214,166,232583,1,0,0:0:0:0:
214,166,232661,2,0,P|206:117|229:53,1,101.999996887207,2|0,0:0|0:0,0:0:0:0:
250,48,232895,2,0,L|356:40,1,101.999996887207,2|0,0:0|1:0,0:0:0:0:
387,37,233130,1,2,0:0:0:0:
460,107,233286,1,0,0:0:0:0:
460,107,233364,1,0,1:0:0:0:
403,191,233520,1,2,0:0:0:0:
482,273,233677,6,0,P|421:273|386:293,1,101.999996887207,0|0,1:0|0:0,0:0:0:0:
356,311,233911,2,0,P|310:333|260:330,1,101.999996887207,2|0,0:0|0:0,0:0:0:0:
228,314,234145,1,2,0:0:0:0:
71,166,234302,6,0,P|132:166|167:186,1,101.999996887207,0|0,1:0|0:0,0:0:0:0:
226,138,234536,1,2,1:2:0:0:
226,138,234614,2,0,L|210:65,1,50.9999984436036,0|0,1:0|0:0,0:0:0:0:
196,14,234770,1,2,1:2:0:0:
386,40,234927,5,4,1:0:0:0:
315,113,235083,1,0,0:0:0:0:
293,141,235161,2,0,P|288:194|299:251,1,101.999996887207,2|0,0:0|0:0,0:0:0:0:
317,269,235395,1,2,0:0:0:0:
384,196,235552,1,0,1:0:0:0:
405,169,235630,2,0,P|413:118|408:68,1,101.999996887207,0|0,0:0|0:0,0:0:0:0:
386,40,235864,1,0,1:0:0:0:
285,25,236020,1,2,0:0:0:0:
199,81,236177,6,0,P|144:95|90:75,1,101.999996887207,2|0,1:2|0:0,0:0:0:0:
76,57,236411,2,0,L|88:220,1,152.999995330811,2|0,0:0|0:0,0:0:0:0:
184,242,236802,2,0,P|239:256|293:236,1,101.999996887207,2|0,1:2|0:0,0:0:0:0:
307,218,237036,2,0,L|295:381,1,152.999995330811,2|0,0:0|0:0,0:0:0:0:
313,81,237427,6,0,P|368:95|422:75,1,101.999996887207,2|0,1:2|0:0,0:0:0:0:
436,57,237661,2,0,L|424:220,1,152.999995330811,2|2,0:0|0:0,0:0:0:0:
328,242,238052,2,0,P|273:256|219:236,1,101.999996887207,2|0,1:2|0:0,0:0:0:0:
205,218,238286,2,0,L|217:381,1,152.999995330811,2|2,0:0|0:0,0:0:0:0:
121,330,238677,5,2,1:2:0:0:
118,294,238755,1,0,0:0:0:0:
115,258,238833,1,0,0:0:0:0:
301,144,238989,1,2,1:2:0:0:
298,180,239067,1,0,0:0:0:0:
295,216,239145,1,0,0:0:0:0:
205,218,239302,5,2,1:2:0:0:
202,182,239380,1,0,0:0:0:0:
199,146,239458,1,0,0:0:0:0:
385,256,239614,1,2,1:2:0:0:
382,291,239692,1,0,0:0:0:0:
379,328,239770,1,0,1:0:0:0:
121,330,239927,5,4,1:0:0:0:
90,311,240005,1,2,0:2:0:0:
78,277,240083,1,2,0:2:0:0:
90,243,240161,1,2,0:2:0:0:
121,225,240239,1,2,1:2:0:0:
205,281,240395,1,0,0:0:0:0:
218,314,240473,1,0,0:0:0:0:
245,337,240552,1,0,1:0:0:0:
277,350,240630,1,0,0:0:0:0:
312,350,240708,1,0,0:0:0:0:
344,334,240786,1,0,0:0:0:0:
370,310,240864,1,0,1:0:0:0:
382,282,240942,1,0,0:0:0:0:
379,246,241020,1,0,0:0:0:0:
363,213,241098,1,0,0:0:0:0:
332,193,241177,5,2,1:2:0:0:
307,168,241255,1,2,0:2:0:0:
304,132,241333,1,2,0:2:0:0:
317,98,241411,1,2,0:2:0:0:
349,81,241489,1,2,1:2:0:0:
265,22,241645,1,0,0:0:0:0:
265,22,241723,1,0,0:0:0:0:
265,22,241802,6,0,P|189:18|112:47,1,152.999995330811,2|2,1:2|0:0,0:0:0:0:
90,67,242114,1,0,1:0:0:0:
184,105,242270,1,2,0:0:0:0:
184,105,242348,1,0,0:0:0:0:
184,105,242427,5,4,1:0:0:0:
210,203,242583,1,0,1:0:0:0:
175,298,242739,1,0,1:0:0:0:
83,341,242895,1,0,1:0:0:0:
91,238,243052,1,0,1:0:0:0:
175,298,243208,1,0,1:0:0:0:
221,318,243286,1,0,3:0:0:0:
271,321,243364,1,0,1:0:0:0:
320,308,243442,1,0,3:0:0:0:
354,270,243520,1,0,1:0:0:0:
366,220,243598,1,0,1:0:0:0:
352,170,243677,6,0,L|308:40,1,127.500004863739,4|0,1:0|0:0,0:0:0:0:
258,232,243989,2,0,L|249:95,1,127.500004863739,4|0,1:0|0:0,0:0:0:0:
149,268,244302,2,0,L|175:133,1,127.500004863739,4|0,1:0|0:0,0:0:0:0:
36,275,244614,2,0,L|96:151,1,127.500004863739,4|0,1:0|0:0,0:0:0:0:
302,47,244927,6,0,P|387:84|352:170,1,203.999993774414,4|0,1:0|1:0,0:0:0:0:
319,184,245317,1,0,0:0:0:0:
283,189,245395,1,2,0:0:0:0:
248,180,245473,1,0,0:0:0:0:
218,158,245552,1,0,1:0:0:0:
200,126,245630,1,2,0:0:0:0:
114,181,245786,1,0,0:0:0:0:
146,199,245864,1,2,1:2:0:0:
168,229,245943,1,0,0:0:0:0:
177,264,246021,1,2,0:0:0:0:
172,300,246099,1,0,0:0:0:0:
158,333,246177,5,0,1:0:0:0:
208,331,246255,2,0,L|342:324,1,101.999996887207,2|0,0:0|0:0,0:0:0:0:
240,251,246489,2,0,L|374:244,1,101.999996887207,0|0,1:0|0:0,0:0:0:0:
273,170,246723,2,0,L|407:163,1,101.999996887207,2|0,0:0|0:0,0:0:0:0:
303,89,246958,2,0,L|387:85,1,50.9999984436036,2|0,0:0|0:0,0:0:0:0:
430,87,247114,1,2,1:2:0:0:
430,87,247270,1,0,0:0:0:0:
479,232,247427,6,0,P|480:302|361:300,1,203.999993774414,2|0,1:2|1:0,0:0:0:0:
342,288,247817,1,0,0:0:0:0:
307,278,247895,1,2,0:0:0:0:
271,281,247973,1,0,0:0:0:0:
240,299,248052,1,0,1:0:0:0:
221,329,248130,1,2,0:0:0:0:
169,241,248286,1,0,0:0:0:0:
150,271,248364,1,2,1:2:0:0:
119,289,248443,1,0,0:0:0:0:
83,292,248521,1,2,0:0:0:0:
48,282,248599,1,0,0:0:0:0:
21,258,248677,5,0,1:0:0:0:
68,238,248755,2,0,L|75:104,1,101.999996887207,2|0,0:0|0:0,0:0:0:0:
148,206,248989,2,0,L|155:72,1,101.999996887207,2|0,1:2|0:0,0:0:0:0:
229,173,249223,2,0,L|236:39,1,101.999996887207,2|0,0:0|0:0,0:0:0:0:
310,143,249458,2,0,L|314:61,1,50.9999984436036,2|0,0:0|0:0,0:0:0:0:
312,21,249614,1,2,1:2:0:0:
312,21,249770,1,0,1:0:0:0:
461,57,249927,5,2,1:2:0:0:
457,92,250005,1,0,0:0:0:0:
453,127,250083,1,0,0:0:0:0:
496,219,250239,1,0,1:0:0:0:
462,206,250317,1,0,0:0:0:0:
426,204,250395,1,0,0:0:0:0:
393,218,250473,1,0,0:0:0:0:
366,242,250552,1,2,1:2:0:0:
340,267,250630,1,0,0:0:0:0:
313,291,250709,1,0,0:0:0:0:
280,305,250787,1,2,0:0:0:0:
244,303,250865,1,2,1:2:0:0:
210,290,250943,1,0,0:0:0:0:
184,266,251020,1,0,0:0:0:0:
172,232,251098,1,2,0:0:0:0:
180,196,251177,5,2,1:2:0:0:
264,138,251333,1,0,0:0:0:0:
264,138,251411,1,0,0:0:0:0:
264,138,251489,1,2,1:2:0:0:
200,58,251645,1,0,0:0:0:0:
200,58,251723,1,0,0:0:0:0:
200,58,251802,2,0,P|148:79|90:73,1,101.999996887207,2|0,1:2|0:0,0:0:0:0:
59,50,252036,2,0,P|60:100|40:147,1,101.999996887207,2|0,0:0|0:0,0:0:0:0:
10,188,252270,1,0,0:0:0:0:
54,280,252427,5,0,1:0:0:0:
89,275,252505,1,0,0:0:0:0:
124,270,252583,1,0,0:0:0:0:
159,265,252661,1,2,0:0:0:0:
146,163,252817,1,0,0:0:0:0:
163,132,252895,1,2,0:0:0:0:
192,152,252973,1,0,0:0:0:0:
227,157,253052,1,0,1:0:0:0:
261,149,253130,2,0,P|307:127|339:61,1,101.999996887207,2|0,0:0|0:0,0:0:0:0:
346,51,253364,1,0,1:0:0:0:
439,11,253520,1,2,0:0:0:0:
500,93,253677,6,0,L|493:206,1,101.999996887207,0|0,1:0|0:0,0:0:0:0:
512,240,253911,2,0,P|457:228|403:247,1,101.999996887207,2|0,0:0|0:0,0:0:0:0:
374,271,254145,1,2,0:0:0:0:
310,351,254302,1,0,1:0:0:0:
210,327,254458,1,0,0:0:0:0:
210,327,254536,1,2,1:2:0:0:
210,327,254614,1,0,1:0:0:0:
161,237,254770,1,2,1:2:0:0:
196,141,254927,6,0,P|210:86|194:35,1,101.999996887207,4|0,1:0|0:0,0:0:0:0:
159,10,255161,1,2,0:0:0:0:
63,44,255317,1,0,0:0:0:0:
32,84,255395,2,0,L|41:227,1,101.999996887207,2|0,0:0|1:0,0:0:0:0:
10,229,255630,1,0,0:0:0:0:
68,312,255786,1,0,0:0:0:0:
68,312,255864,1,0,1:0:0:0:
161,271,256020,1,2,0:0:0:0:
246,327,256177,6,0,L|370:334,1,101.999996887207,2|0,1:2|0:0,0:0:0:0:
371,287,256411,2,0,L|269:281,1,101.999996887207,2|0,0:0|0:0,0:0:0:0:
299,240,256645,2,0,L|349:243,1,50.9999984436036,2|0,0:0|0:0,0:0:0:0:
396,163,256802,6,0,L|272:170,1,101.999996887207,2|0,1:2|0:0,0:0:0:0:
271,123,257036,2,0,L|372:117,1,101.999996887207,2|0,0:0|0:0,0:0:0:0:
343,76,257270,2,0,L|293:79,1,50.9999984436036,2|0,0:0|0:0,0:0:0:0:
138,81,257427,5,2,1:2:0:0:
70,157,257583,1,0,0:0:0:0:
59,196,257661,1,2,0:0:0:0:
155,227,257817,1,0,0:0:0:0:
166,266,257895,1,2,0:0:0:0:
262,300,258052,5,2,1:2:0:0:
330,224,258208,1,0,0:0:0:0:
341,185,258286,1,2,0:0:0:0:
245,154,258442,1,0,0:0:0:0:
234,115,258520,1,2,0:0:0:0:
388,33,258677,5,2,1:2:0:0:
399,66,258755,1,0,0:0:0:0:
410,99,258833,1,0,0:0:0:0:
312,277,258989,1,2,1:2:0:0:
323,244,259067,1,0,0:0:0:0:
334,211,259145,1,0,0:0:0:0:
180,75,259302,5,2,1:2:0:0:
191,108,259380,1,0,0:0:0:0:
202,141,259458,1,0,0:0:0:0:
76,227,259614,1,2,1:2:0:0:
87,194,259692,1,0,0:0:0:0:
98,161,259770,1,0,1:0:0:0:
281,37,259927,5,4,1:0:0:0:
309,58,260005,1,2,0:2:0:0:
325,89,260083,1,2,0:2:0:0:
331,124,260161,1,2,0:2:0:0:
321,158,260239,1,2,1:2:0:0:
298,185,260317,1,0,0:0:0:0:
265,198,260395,1,0,0:0:0:0:
229,201,260473,1,0,0:0:0:0:
195,186,260552,2,0,P|170:172|152:150,3,50.9999984436036,0|0|0|0,1:0|0:0|0:0|0:0,0:0:0:0:
144,121,260864,1,0,1:0:0:0:
117,144,260942,1,0,0:0:0:0:
104,177,261020,1,0,0:0:0:0:
105,212,261098,1,0,0:0:0:0:
119,245,261177,5,2,1:2:0:0:
154,239,261255,1,2,0:2:0:0:
189,240,261333,1,2,0:2:0:0:
223,250,261411,1,2,0:2:0:0:
252,269,261489,1,2,1:2:0:0:
279,291,261567,1,0,0:0:0:0:
313,301,261645,1,0,0:0:0:0:
348,302,261723,1,0,0:0:0:0:
383,296,261802,2,0,P|410:249|414:196,1,101.999996887207,2|0,1:2|0:0,0:0:0:0:
387,159,262036,2,0,P|455:169|505:102,1,152.999995330811,2|2,0:0|0:0,0:0:0:0:
439,29,262427,5,4,1:0:0:0:
404,22,262505,1,0,0:0:0:0:
368,23,262583,1,0,1:0:0:0:
333,30,262661,1,2,0:0:0:0:
301,46,262739,1,0,1:0:0:0:
281,75,262817,1,0,0:0:0:0:
269,108,262895,1,2,1:2:0:0:
269,143,262973,1,0,0:0:0:0:
279,177,263052,1,2,1:2:0:0:
291,210,263131,1,0,0:0:0:0:
291,245,263209,1,0,1:0:0:0:
279,278,263287,1,2,0:0:0:0:
259,307,263365,1,0,1:0:0:0:
227,323,263443,1,0,1:0:0:0:
192,330,263521,1,2,1:2:0:0:
156,331,263599,1,0,1:0:0:0:
121,324,263677,6,0,P|66:290|42:215,1,127.500004863739,4|0,1:0|0:0,0:0:0:0:
201,240,263989,2,0,P|165:185|175:107,1,127.500004863739,4|0,1:0|0:0,0:0:0:0:
297,218,264302,2,0,P|287:154|329:87,1,127.500004863739,4|0,1:0|0:0,0:0:0:0:
413,225,264614,2,0,P|431:163|497:120,1,127.500004863739,4|0,1:0|0:0,0:0:0:0:
361,42,264927,6,0,P|271:52|293:141,1,203.999993774414,4|0,1:0|1:0,0:0:0:0:
322,157,265317,1,0,0:0:0:0:
344,184,265395,1,2,0:0:0:0:
354,217,265473,1,0,0:0:0:0:
349,252,265552,1,0,1:0:0:0:
332,283,265630,1,2,0:0:0:0:
254,216,265786,1,0,0:0:0:0:
237,185,265864,1,2,1:2:0:0:
232,150,265943,1,0,0:0:0:0:
242,117,266021,1,2,0:0:0:0:
264,90,266099,1,0,0:0:0:0:
295,73,266177,5,2,1:2:0:0:
244,79,266255,2,0,P|196:92|121:68,1,101.999996887207,2|0,0:0|0:0,0:0:0:0:
23,171,266489,2,0,P|71:184|146:160,1,101.999996887207,0|0,1:0|0:0,0:0:0:0:
246,256,266723,2,0,P|198:269|123:245,1,101.999996887207,2|0,0:0|0:0,0:0:0:0:
25,348,266958,2,0,L|97:351,1,50.9999984436036,2|0,0:0|0:0,0:0:0:0:
152,351,267114,1,2,1:2:0:0:
246,256,267270,1,0,0:0:0:0:
246,256,267348,1,0,0:0:0:0:
246,256,267427,6,0,P|263:177|161:175,1,203.999993774414,2|0,1:2|1:0,0:0:0:0:
134,187,267817,1,0,0:0:0:0:
98,193,267895,1,2,0:0:0:0:
63,186,267973,1,0,0:0:0:0:
34,164,268052,1,0,1:0:0:0:
21,130,268130,1,2,0:0:0:0:
116,95,268286,1,0,0:0:0:0:
146,78,268364,1,2,1:2:0:0:
182,72,268442,1,0,0:0:0:0:
217,79,268520,1,2,0:0:0:0:
246,101,268599,1,0,0:0:0:0:
259,135,268677,5,2,1:2:0:0:
256,185,268755,2,0,P|256:236|232:292,1,101.999996887207,2|0,0:0|0:0,0:0:0:0:
176,132,268989,2,0,P|175:80|200:25,1,101.999996887207,2|0,1:2|0:0,0:0:0:0:
95,219,269223,2,0,P|95:270|71:326,1,101.999996887207,2|0,0:0|0:0,0:0:0:0:
21,130,269458,2,0,L|25:60,1,50.9999984436036,2|0,0:0|0:0,0:0:0:0:
114,32,269614,1,2,1:2:0:0:
114,32,269770,1,0,1:0:0:0:
256,185,269927,5,2,1:2:0:0:
262,219,270005,1,0,0:0:0:0:
269,253,270083,1,0,0:0:0:0:
362,292,270239,1,0,1:0:0:0:
457,256,270395,1,0,0:0:0:0:
478,227,270473,1,0,0:0:0:0:
486,192,270552,1,2,1:2:0:0:
481,156,270630,1,0,0:0:0:0:
463,125,270708,1,0,0:0:0:0:
430,109,270786,1,2,0:0:0:0:
394,106,270864,1,2,1:2:0:0:
361,119,270942,1,0,0:0:0:0:
344,150,271020,1,0,0:0:0:0:
338,185,271098,1,2,0:0:0:0:
350,219,271177,5,2,1:2:0:0:
301,308,271333,1,0,0:0:0:0:
265,303,271411,1,0,0:0:0:0:
229,298,271489,1,2,1:2:0:0:
162,221,271645,1,0,0:0:0:0:
198,216,271723,1,0,0:0:0:0:
234,211,271802,2,0,P|241:158|223:87,1,101.999996887207,2|0,1:2|0:0,0:0:0:0:
197,73,272036,2,0,P|256:77|303:53,1,101.999996887207,2|0,0:0|0:0,0:0:0:0:
330,24,272270,1,0,0:0:0:0:
446,95,272427,6,0,L|454:211,1,101.999996887207,0|0,1:0|0:0,0:0:0:0:
491,230,272661,2,0,P|421:225|347:286,1,152.999995330811,2|2,0:0|0:0,0:0:0:0:
295,353,273052,1,0,1:0:0:0:
258,317,273130,2,0,L|136:314,1,101.999996887207,2|0,0:0|0:0,0:0:0:0:
126,273,273364,1,2,1:2:0:0:
182,188,273520,1,2,0:0:0:0:
101,124,273677,5,0,1:0:0:0:
157,38,273833,1,0,0:0:0:0:
191,31,273911,1,2,0:0:0:0:
268,96,274067,1,0,0:0:0:0:
302,103,274145,1,2,0:0:0:0:
399,135,274302,1,0,1:0:0:0:
342,219,274458,1,0,0:0:0:0:
308,226,274536,1,2,1:2:0:0:
273,233,274614,1,0,1:0:0:0:
182,188,274770,1,2,1:2:0:0:
56,346,274927,6,0,L|172:335,1,101.999996887207,4|0,1:0|0:0,0:0:0:0:
192,299,275161,2,0,L|308:288,1,101.999996887207,2|0,0:0|0:0,0:0:0:0:
328,252,275395,2,0,P|339:204|325:134,1,101.999996887207,2|0,0:0|1:0,0:0:0:0:
304,108,275630,1,0,0:0:0:0:
208,144,275786,1,0,0:0:0:0:
208,144,275864,1,0,1:0:0:0:
181,45,276020,1,2,0:0:0:0:
83,75,276177,6,0,P|67:120|66:184,1,101.999996887207,2|0,1:2|0:0,0:0:0:0:
106,202,276411,2,0,P|104:252|87:300,1,101.999996887207,2|0,0:0|0:0,0:0:0:0:
123,337,276645,2,0,L|203:340,1,50.9999984436036,0|0,0:0|0:0,0:0:0:0:
251,335,276802,6,0,P|235:290|234:226,1,101.999996887207,2|0,1:2|0:0,0:0:0:0:
274,208,277036,2,0,P|272:157|255:109,1,101.999996887207,2|0,0:0|0:0,0:0:0:0:
291,73,277270,2,0,L|371:76,1,50.9999984436036,0|0,0:0|0:0,0:0:0:0:
418,64,277427,6,0,P|438:116|426:171,1,101.999996887207,2|0,1:2|0:0,0:0:0:0:
361,192,277661,2,0,P|341:244|353:299,1,101.999996887207,2|0,0:0|0:0,0:0:0:0:
405,338,277895,2,0,L|359:365,1,50.9999984436036,2|0,0:0|0:0,0:0:0:0:
217,336,278052,6,0,P|197:284|209:229,1,101.999996887207,2|0,1:2|0:0,0:0:0:0:
274,208,278286,2,0,P|294:156|282:101,1,101.999996887207,2|0,0:0|0:0,0:0:0:0:
230,62,278520,2,0,L|168:67,1,50.9999984436036,2|0,0:0|0:0,0:0:0:0:
92,82,278677,5,2,1:2:0:0:
82,116,278755,1,0,0:0:0:0:
72,150,278833,1,0,0:0:0:0:
211,298,278989,1,2,1:2:0:0:
201,264,279067,1,0,0:0:0:0:
191,230,279145,1,0,0:0:0:0:
340,90,279302,5,2,1:2:0:0:
330,124,279380,1,0,0:0:0:0:
320,158,279458,1,0,0:0:0:0:
449,238,279614,1,2,1:2:0:0:
439,204,279692,1,0,0:0:0:0:
429,170,279770,1,0,1:0:0:0:
221,74,279927,5,4,1:0:0:0:
185,73,280005,1,2,0:2:0:0:
151,85,280083,1,2,0:2:0:0:
127,112,280161,1,2,0:2:0:0:
120,146,280239,1,2,1:2:0:0:
130,180,280317,1,0,0:0:0:0:
157,202,280395,1,0,0:0:0:0:
190,212,280473,1,0,0:0:0:0:
224,223,280552,1,0,1:0:0:0:
251,245,280630,1,0,0:0:0:0:
261,279,280708,1,0,0:0:0:0:
254,313,280786,1,0,0:0:0:0:
230,340,280864,1,0,1:0:0:0:
196,352,280942,1,0,0:0:0:0:
160,351,281020,1,0,0:0:0:0:
127,337,281098,1,0,0:0:0:0:
103,309,281177,5,2,1:2:0:0:
104,273,281255,1,2,0:2:0:0:
105,237,281333,1,2,0:2:0:0:
178,167,281489,1,2,1:2:0:0:
206,187,281567,1,0,0:0:0:0:
241,191,281645,1,0,0:0:0:0:
275,182,281723,1,0,0:0:0:0:
303,160,281802,1,2,1:2:0:0:
318,59,281958,1,0,0:0:0:0:
352,49,282036,1,2,0:0:0:0:
406,135,282192,1,0,0:0:0:0:
440,145,282270,1,2,0:0:0:0:
461,291,282427,6,0,L|334:308,1,101.999996887207,4|0,1:0|3:0,0:0:0:0:
315,280,282661,2,0,L|213:293,1,101.999996887207,0|0,1:0|0:0,0:0:0:0:
167,272,282895,1,0,1:0:0:0:
19,182,283052,6,0,L|146:199,1,101.999996887207,0|0,1:0|3:0,0:0:0:0:
165,171,283286,2,0,L|266:184,1,101.999996887207,0|0,1:0|0:0,0:0:0:0:
313,163,283520,1,0,1:0:0:0:
460,58,283677,6,0,L|333:75,1,101.999996887207,2|0,1:2|3:0,0:0:0:0:
290,38,283911,2,0,L|188:51,1,101.999996887207,0|0,1:0|3:0,0:0:0:0:
117,24,284145,1,0,1:0:0:0:
52,182,284302,6,0,L|154:174,1,101.999996887207,0|0,1:0|3:0,0:0:0:0:
190,180,284536,1,0,1:0:0:0:
222,193,284614,1,0,1:0:0:0:
247,218,284692,1,0,1:0:0:0:
258,251,284770,1,0,1:0:0:0:
259,286,284848,1,0,1:0:0:0:
253,321,284927,6,0,P|309:359|344:261,1,203.999993774414,4|0,1:0|1:0,0:0:0:0:
324,232,285317,1,0,0:0:0:0:
313,198,285395,1,2,0:0:0:0:
311,162,285473,1,0,0:0:0:0:
317,126,285552,1,0,1:0:0:0:
337,97,285630,1,2,0:0:0:0:
418,158,285786,1,0,0:0:0:0:
438,187,285864,1,2,1:2:0:0:
444,223,285943,1,0,0:0:0:0:
442,259,286021,1,2,0:0:0:0:
431,293,286099,1,0,0:0:0:0:
411,323,286177,5,2,1:2:0:0:
360,327,286255,2,0,L|225:337,1,101.999996887207,2|0,0:0|0:0,0:0:0:0:
84,254,286489,2,0,L|186:262,1,101.999996887207,0|0,1:0|0:0,0:0:0:0:
373,226,286723,2,0,L|272:234,1,101.999996887207,2|0,0:0|0:0,0:0:0:0:
102,153,286957,2,0,L|190:160,1,50.9999984436036,2|0,0:0|0:0,0:0:0:0:
255,165,287114,1,2,1:2:0:0:
255,165,287270,1,0,0:0:0:0:
444,85,287427,6,0,P|414:40|276:58,1,203.999993774414,2|0,1:2|1:0,0:0:0:0:
256,79,287817,1,0,0:0:0:0:
222,91,287895,1,2,0:0:0:0:
186,95,287973,1,0,0:0:0:0:
150,88,288052,1,0,1:0:0:0:
121,67,288130,1,2,0:0:0:0:
18,212,288286,1,0,0:0:0:0:
47,191,288364,1,2,1:2:0:0:
83,184,288443,1,0,0:0:0:0:
119,188,288521,1,2,0:0:0:0:
153,200,288599,1,0,0:0:0:0:
177,226,288677,5,0,1:0:0:0:
182,276,288755,2,0,L|317:286,1,101.999996887207,2|0,0:0|0:0,0:0:0:0:
458,203,288989,2,0,L|356:211,1,101.999996887207,2|0,1:2|0:0,0:0:0:0:
169,175,289223,2,0,L|270:183,1,101.999996887207,2|0,0:0|0:0,0:0:0:0:
440,102,289457,2,0,L|352:109,1,50.9999984436036,2|0,0:0|0:0,0:0:0:0:
287,114,289614,1,2,1:2:0:0:
287,114,289770,1,0,1:0:0:0:
138,38,289927,5,2,1:2:0:0:
147,72,290005,1,0,0:0:0:0:
156,106,290083,1,0,0:0:0:0:
90,183,290239,1,0,1:0:0:0:
125,177,290317,1,0,0:0:0:0:
160,181,290395,1,0,0:0:0:0:
190,198,290473,1,0,0:0:0:0:
212,226,290552,1,2,1:2:0:0:
269,309,290708,1,0,0:0:0:0:
291,337,290787,1,2,0:0:0:0:
321,354,290865,1,2,1:2:0:0:
356,358,290943,1,0,0:0:0:0:
391,352,291021,1,0,0:0:0:0:
423,337,291098,1,2,0:0:0:0:
443,307,291177,5,2,1:2:0:0:
435,205,291333,1,0,0:0:0:0:
429,169,291411,1,0,0:0:0:0:
423,133,291489,1,2,1:2:0:0:
327,96,291645,1,0,0:0:0:0:
333,132,291723,1,0,0:0:0:0:
339,168,291802,2,0,P|283:197|218:194,1,101.999996887207,2|0,1:2|0:0,0:0:0:0:
194,191,292036,2,0,P|130:180|41:230,1,152.999995330811,2|0,0:0|0:0,0:0:0:0:
24,350,292427,6,0,L|148:353,1,101.999996887207,0|0,1:0|0:0,0:0:0:0:
176,354,292661,1,2,0:0:0:0:
256,291,292817,1,0,0:0:0:0:
256,291,292895,2,0,P|267:239|263:168,1,101.999996887207,2|0,0:0|1:0,0:0:0:0:
236,148,293130,1,2,0:0:0:0:
143,189,293286,1,0,0:0:0:0:
113,147,293365,2,0,P|112:96|123:46,1,101.999996887207,0|0,1:0|0:0,0:0:0:0:
392,34,293677,6,0,L|408:143,1,101.999996887207,0|0,1:0|0:0,0:0:0:0:
333,186,293911,2,0,L|317:77,1,101.999996887207,2|0,0:0|0:0,0:0:0:0:
241,40,294145,1,2,0:0:0:0:
120,350,294302,6,0,L|104:241,1,101.999996887207,0|0,1:0|0:0,0:0:0:0:
182,205,294536,1,2,1:2:0:0:
182,205,294614,2,0,L|196:285,1,50.9999984436036,0|0,1:2|0:0,0:0:0:0:
205,330,294770,1,2,1:2:0:0:
450,340,294927,6,0,L|462:222,1,101.999996887207,4|0,1:0|0:0,0:0:0:0:
497,171,295161,2,0,P|454:209|341:171,1,152.999995330811,2|2,0:0|0:0,0:0:0:0:
302,115,295552,1,0,1:0:0:0:
302,115,295630,1,0,0:0:0:0:
364,34,295786,1,0,0:0:0:0:
364,34,295864,1,0,1:0:0:0:
263,20,296020,1,2,0:0:0:0:
75,82,296177,6,0,L|98:189,1,101.999996887207,2|0,1:2|0:0,0:0:0:0:
46,239,296411,2,0,P|94:213|197:240,1,152.999995330811,2|0,0:0|0:0,0:0:0:0:
214,274,296723,1,0,0:0:0:0:
264,261,296802,2,0,L|287:154,1,101.999996887207,2|0,1:2|0:0,0:0:0:0:
235,104,297036,2,0,P|283:130|386:103,1,152.999995330811,2|0,0:0|0:0,0:0:0:0:
403,69,297348,1,0,0:0:0:0:
405,17,297427,6,0,P|453:24|487:82,1,101.999996887207,2|0,1:2|0:0,0:0:0:0:
467,138,297661,2,0,P|453:193|473:246,1,101.999996887207,2|0,0:0|0:0,0:0:0:0:
499,303,297895,1,2,0:0:0:0:
356,360,298052,2,0,P|307:352|274:295,1,101.999996887207,2|0,1:2|0:0,0:0:0:0:
294,239,298286,2,0,P|308:184|288:131,1,101.999996887207,2|0,0:0|0:0,0:0:0:0:
262,74,298520,1,2,0:0:0:0:
113,34,298677,5,2,1:2:0:0:
99,83,298755,1,0,0:0:0:0:
85,132,298833,1,0,0:0:0:0:
182,103,298989,1,2,1:2:0:0:
190,154,299067,1,0,0:0:0:0:
198,204,299145,1,0,0:0:0:0:
278,141,299302,5,2,1:2:0:0:
307,184,299380,1,0,0:0:0:0:
335,226,299458,1,0,0:0:0:0:
376,133,299614,1,2,1:2:0:0:
420,159,299692,1,0,0:0:0:0:
463,185,299770,1,0,1:0:0:0:
487,326,299927,5,4,1:0:0:0:
454,310,300005,1,2,0:2:0:0:
418,304,300083,1,2,1:2:0:0:
382,306,300161,1,2,0:2:0:0:
351,323,300239,1,2,1:2:0:0:
318,338,300317,1,0,0:0:0:0:
282,340,300395,1,0,1:0:0:0:
246,334,300473,1,0,0:0:0:0:
213,318,300552,2,0,L|192:184,1,101.999996887207,0|0,1:0|1:0,0:0:0:0:
133,174,300786,2,0,P|201:188|249:170,1,101.999996887207,2|0,0:2|0:0,0:0:0:0:
290,131,301020,1,0,1:0:0:0:
25,58,301177,5,4,1:0:0:0:
58,74,301255,1,2,0:2:0:0:
94,80,301333,1,2,1:2:0:0:
130,78,301411,1,2,0:2:0:0:
161,61,301489,1,2,1:2:0:0:
194,46,301567,1,0,0:0:0:0:
230,44,301645,1,0,1:0:0:0:
266,50,301723,1,0,0:0:0:0:
299,66,301802,2,0,L|320:200,1,101.999996887207,2|0,1:2|1:0,0:0:0:0:
379,210,302036,2,0,P|311:196|263:214,1,101.999996887207,2|0,0:0|0:0,0:0:0:0:
222,253,302270,1,2,1:2:0:0:
119,367,302427,5,4,1:0:0:0:
89,347,302505,1,0,1:0:0:0:
71,316,302583,1,0,1:0:0:0:
63,281,302661,1,2,1:2:0:0:
72,246,302739,1,0,1:0:0:0:
75,210,302817,1,0,1:0:0:0:
67,175,302895,1,2,1:2:0:0:
49,144,302973,1,0,1:0:0:0:
19,124,303051,1,4,1:0:0:0:
60,93,303130,1,0,1:0:0:0:
110,85,303208,1,0,1:0:0:0:
160,94,303286,1,2,1:2:0:0:
201,123,303364,1,0,1:0:0:0:
241,154,303442,1,0,1:0:0:0:
291,163,303520,1,2,1:2:0:0:
341,155,303598,1,0,1:0:0:0:
382,124,303677,5,4,1:0:0:0:
301,338,303911,1,2,1:2:0:0:
154,161,304145,1,2,1:2:0:0:
154,161,304223,1,0,1:0:0:0:
154,161,304302,5,4,1:0:0:0:
440,55,304536,1,2,1:2:0:0:
391,356,304770,1,2,1:2:0:0:
391,356,304848,1,0,1:0:0:0:
391,356,304927,6,4,P|357:353|449:218,1,340,4|0,1:0|0:0,0:0:0:0:
437,205,306802,1,2,0:0:0:0:
364,52,307427,6,0,L|236:52,1,127.5,2|0,0:0|0:0,0:0:0:0:
70,169,308677,2,0,L|216:168,1,127.5,2|0,0:0|0:0,0:0:0:0:
328,265,309927,6,0,B|368:265|400:233|400:192|400:192|400:152|368:120|328:120|328:120|288:120|260:152|256:192|256:192|251:233|223:265|183:265|183:265|143:265|111:233|111:192|111:192|111:152|143:120|183:120,2,680,2|2|4,0:0|0:0|3:0,0:0:0:0:
