osu file format v14

[General]
AudioFilename: Shanghai Kouchakan ~ Chinese Tea Orchid Remix.mp3
AudioLeadIn: 0
PreviewTime: 46304
Countdown: 0
SampleSet: Soft
StackLeniency: 0.7
Mode: 3
LetterboxInBreaks: 0
SpecialStyle: 0
WidescreenStoryboard: 0

[Editor]
Bookmarks: 51653,59378,69046
DistanceSpacing: 1.1
BeatDivisor: 4
GridSize: 8
TimelineZoom: 1.2

[Metadata]
Title:Shanghai Kouchakan ~ Chinese Tea Orchid Remix
TitleUnicode:上海紅茶館 ~ Chinese Tea Orchid Remix
Artist:Yooh
ArtistUnicode:Yooh
Creator:SanadaYukimura
Version:NOVICE
Source:SOUND VOLTEX II -infinite infection-
Tags:sdvx 東方 東方紅魔郷remix 東方紅魔郷リミックス楽曲コンテスト touhou koumakyou gakkyoku contest 紅美鈴 hong meiling bemani Zun konami
BeatmapID:590577
BeatmapSetID:258121

[Difficulty]
HPDrainRate:7
CircleSize:4
OverallDifficulty:7
ApproachRate:5
SliderMultiplier:1.4
SliderTickRate:1

[Events]
//Background and Video events
0,0,"46782672_p0.jpg",0,0
//Break Periods
//Storyboard Layer 0 (Background)
//Storyboard Layer 1 (Fail)
//Storyboard Layer 2 (Pass)
//Storyboard Layer 3 (Foreground)
//Storyboard Sound Samples

[TimingPoints]
1624,319.148936170213,4,2,1,30,1,0
46304,-100,4,2,1,30,0,1
66730,-100,4,2,1,30,0,0
88432,-100,4,2,1,30,0,1
108858,-100,4,2,1,30,0,0

[HitObjects]
64,192,2900,5,2,0:0:0:0:
192,192,2900,1,4,0:0:0:0:
320,192,3538,1,2,0:0:0:0:
448,192,3538,1,4,0:0:0:0:
64,192,4177,1,4,0:0:0:0:
448,192,4177,1,2,0:0:0:0:
320,192,4496,1,2,0:0:0:0:
64,192,4496,1,4,0:0:0:0:
192,192,4735,1,2,0:0:0:0:
448,192,4735,1,4,0:0:0:0:
64,192,4975,1,0,0:0:0:0:
192,192,5134,1,2,0:0:0:0:
320,192,5134,1,4,0:0:0:0:
448,192,5453,1,6,0:0:0:0:
64,192,5772,1,2,0:0:0:0:
192,192,5772,1,8,0:0:0:0:
448,192,6092,1,0,0:0:0:0:
192,192,6411,1,2,0:0:0:0:
320,192,6411,1,8,0:0:0:0:
64,192,6730,1,0,0:0:0:0:
320,192,7049,1,8,0:0:0:0:
448,192,7049,1,2,0:0:0:0:
192,192,7368,1,0,0:0:0:0:
64,192,7687,1,8,0:0:0:0:
448,192,7687,1,2,0:0:0:0:
320,192,8006,1,0,0:0:0:0:
192,192,8326,1,8,0:0:0:0:
448,192,8326,1,2,0:0:0:0:
64,192,8645,1,0,0:0:0:0:
320,192,8964,1,8,0:0:0:0:
448,192,8964,1,2,0:0:0:0:
64,192,9283,1,2,0:0:0:0:
320,192,9602,1,2,0:0:0:0:
448,192,9602,1,8,0:0:0:0:
64,192,9921,1,2,0:0:0:0:
192,192,10241,1,8,0:0:0:0:
320,192,10241,1,2,0:0:0:0:
64,192,10560,1,4,0:0:0:0:
320,192,10879,1,2,0:0:0:0:
448,192,10879,1,8,0:0:0:0:
192,192,11198,1,0,0:0:0:0:
64,192,11517,1,2,0:0:0:0:
448,192,11517,1,8,0:0:0:0:
320,192,11836,1,0,0:0:0:0:
192,192,12155,1,2,0:0:0:0:
64,192,12155,1,8,0:0:0:0:
448,192,12475,1,0,0:0:0:0:
192,192,12794,1,8,0:0:0:0:
320,192,12794,1,2,0:0:0:0:
64,192,13113,1,0,0:0:0:0:
320,192,13432,1,8,0:0:0:0:
448,192,13432,1,2,0:0:0:0:
192,192,13751,1,0,0:0:0:0:
64,192,14070,1,8,0:0:0:0:
448,192,14070,1,2,0:0:0:0:
320,192,14389,1,2,0:0:0:0:
64,192,14709,1,8,0:0:0:0:
448,192,14709,1,2,0:0:0:0:
192,192,15028,1,2,0:0:0:0:
320,192,15347,1,2,0:0:0:0:
64,192,15347,1,0,0:0:0:0:
448,192,15666,1,4,0:0:0:0:
64,192,15666,1,2,0:0:0:0:
192,192,15985,1,2,0:0:0:0:
320,192,15985,1,8,0:0:0:0:
64,192,16304,1,0,0:0:0:0:
320,192,16624,1,8,0:0:0:0:
448,192,16624,1,2,0:0:0:0:
192,192,16943,1,0,0:0:0:0:
64,192,17262,1,2,0:0:0:0:
448,192,17262,1,8,0:0:0:0:
320,192,17581,1,0,0:0:0:0:
192,192,17900,1,2,0:0:0:0:
64,192,17900,1,8,0:0:0:0:
320,192,18219,1,0,0:0:0:0:
448,192,18538,1,8,0:0:0:0:
192,192,18538,1,2,0:0:0:0:
64,192,18858,1,0,0:0:0:0:
192,192,19177,1,2,0:0:0:0:
320,192,19177,1,8,0:0:0:0:
448,192,19496,1,2,0:0:0:0:
192,192,19815,1,8,0:0:0:0:
64,192,19815,1,2,0:0:0:0:
320,192,20134,1,2,0:0:0:0:
448,192,20453,1,8,0:0:0:0:
64,192,20453,1,2,0:0:0:0:
64,192,20772,1,2,0:0:0:0:
320,192,20772,1,4,0:0:0:0:
192,192,21092,1,2,0:0:0:0:
448,192,21730,1,2,0:0:0:0:
64,192,22049,1,2,0:0:0:0:
320,192,22049,1,4,0:0:0:0:
448,192,22687,1,6,0:0:0:0:
64,192,22687,1,4,0:0:0:0:
192,192,23006,1,4,0:0:0:0:
320,192,23006,1,2,0:0:0:0:
448,192,23326,1,6,0:0:0:0:
192,192,23485,1,2,0:0:0:0:
320,192,23645,1,2,0:0:0:0:
64,192,23804,1,2,0:0:0:0:
448,192,23964,1,2,0:0:0:0:
192,192,24124,1,2,0:0:0:0:
64,192,24283,1,2,0:0:0:0:
320,192,24443,1,2,0:0:0:0:
448,192,24602,1,2,0:0:0:0:
320,192,24762,1,2,0:0:0:0:
192,192,24921,1,2,0:0:0:0:
64,192,25081,1,2,0:0:0:0:
192,192,25241,128,2,25560:0:0:0:0:
448,192,25560,128,2,25879:0:0:0:0:
64,192,25879,128,6,26836:0:0:0:0:
320,192,26836,128,0,27155:0:0:0:0:
448,192,27155,128,0,27794:0:0:0:0:
64,192,27794,128,0,28432:0:0:0:0:
192,192,28432,128,0,30347:0:0:0:0:
320,192,30347,1,0,0:0:0:0:
64,192,30666,1,0,0:0:0:0:
448,192,30985,128,0,31783:0:0:0:0:
64,192,31783,1,0,0:0:0:0:
320,192,31943,1,0,0:0:0:0:
64,192,32102,1,0,0:0:0:0:
320,192,32262,128,0,32741:0:0:0:0:
64,192,32741,128,0,33219:0:0:0:0:
192,192,33219,128,0,33538:0:0:0:0:
448,192,33538,128,0,35453:0:0:0:0:
64,192,35453,1,0,0:0:0:0:
320,192,35772,1,0,0:0:0:0:
192,192,36092,1,0,0:0:0:0:
448,192,36092,1,0,0:0:0:0:
320,192,36411,1,0,0:0:0:0:
64,192,36730,1,0,0:0:0:0:
448,192,37049,1,0,0:0:0:0:
192,192,37368,1,0,0:0:0:0:
448,192,37687,1,0,0:0:0:0:
320,192,38006,1,0,0:0:0:0:
64,192,38326,1,0,0:0:0:0:
448,192,38645,1,0,0:0:0:0:
192,192,38964,1,0,0:0:0:0:
320,192,39283,1,0,0:0:0:0:
64,192,39602,1,0,0:0:0:0:
448,192,39921,1,0,0:0:0:0:
192,192,40241,1,0,0:0:0:0:
320,192,40560,1,0,0:0:0:0:
448,192,40879,1,0,0:0:0:0:
320,192,41198,1,2,0:0:0:0:
64,192,41198,128,4,42475:0:0:0:0:
448,192,42475,128,2,43751:0:0:0:0:
192,192,42475,1,4,0:0:0:0:
64,192,43113,1,6,0:0:0:0:
320,192,43751,1,4,0:0:0:0:
64,192,43751,1,2,0:0:0:0:
64,192,44389,1,2,0:0:0:0:
320,192,44389,1,4,0:0:0:0:
448,192,45028,1,6,0:0:0:0:
64,192,45347,1,6,0:0:0:0:
448,192,45666,1,4,0:0:0:0:
192,192,45985,1,8,0:0:0:0:
320,192,45985,1,2,0:0:0:0:
64,192,46304,1,2,0:0:0:0:
448,192,46304,1,4,0:0:0:0:
448,192,46624,1,8,0:0:0:0:
320,192,46624,1,2,0:0:0:0:
192,192,46943,1,2,0:0:0:0:
64,192,47262,1,2,0:0:0:0:
448,192,47262,1,8,0:0:0:0:
320,192,47581,1,0,0:0:0:0:
192,192,47900,1,8,0:0:0:0:
64,192,47900,1,2,0:0:0:0:
320,192,48219,1,0,0:0:0:0:
448,192,48538,1,8,0:0:0:0:
64,192,48538,1,2,0:0:0:0:
320,192,48858,1,0,0:0:0:0:
192,192,49177,1,8,0:0:0:0:
64,192,49177,1,2,0:0:0:0:
320,192,49496,1,0,0:0:0:0:
448,192,49815,1,8,0:0:0:0:
192,192,49815,1,2,0:0:0:0:
64,192,50134,1,2,0:0:0:0:
192,192,50294,1,2,0:0:0:0:
320,192,50453,1,2,0:0:0:0:
64,192,50453,1,8,0:0:0:0:
448,192,50613,1,2,0:0:0:0:
320,192,50772,1,2,0:0:0:0:
64,192,51092,1,8,0:0:0:0:
448,192,51092,1,2,0:0:0:0:
320,192,51251,1,2,0:0:0:0:
192,192,51411,1,2,0:0:0:0:
448,192,51730,1,2,0:0:0:0:
64,192,51730,1,8,0:0:0:0:
320,192,52049,1,0,0:0:0:0:
64,192,52368,1,2,0:0:0:0:
192,192,52368,1,8,0:0:0:0:
448,192,52687,1,2,0:0:0:0:
192,192,53006,1,8,0:0:0:0:
320,192,53006,1,2,0:0:0:0:
64,192,53326,1,2,0:0:0:0:
320,192,53645,1,8,0:0:0:0:
448,192,53645,1,2,0:0:0:0:
64,192,53964,1,0,0:0:0:0:
192,192,54283,1,8,0:0:0:0:
448,192,54283,1,2,0:0:0:0:
320,192,54602,1,0,0:0:0:0:
64,192,54921,1,8,0:0:0:0:
448,192,54921,1,2,0:0:0:0:
192,192,55241,1,0,0:0:0:0:
320,192,55560,1,2,0:0:0:0:
64,192,55560,1,8,0:0:0:0:
448,192,55879,1,2,0:0:0:0:
64,192,56038,1,2,0:0:0:0:
192,192,56198,1,8,0:0:0:0:
320,192,56358,1,2,0:0:0:0:
64,192,56517,1,2,0:0:0:0:
448,192,56517,1,4,0:0:0:0:
192,192,56836,1,2,0:0:0:0:
320,192,56836,1,8,0:0:0:0:
448,192,57155,1,0,0:0:0:0:
64,192,57475,1,2,0:0:0:0:
320,192,57475,1,8,0:0:0:0:
192,192,57794,1,0,0:0:0:0:
64,192,58113,1,2,0:0:0:0:
448,192,58113,1,8,0:0:0:0:
320,192,58432,1,0,0:0:0:0:
192,192,58751,1,2,0:0:0:0:
64,192,58751,1,8,0:0:0:0:
448,192,59070,1,0,0:0:0:0:
192,192,59389,1,2,0:0:0:0:
320,192,59389,1,8,0:0:0:0:
64,192,59709,1,0,0:0:0:0:
192,192,60028,1,8,0:0:0:0:
448,192,60028,1,2,0:0:0:0:
320,192,60347,1,2,0:0:0:0:
192,192,60506,1,2,0:0:0:0:
64,192,60666,1,2,0:0:0:0:
448,192,60666,1,8,0:0:0:0:
192,192,60826,1,2,0:0:0:0:
320,192,60985,1,2,0:0:0:0:
192,192,61304,1,2,0:0:0:0:
64,192,61304,1,8,0:0:0:0:
448,192,61464,1,0,0:0:0:0:
320,192,61624,1,4,0:0:0:0:
192,192,61624,1,2,0:0:0:0:
64,192,61943,1,2,0:0:0:0:
192,192,61943,1,8,0:0:0:0:
448,192,62262,1,0,0:0:0:0:
320,192,62581,1,8,0:0:0:0:
64,192,62581,1,2,0:0:0:0:
192,192,62900,1,2,0:0:0:0:
448,192,62900,1,4,0:0:0:0:
320,192,63219,1,2,0:0:0:0:
448,192,63219,1,8,0:0:0:0:
64,192,63538,1,2,0:0:0:0:
320,192,63538,1,0,0:0:0:0:
192,192,63858,1,10,0:0:0:0:
320,192,64177,1,4,0:0:0:0:
448,192,64177,1,0,0:0:0:0:
192,192,64496,1,2,0:0:0:0:
64,192,64496,1,8,0:0:0:0:
320,192,64815,1,2,0:0:0:0:
448,192,65134,1,2,0:0:0:0:
192,192,65134,1,2,0:0:0:0:
64,192,65613,1,4,0:0:0:0:
320,192,65613,1,2,0:0:0:0:
64,192,65932,1,4,0:0:0:0:
320,192,65932,1,2,0:0:0:0:
64,192,66251,1,6,0:0:0:0:
320,192,66251,1,4,0:0:0:0:
448,192,66411,128,2,66730:0:0:0:0:
64,192,66730,1,4,0:0:0:0:
192,192,66730,1,2,0:0:0:0:
320,192,66889,1,0,0:0:0:0:
64,192,67049,1,2,0:0:0:0:
448,192,67049,1,8,0:0:0:0:
192,192,67368,1,0,0:0:0:0:
320,192,67687,1,2,0:0:0:0:
448,192,67687,1,8,0:0:0:0:
64,192,68006,1,0,0:0:0:0:
320,192,68166,1,0,0:0:0:0:
192,192,68326,1,2,0:0:0:0:
448,192,68326,1,8,0:0:0:0:
64,192,68645,1,0,0:0:0:0:
320,192,68964,1,2,0:0:0:0:
192,192,68964,1,8,0:0:0:0:
448,192,69283,1,0,0:0:0:0:
192,192,69443,1,0,0:0:0:0:
64,192,69602,1,8,0:0:0:0:
320,192,69602,1,2,0:0:0:0:
192,192,69921,1,0,0:0:0:0:
320,192,70241,1,8,0:0:0:0:
448,192,70241,1,2,0:0:0:0:
64,192,70560,1,0,0:0:0:0:
192,192,70719,1,0,0:0:0:0:
320,192,70879,1,2,0:0:0:0:
448,192,70879,1,8,0:0:0:0:
64,192,71038,1,0,0:0:0:0:
192,192,71198,1,0,0:0:0:0:
448,192,71517,128,2,71836:0:0:0:0:
320,192,71517,1,8,0:0:0:0:
64,192,71836,1,0,0:0:0:0:
320,192,72155,1,8,0:0:0:0:
448,192,72315,1,0,0:0:0:0:
192,192,72634,1,0,0:0:0:0:
64,192,72794,1,8,0:0:0:0:
320,192,73113,1,0,0:0:0:0:
448,192,73272,1,0,0:0:0:0:
64,192,73592,1,0,0:0:0:0:
448,192,73751,1,0,0:0:0:0:
64,192,73911,1,0,0:0:0:0:
320,192,74070,1,10,0:0:0:0:
448,192,74230,1,0,0:0:0:0:
192,192,74389,1,0,0:0:0:0:
320,192,74549,1,0,0:0:0:0:
64,192,74709,1,10,0:0:0:0:
448,192,74868,1,0,0:0:0:0:
192,192,75028,1,0,0:0:0:0:
448,192,75187,1,0,0:0:0:0:
64,192,75347,1,10,0:0:0:0:
320,192,75506,1,0,0:0:0:0:
192,192,75666,1,2,0:0:0:0:
448,192,75905,1,2,0:0:0:0:
64,192,76145,1,0,0:0:0:0:
448,192,76304,1,2,0:0:0:0:
192,192,76544,1,2,0:0:0:0:
320,192,76783,1,2,0:0:0:0:
192,192,76943,1,0,0:0:0:0:
320,192,77102,1,2,0:0:0:0:
448,192,77262,1,4,0:0:0:0:
64,192,77262,1,2,0:0:0:0:
320,192,77581,1,0,0:0:0:0:
192,192,77900,1,2,0:0:0:0:
64,192,77900,1,8,0:0:0:0:
448,192,78219,1,0,0:0:0:0:
64,192,78379,1,0,0:0:0:0:
320,192,78538,1,8,0:0:0:0:
192,192,78538,1,2,0:0:0:0:
448,192,78858,1,0,0:0:0:0:
64,192,79177,1,8,0:0:0:0:
320,192,79177,1,2,0:0:0:0:
448,192,79336,1,0,0:0:0:0:
192,192,79496,1,0,0:0:0:0:
320,192,79815,1,8,0:0:0:0:
448,192,79815,1,2,0:0:0:0:
64,192,80134,1,0,0:0:0:0:
192,192,80453,1,2,0:0:0:0:
320,192,80453,1,8,0:0:0:0:
448,192,80772,1,2,0:0:0:0:
64,192,80932,1,2,0:0:0:0:
448,192,81092,1,2,0:0:0:0:
64,192,81251,1,2,0:0:0:0:
448,192,81411,1,4,0:0:0:0:
192,192,81411,1,2,0:0:0:0:
64,192,81650,1,4,0:0:0:0:
320,192,81650,1,2,0:0:0:0:
192,192,81889,1,2,0:0:0:0:
320,192,81889,1,4,0:0:0:0:
64,192,82049,1,2,0:0:0:0:
448,192,82049,1,4,0:0:0:0:
320,192,82209,1,2,0:0:0:0:
64,192,82368,1,2,0:0:0:0:
448,192,82528,1,2,0:0:0:0:
192,192,82687,1,2,0:0:0:0:
448,192,82847,1,2,0:0:0:0:
64,192,83006,1,10,0:0:0:0:
320,192,83166,1,2,0:0:0:0:
448,192,83326,1,4,0:0:0:0:
64,192,83326,1,2,0:0:0:0:
192,192,83485,1,2,0:0:0:0:
320,192,83645,1,2,0:0:0:0:
64,192,83804,1,2,0:0:0:0:
448,192,83964,1,6,0:0:0:0:
320,192,84124,1,2,0:0:0:0:
64,192,84283,1,0,0:0:0:0:
192,192,84443,1,0,0:0:0:0:
448,192,84602,128,4,85241:0:0:0:0:
64,192,85241,1,4,0:0:0:0:
64,192,85480,1,4,0:0:0:0:
320,192,85719,1,6,0:0:0:0:
64,192,86038,1,2,0:0:0:0:
448,192,86038,1,4,0:0:0:0:
320,192,86278,1,2,0:0:0:0:
64,192,86278,1,4,0:0:0:0:
192,192,86517,1,2,0:0:0:0:
448,192,86517,1,0,0:0:0:0:
320,192,86756,1,2,0:0:0:0:
64,192,86756,1,4,0:0:0:0:
192,192,86996,1,2,0:0:0:0:
448,192,86996,1,4,0:0:0:0:
320,192,87315,1,2,0:0:0:0:
448,192,87315,1,4,0:0:0:0:
192,192,87554,1,2,0:0:0:0:
64,192,87554,1,4,0:0:0:0:
320,192,87794,1,2,0:0:0:0:
448,192,87794,1,4,0:0:0:0:
192,192,88033,1,2,0:0:0:0:
64,192,88033,1,4,0:0:0:0:
448,192,88272,1,0,0:0:0:0:
64,192,88272,1,0,0:0:0:0:
320,192,88432,1,2,0:0:0:0:
192,192,88432,1,4,0:0:0:0:
448,192,88751,1,8,0:0:0:0:
320,192,88751,1,2,0:0:0:0:
64,192,89070,1,0,0:0:0:0:
192,192,89389,1,2,0:0:0:0:
320,192,89389,1,8,0:0:0:0:
448,192,89709,1,0,0:0:0:0:
64,192,90028,1,8,0:0:0:0:
320,192,90028,1,2,0:0:0:0:
192,192,90347,1,0,0:0:0:0:
320,192,90666,1,2,0:0:0:0:
448,192,90666,1,8,0:0:0:0:
192,192,90985,1,0,0:0:0:0:
448,192,91304,1,8,0:0:0:0:
64,192,91304,1,2,0:0:0:0:
320,192,91624,1,0,0:0:0:0:
192,192,91943,1,8,0:0:0:0:
64,192,91943,1,2,0:0:0:0:
320,192,92262,1,0,0:0:0:0:
192,192,92421,1,0,0:0:0:0:
448,192,92581,1,8,0:0:0:0:
64,192,92581,1,2,0:0:0:0:
320,192,92741,1,0,0:0:0:0:
192,192,92900,1,0,0:0:0:0:
320,192,93219,1,2,0:0:0:0:
448,192,93219,1,8,0:0:0:0:
64,192,93538,1,4,0:0:0:0:
448,192,93538,1,2,0:0:0:0:
192,192,93858,1,8,0:0:0:0:
320,192,93858,1,2,0:0:0:0:
448,192,94177,1,0,0:0:0:0:
192,192,94496,1,2,0:0:0:0:
64,192,94496,1,8,0:0:0:0:
320,192,94815,1,0,0:0:0:0:
64,192,95134,1,2,0:0:0:0:
448,192,95134,1,8,0:0:0:0:
192,192,95453,1,0,0:0:0:0:
64,192,95772,1,2,0:0:0:0:
448,192,95772,1,8,0:0:0:0:
320,192,96092,1,0,0:0:0:0:
192,192,96411,1,2,0:0:0:0:
64,192,96411,1,8,0:0:0:0:
448,192,96730,1,2,0:0:0:0:
192,192,97049,1,8,0:0:0:0:
320,192,97049,1,2,0:0:0:0:
64,192,97368,1,2,0:0:0:0:
448,192,97528,1,2,0:0:0:0:
192,192,97687,1,0,0:0:0:0:
64,192,97767,1,2,0:0:0:0:
320,192,97927,1,2,0:0:0:0:
448,192,97927,1,4,0:0:0:0:
192,192,98166,128,2,98645:0:0:0:0:
64,192,98645,1,2,0:0:0:0:
448,192,98645,1,4,0:0:0:0:
192,192,98964,1,2,0:0:0:0:
320,192,98964,1,8,0:0:0:0:
448,192,99283,1,0,0:0:0:0:
192,192,99602,1,8,0:0:0:0:
64,192,99602,1,2,0:0:0:0:
320,192,99921,1,0,0:0:0:0:
64,192,100241,1,8,0:0:0:0:
448,192,100241,1,2,0:0:0:0:
192,192,100560,1,0,0:0:0:0:
320,192,100879,1,2,0:0:0:0:
448,192,100879,1,8,0:0:0:0:
64,192,101198,1,0,0:0:0:0:
192,192,101517,1,2,0:0:0:0:
320,192,101517,1,8,0:0:0:0:
448,192,101836,1,0,0:0:0:0:
64,192,102155,1,8,0:0:0:0:
192,192,102155,1,2,0:0:0:0:
448,192,102475,1,6,0:0:0:0:
64,192,102634,1,2,0:0:0:0:
320,192,102794,1,2,0:0:0:0:
192,192,102953,1,2,0:0:0:0:
448,192,103113,1,6,0:0:0:0:
64,192,103272,1,2,0:0:0:0:
320,192,103432,128,6,103751:0:0:0:0:
64,192,103751,1,2,0:0:0:0:
448,192,103751,1,4,0:0:0:0:
192,192,103911,1,0,0:0:0:0:
448,192,104070,1,2,0:0:0:0:
320,192,104230,1,0,0:0:0:0:
192,192,104389,1,2,0:0:0:0:
448,192,104629,1,2,0:0:0:0:
64,192,104868,1,2,0:0:0:0:
192,192,105028,1,2,0:0:0:0:
320,192,105028,1,4,0:0:0:0:
320,192,105347,1,2,0:0:0:0:
448,192,105347,1,4,0:0:0:0:
64,192,105666,1,4,0:0:0:0:
448,192,105666,1,2,0:0:0:0:
64,192,105985,1,2,0:0:0:0:
192,192,105985,1,4,0:0:0:0:
448,192,106304,1,2,0:0:0:0:
64,192,106464,1,2,0:0:0:0:
320,192,106624,1,2,0:0:0:0:
192,192,106783,1,2,0:0:0:0:
448,192,106943,128,6,107421:0:0:0:0:
64,192,107421,1,2,0:0:0:0:
192,192,107741,1,2,0:0:0:0:
320,192,107741,1,0,0:0:0:0:
192,192,108060,1,2,0:0:0:0:
320,192,108060,1,0,0:0:0:0:
192,192,108379,1,2,0:0:0:0:
320,192,108379,1,0,0:0:0:0:
64,192,108538,128,0,108858:0:0:0:0:
448,192,108858,1,2,0:0:0:0:
192,192,108858,1,4,0:0:0:0:
64,192,109496,1,4,0:0:0:0:
320,192,109496,1,2,0:0:0:0:
320,192,110134,1,4,0:0:0:0:
448,192,110134,1,2,0:0:0:0:
320,192,110453,1,2,0:0:0:0:
448,192,110453,1,4,0:0:0:0:
192,192,110693,1,2,0:0:0:0:
64,192,110693,1,4,0:0:0:0:
448,192,110932,1,0,0:0:0:0:
320,192,111092,1,4,0:0:0:0:
64,192,111092,1,2,0:0:0:0:
