osu file format v13

[General]
AudioFilename: Remix.mp3
AudioLeadIn: 0
PreviewTime: 46329
Countdown: 0
SampleSet: Normal
StackLeniency: 0.7
Mode: 0
LetterboxInBreaks: 0
WidescreenStoryboard: 0

[Editor]
DistanceSpacing: 1.2
BeatDivisor: 4
GridSize: 4
TimelineZoom: 1.7

[Metadata]
Title:Shanghai Kouchakan ~ Chinese Tea Orchid Remix
TitleUnicode:上海紅茶館 ~ Chinese Tea Orchid Remix
Artist:Yooh
ArtistUnicode:Yooh
Creator:Gamu
Version:ADVANCED
Source:SOUND VOLTEX II -infinite infection-
Tags:東方 東方紅魔郷REMIX 東方紅魔郷リミックス楽曲コンテスト Touhou Koumakyou Gakkyoku Contest SDVX FLOOR konami ZUN ULTIMATE TRACKS 紅美鈴 Hong Meiling
BeatmapID:442808
BeatmapSetID:184498

[Difficulty]
HPDrainRate:5
CircleSize:4
OverallDifficulty:6
ApproachRate:7
SliderMultiplier:1.4
SliderTickRate:2

[Events]
//Background and Video events
0,0,"4052106.jpg",0,0
//Break Periods
//Storyboard Layer 0 (Background)
//Storyboard Layer 1 (Fail)
//Storyboard Layer 2 (Pass)
//Storyboard Layer 3 (Foreground)
//Storyboard Sound Samples
//Background Colour Transformations
3,100,163,162,255

[TimingPoints]
1649,319.148936170213,4,1,1,50,1,0
5159,-100,4,1,2,70,0,0
5478,-100,4,1,1,60,0,1
5558,-100,4,1,1,60,0,0
6436,-100,4,1,3,50,0,0
6595,-100,4,1,1,60,0,0
8989,-100,4,1,3,50,0,0
9149,-100,4,1,1,60,0,0
13457,-100,4,1,3,50,0,0
13617,-100,4,1,1,60,0,0
16649,-100,4,1,3,50,0,0
16808,-100,4,1,1,60,0,0
25904,-100,4,2,1,70,0,0
26542,-200,4,2,1,50,0,0
36117,-133.333333333333,4,3,1,50,0,0
38670,-133.333333333333,4,3,1,60,0,0
41223,-100,4,1,1,50,0,0
42500,-100,4,1,1,60,0,0
43776,-100,4,1,1,50,0,0
45053,-100,4,1,1,60,0,0
46010,-100,4,1,2,70,0,0
46329,-100,4,1,1,70,0,1
47287,-100,4,1,3,60,0,1
47446,-100,4,1,1,70,0,1
54946,-100,4,1,3,60,0,1
55106,-100,4,1,1,70,0,1
57500,-100,4,1,3,60,0,1
57659,-100,4,1,1,70,0,1
62606,-100,4,1,3,60,0,1
62766,-100,4,1,1,70,0,1
63244,-100,4,1,3,60,0,1
63404,-100,4,1,1,70,0,1
66675,-100,4,1,1,70,0,0
66755,-100,4,1,1,60,0,1
66835,-100,4,1,1,60,0,0
67712,-100,4,1,3,50,0,0
67872,-100,4,1,1,60,0,0
68989,-100,4,1,3,50,0,0
69149,-100,4,1,1,60,0,0
70266,-100,4,1,3,50,0,0
70425,-100,4,1,1,60,0,0
77925,-100,4,1,3,50,0,0
78085,-100,4,1,1,60,0,0
79202,-100,4,1,3,50,0,0
79361,-100,4,1,1,60,0,0
79840,-100,4,1,3,50,0,0
80000,-100,4,1,1,60,0,0
80478,-100,4,1,3,50,0,0
80638,-100,4,1,1,60,0,0
83031,-100,4,1,3,50,0,0
83191,-100,4,1,1,60,0,0
83670,-100,4,1,3,50,0,0
83829,-100,4,1,1,60,0,0
86063,-100,4,1,1,50,0,0
88297,-100,4,1,1,60,0,0
88457,-100,4,1,1,70,0,1
91968,-100,4,1,3,60,0,1
92127,-100,4,1,1,70,0,1
97074,-100,4,1,3,60,0,1
97234,-100,4,1,1,70,0,1
108883,-100,4,1,1,70,0,0
109042,-100,4,2,1,30,0,0
109361,-100,4,1,1,70,0,0
111117,-133.333333333333,4,1,2,70,0,1
111196,-133.333333333333,4,1,2,70,0,0

[Colours]
Combo1 : 0,232,116
Combo2 : 255,128,128
Combo3 : 176,255,176
Combo4 : 255,128,255

[HitObjects]
352,168,2287,6,0,L|348:128,2,35,0|0|0,0:0|0:0|0:0,0:0:0:0:
300,232,2606,2,0,L|296:266,2,35,0|0|0,0:0|0:0|0:0,0:0:0:0:
228,188,2925,6,0,P|192:184|152:192,1,70,4|0,0:0|0:0,0:0:0:0:
56,320,3404,1,0,0:0:0:0:
56,320,3484,1,0,0:0:0:0:
56,320,3563,2,0,P|60:268|44:212,2,105,4|0|0,0:0|0:0|0:0,0:0:0:0:
140,312,4202,6,0,L|212:316,1,70,4|0,0:0|0:0,0:0:0:0:
276,260,4521,2,0,P|327:251|378:263,1,105,4|4,0:0|0:0,0:0:0:0:
492,204,5000,2,0,L|496:180,4,17.5,0|0|0|0|4,0:0|0:0|0:0|0:0|0:0,0:0:0:0:
420,356,5478,6,0,P|384:364|348:360,1,70,6|0,0:0|0:0,0:0:0:0:
271,328,5797,2,0,P|279:294|276:260,1,70,8|0,0:0|0:0,0:0:0:0:
220,196,6117,2,0,L|116:204,2,105,2|0|0,0:0|0:0|0:0,0:0:0:0:
304,180,6755,6,0,L|312:108,1,70,2|0,0:0|0:0,0:0:0:0:
312,196,7074,2,0,L|384:204,1,70,8|0,0:0|0:0,0:0:0:0:
484,100,7393,2,0,L|476:28,1,70,2|0,0:0|0:0,0:0:0:0:
476,116,7712,2,0,L|404:124,1,70,8|0,0:0|0:0,0:0:0:0:
388,40,8031,6,0,P|352:32|316:36,1,70,2|0,0:0|0:0,0:0:0:0:
252,88,8351,2,0,P|216:96|180:92,1,70,8|0,0:0|0:0,0:0:0:0:
100,72,8670,2,0,B|56:56|16:88|16:88|4:72,2,105,2|0|0,0:0|0:0|0:0,0:0:0:0:
72,152,9308,6,0,P|60:220|84:292,1,140,2|8,0:0|0:0,0:0:0:0:
152,332,9787,1,0,0:0:0:0:
232,304,9946,2,0,L|304:308,1,70,2|0,0:0|0:0,0:0:0:0:
372,260,10266,2,0,P|378:225|374:191,1,70,8|0,0:0|0:0,0:0:0:0:
320,128,10585,6,0,P|372:108|444:148,1,140,2|8,0:0|0:0,0:0:0:0:
452,228,11063,1,0,0:0:0:0:
372,260,11223,2,0,L|268:272,1,105,2|0,0:0|0:0,0:0:0:0:
276,232,11542,2,0,L|196:240,1,70,8|0,0:0|0:0,0:0:0:0:
124,244,11861,6,0,P|56:240|4:188,1,140,2|8,0:0|0:0,0:0:0:0:
20,108,12340,1,0,0:0:0:0:
92,152,12500,2,0,P|160:160|232:140,1,140,2|8,0:0|0:0,0:0:0:0:
260,64,12978,1,0,0:0:0:0:
308,132,13138,6,0,L|412:140,2,105,2|0|0,0:0|0:0|0:0,0:0:0:0:
340,56,13776,2,0,L|481:69,1,140,2|8,0:0|0:0,0:0:0:0:
492,152,14255,1,0,0:0:0:0:
460,228,14414,6,0,P|456:264|464:300,1,70,2|0,0:0|0:0,0:0:0:0:
360,336,14734,2,0,P|364:300|356:264,1,70,8|0,0:0|0:0,0:0:0:0:
292,216,15053,2,0,P|256:212|220:216,1,70,2|0,0:0|0:0,0:0:0:0:
154,267,15372,2,0,P|147:301|152:336,1,70,8|0,0:0|0:0,0:0:0:0:
232,304,15691,6,0,L|216:148,1,140,6|8,0:0|0:0,0:0:0:0:
36,64,16329,2,0,P|20:112|36:164,2,105,2|0|0,0:0|0:0|0:0,0:0:0:0:
104,116,16968,5,2,0:0:0:0:
256,48,17287,1,8,0:0:0:0:
408,116,17606,1,2,0:0:0:0:
340,268,17925,1,8,0:0:0:0:
172,268,18244,6,0,L|100:276,1,70,2|0,0:0|0:0,0:0:0:0:
144,348,18563,2,0,L|216:356,1,70,8|0,0:0|0:0,0:0:0:0:
296,336,18883,2,0,P|312:284|304:224,1,105,2|0,0:0|0:0,0:0:0:0:
340,268,19202,2,0,L|348:192,1,70,8|0,0:0|0:0,0:0:0:0:
356,116,19521,6,0,P|324:104|284:100,1,70,2|0,0:0|0:0,0:0:0:0:
220,48,19840,2,0,P|208:80|204:120,1,70,8|0,0:0|0:0,0:0:0:0:
216,200,20159,1,2,0:0:0:0:
216,200,20319,1,0,0:0:0:0:
264,268,20478,1,8,0:0:0:0:
264,268,20638,1,0,0:0:0:0:
212,332,20797,6,0,L|140:336,1,70,6|0,0:0|0:0,0:0:0:0:
108,256,21117,2,0,L|36:260,1,70,8|0,0:0|0:0,0:0:0:0:
8,180,21436,2,0,P|4:128|20:72,1,105,0|0,0:0|0:0,0:0:0:0:
52,52,21755,2,0,L|132:44,1,70,10|0,0:0|0:0,0:0:0:0:
192,92,22074,6,0,P|228:96|264:88,1,70,6|0,0:0|0:0,0:0:0:0:
328,40,22393,2,0,P|364:36|400:44,1,70,8|0,0:0|0:0,0:0:0:0:
460,96,22712,2,0,L|468:236,1,140,6|14,0:0|0:0,0:0:0:0:
308,284,23351,6,0,P|272:284|240:272,1,70,6|2,0:0|0:0,0:0:0:0:
176,216,23670,1,10,0:0:0:0:
176,216,23829,1,2,0:0:0:0:
96,236,23989,2,0,P|96:200|108:168,1,70,6|2,0:0|0:0,0:0:0:0:
172,116,24308,1,10,0:0:0:0:
172,116,24468,1,2,0:0:0:0:
240,164,24627,6,0,L|280:172,3,35,6|2|2|2,0:0|0:0|0:0|0:0,0:0:0:0:
316,184,24946,2,0,L|350:177,3,35,2|2|2|2,0:0|0:0|0:0|0:0,0:0:0:0:
392,168,25266,2,0,P|404:136|400:96,1,70,2|2,0:0|0:0,0:0:0:0:
348,36,25585,2,0,L|320:32,8,17.5,2|0|0|0|0|0|0|0|6,0:0|0:0|0:0|0:0|0:0|0:0|0:0|0:0|0:1,0:0:0:0:
480,140,26542,5,2,0:0:0:0:
504,220,26861,1,0,0:0:0:0:
456,288,27180,2,0,P|452:324|460:364,2,70,2|0|2,0:0|0:0|0:0,0:0:0:0:
316,192,28457,6,0,P|280:188|244:200,1,70,2|0,0:0|0:0,0:0:0:0:
196,264,29095,1,2,0:0:0:0:
204,348,29414,1,0,0:0:0:0:
273,299,29734,1,2,0:0:0:0:
104,292,30372,2,0,P|100:257|108:223,1,70,2|0,0:0|0:0,0:0:0:0:
164,160,31010,6,0,L|152:88,1,70,2|0,0:0|0:0,0:0:0:0:
212,28,31649,1,2,0:0:0:0:
252,24,31808,2,0,L|296:20,2,35,0|0|0,0:0|0:0|0:0,0:0:0:0:
236,64,32287,2,0,P|232:98|240:132,1,70,2|0,0:0|0:0,0:0:0:0:
272,160,32766,1,0,0:0:0:0:
312,176,32925,2,0,L|384:168,1,70,2|0,0:0|0:0,0:0:0:0:
336,272,33563,6,0,L|264:264,1,70,2|0,0:0|0:0,0:0:0:0:
256,348,34202,2,0,P|220:336|194:310,1,70,2|0,0:0|0:0,0:0:0:0:
168,236,34840,2,0,L|160:164,1,70,2|0,0:0|0:0,0:0:0:0:
244,156,35478,2,0,P|232:120|206:94,1,70,2|0,0:0|0:0,0:0:0:0:
132,68,36117,6,0,P|80:80|24:72,1,105.000004005432,12|0,0:0|0:0,0:0:0:0:
16,156,36595,1,0,0:0:0:0:
76,212,36755,2,0,P|84:264|72:316,1,105.000004005432,10|0,0:0|0:0,0:0:0:0:
152,348,37234,1,0,0:0:0:0:
228,316,37393,6,0,L|336:320,1,105.000004005432,10|0,0:0|0:0,0:0:0:0:
468,224,38031,1,10,0:0:0:0:
468,224,38191,1,0,0:0:0:0:
468,224,38351,2,0,L|464:164,1,52.5000020027161,0|0,0:0|0:0,0:0:0:0:
460,88,38670,6,0,L|408:96,1,52.5000020027161,10|0,0:0|0:0,0:0:0:0:
372,172,38989,2,0,L|320:164,1,52.5000020027161,0|0,0:0|0:0,0:0:0:0:
248,124,39308,2,0,P|240:96|244:68,1,52.5000020027161,10|0,0:0|0:0,0:0:0:0:
152,48,39627,2,0,P|160:76|156:104,1,52.5000020027161,10|0,0:0|0:0,0:0:0:0:
128,180,39946,5,10,0:0:0:0:
128,180,40266,1,10,0:0:0:0:
128,180,40585,2,0,L|76:184,1,52.5000020027161,10|0,0:0|0:0,0:0:0:0:
32,272,40904,2,0,L|84:276,1,52.5000020027161,10|0,0:0|0:0,0:0:0:0:
184,288,41223,6,0,P|196:320|192:360,1,70,6|2,0:0|0:0,0:0:0:0:
272,328,41542,2,0,P|269:293|281:260,1,70,2|2,0:0|0:0,0:0:0:0:
324,188,41861,2,0,P|356:176|396:180,1,70,2|2,0:0|0:0,0:0:0:0:
364,100,42180,2,0,P|329:102|296:90,1,70,2|2,0:0|0:0,0:0:0:0:
340,20,42500,6,0,P|375:18|408:30,1,70,6|2,0:0|0:0,0:0:0:0:
448,104,42819,2,0,P|440:140|416:164,1,70,2|2,0:0|0:0,0:0:0:0:
332,172,43138,2,0,P|301:151|288:119,1,70,2|2,0:0|0:0,0:0:0:0:
256,44,43457,2,0,L|219:38,3,35,2|2|2|2,0:0|0:0|0:0|0:0,0:0:0:0:
180,32,43776,5,6,0:0:0:0:
180,32,44414,1,6,0:0:0:0:
180,32,45053,5,6,0:0:0:0:
88,92,45372,1,6,0:0:0:0:
60,200,45691,2,0,L|63:234,3,35,6|2|2|2,0:0|0:0|0:0|0:0,0:0:0:0:
68,276,46010,1,6,0:0:0:0:
224,212,46329,6,0,P|292:208|352:252,1,140,6|8,0:0|0:0,0:0:0:0:
376,328,46808,1,0,0:0:0:0:
428,264,46968,2,0,L|436:156,2,105,2|0|0,0:0|0:0|0:0,0:0:0:0:
376,328,47606,6,0,P|344:336|304:332,1,70,2|0,0:0|0:0,0:0:0:0:
240,280,47925,1,8,0:0:0:0:
256,196,48085,1,0,0:0:0:0:
188,148,48244,2,0,P|132:144|92:216,1,140,2|8,0:0|0:0,0:0:0:0:
8,228,48723,1,0,0:0:0:0:
24,146,48883,6,0,B|52:102|34:49|34:49|49:63|66:73,1,140,2|8,0:0|0:0,0:0:0:0:
140,104,49361,1,0,0:0:0:0:
204,52,49521,2,0,P|252:44|312:56,1,105,2|0,0:0|0:0,0:0:0:0:
340,80,49840,2,0,L|352:8,1,70,8|0,0:0|0:0,0:0:0:0:
428,48,50159,6,0,L|439:117,1,70,2|0,0:0|0:0,0:0:0:0:
452,200,50478,2,0,P|444:232|448:272,1,70,8|0,0:0|0:0,0:0:0:0:
384,324,50797,2,0,L|314:312,1,70,2|0,0:0|0:0,0:0:0:0:
232,300,51117,2,0,P|200:308|160:304,1,70,10|2,0:0|0:0,0:0:0:0:
192,224,51436,6,0,P|176:288|104:328,1,140,2|8,0:0|0:0,0:0:0:0:
44,280,51914,1,0,0:0:0:0:
4,208,52074,2,0,P|-4:172|0:136,1,70,2|0,0:0|0:0,0:0:0:0:
12,100,52313,1,0,0:0:0:0:
12,100,52393,2,0,L|88:92,1,70,8|0,0:0|0:0,0:0:0:0:
156,136,52712,6,0,P|224:152|292:144,1,140,2|8,0:0|0:0,0:0:0:0:
420,256,53351,2,0,P|352:240|284:248,1,140,2|8,0:0|0:0,0:0:0:0:
144,340,53989,5,2,0:0:0:0:
144,340,54149,2,0,L|72:332,1,70,0|8,0:0|0:0,0:0:0:0:
20,268,54468,1,0,0:0:0:0:
20,268,54547,1,0,0:0:0:0:
20,268,54627,2,0,P|12:216|20:160,2,105,2|0|0,0:0|0:0|0:0,0:0:0:0:
104,264,55266,6,0,P|168:256|224:304,1,140,2|8,0:0|0:0,0:0:0:0:
276,240,55744,1,0,0:0:0:0:
304,320,55904,2,0,P|336:328|376:324,1,70,2|0,0:0|0:0,0:0:0:0:
444,280,56223,2,0,P|452:248|448:208,1,70,8|0,0:0|0:0,0:0:0:0:
408,140,56542,5,6,0:0:0:0:
408,140,56861,1,8,0:0:0:0:
332,180,57021,1,0,0:0:0:0:
252,156,57180,2,0,P|240:104|248:52,2,105,2|0|0,0:0|0:0|0:0,0:0:0:0:
276,236,57819,6,0,P|305:254|344:260,2,70,2|0|8,0:0|0:0|0:0,0:0:0:0:
332,180,58297,1,0,0:0:0:0:
408,216,58457,2,0,P|416:284|370:333,1,140,2|8,0:0|0:0,0:0:0:0:
288,324,58936,1,0,0:0:0:0:
212,292,59095,6,0,L|68:304,1,140,2|8,0:0|0:0,0:0:0:0:
12,244,59574,1,0,0:0:0:0:
68,184,59734,2,0,P|72:128|60:72,1,105,2|0,0:0|0:0,0:0:0:0:
36,48,60053,2,0,L|112:56,1,70,8|0,0:0|0:0,0:0:0:0:
188,68,60372,6,0,P|224:68|260:60,1,70,2|0,0:0|0:0,0:0:0:0:
328,16,60691,2,0,P|362:15|397:23,1,70,8|0,0:0|0:0,0:0:0:0:
456,84,61010,2,0,P|456:120|448:156,1,70,2|0,0:0|0:0,0:0:0:0:
404,224,61329,2,0,P|403:258|411:293,1,70,8|0,0:0|0:0,0:0:0:0:
308,288,61649,6,0,P|309:254|301:219,1,70,4|0,0:0|0:0,0:0:0:0:
256,148,61968,1,8,0:0:0:0:
216,224,62127,1,0,0:0:0:0:
140,264,62287,2,0,L|32:268,2,105,2|0|0,0:0|0:0|0:0,0:0:0:0:
212,308,62925,6,0,L|320:312,2,105,6|0|0,0:0|0:0|0:0,0:0:0:0:
140,264,63563,1,2,0:0:0:0:
108,184,63723,2,0,L|112:112,2,70,0|8|0,0:0|0:0|0:0,0:0:0:0:
140,264,64202,6,0,L|212:272,1,70,2|2,0:0|0:0,0:0:0:0:
288,236,64521,2,0,L|357:228,1,70,2|2,0:0|0:0,0:0:0:0:
328,148,64840,2,0,L|288:128,3,35,2|2|2|2,0:0|0:0|0:0|0:0,0:0:0:0:
260,112,65159,2,0,L|224:116,3,35,2|2|2|2,0:0|0:0|0:0|0:0,0:0:0:0:
184,120,65478,6,0,P|172:88|176:48,1,70,2|4,0:0|0:0,0:0:0:0:
344,36,65957,2,0,P|408:64|452:128,1,140,4|4,0:0|0:0,0:0:0:0:
448,204,66436,2,0,P|459:260|405:239,1,140,0|6,0:0|0:0,0:0:0:0:
328,208,66914,5,0,0:0:0:0:
280,276,67074,2,0,L|272:348,1,70,8|0,0:0|0:0,0:0:0:0:
192,320,67393,2,0,P|140:316|84:332,2,105,2|0|0,0:0|0:0|0:0,0:0:0:0:
204,236,68031,6,0,L|196:164,1,70,2|0,0:0|0:0,0:0:0:0:
124,120,68351,2,0,L|116:189,1,70,8|0,0:0|0:0,0:0:0:0:
108,272,68670,2,0,P|56:248|36:208,2,105,2|0|0,0:0|0:0|0:0,0:0:0:0:
180,320,69308,6,0,L|256:316,1,70,2|0,0:0|0:0,0:0:0:0:
357,247,69627,2,0,L|288:244,1,70,8|0,0:0|0:0,0:0:0:0:
204,236,69946,2,0,P|220:184|204:132,2,105,2|0|0,0:0|0:0|0:0,0:0:0:0:
136,188,70585,6,0,P|100:184|60:196,1,70,2|0,0:0|0:0,0:0:0:0:
36,272,70904,2,0,P|72:276|112:264,1,70,8|0,0:0|0:0,0:0:0:0:
136,188,71223,2,0,L|124:76,1,105,2|0,0:0|0:0,0:0:0:0:
148,48,71542,2,0,L|168:80,4,35,10|0|2|2|6,0:0|0:0|0:0|0:0|0:0,0:0:0:0:
288,140,72180,6,0,P|324:144|360:136,1,70,8|0,0:0|0:0,0:0:0:0:
424,88,72500,1,2,0:0:0:0:
448,168,72659,2,0,L|456:240,1,70,0|8,0:0|0:0,0:0:0:0:
408,308,72978,1,0,0:0:0:0:
328,280,73138,6,0,P|292:276|256:284,1,70,2|0,0:0|0:0,0:0:0:0:
204,344,73457,1,8,0:0:0:0:
144,288,73617,1,0,0:0:0:0:
64,272,73776,2,0,L|60:112,1,140,2|8,0:0|0:0,0:0:0:0:
208,52,74414,6,0,L|280:44,1,70,2|2,0:0|0:0,0:0:0:0:
252,124,74734,2,0,L|322:141,1,70,10|2,0:0|0:0,0:0:0:0:
268,206,75053,2,0,L|328:246,1,70,2|2,0:0|0:0,0:0:0:0:
254,288,75372,2,0,L|296:346,1,70,10|2,0:0|0:0,0:0:0:0:
212,360,75691,6,0,P|160:344|106:347,1,105,6|2,0:0|0:0,0:0:0:0:
40,240,76170,1,0,0:0:0:0:
40,240,76329,2,0,L|32:344,2,105,6|2|0,0:0|0:0|0:0,0:0:0:0:
124,220,76968,1,0,0:0:0:0:
120,52,77287,6,0,P|156:48|192:56,1,70,4|0,0:0|0:0,0:0:0:0:
256,112,77606,2,0,L|256:216,2,105,2|0|0,0:0|0:0|0:0,0:0:0:0:
319,54,78244,6,0,P|353:47|388:52,1,70,2|0,0:0|0:0,0:0:0:0:
356,128,78563,2,0,P|390:134|424:130,1,70,8|0,0:0|0:0,0:0:0:0:
488,188,78883,2,0,L|480:292,2,105,2|0|0,0:0|0:0|0:0,0:0:0:0:
436,124,79521,6,0,L|428:20,2,105,2|0|0,0:0|0:0|0:0,0:0:0:0:
376,184,80159,2,0,L|368:288,2,105,2|0|0,0:0|0:0|0:0,0:0:0:0:
324,120,80797,6,0,P|288:112|252:116,1,70,2|2,0:0|0:0,0:0:0:0:
188,168,81117,2,0,P|180:204|184:240,1,70,10|2,0:0|0:0,0:0:0:0:
216,316,81436,2,0,P|268:332|316:320,2,105,6|6|2,0:0|0:0|0:0,0:0:0:0:
268,248,82074,6,0,P|295:221|330:207,1,70,6|2,0:0|0:0,0:0:0:0:
408,224,82393,2,0,P|445:219|479:201,1,70,10|2,0:0|0:0,0:0:0:0:
420,140,82712,2,0,P|416:88|428:36,2,105,2|0|2,0:0|0:0|0:0,0:0:0:0:
408,224,83351,6,0,P|412:276|400:328,2,105,6|0|2,0:0|0:0|0:0,0:0:0:0:
344,172,83989,2,0,P|293:160|240:164,1,105,6|0,0:0|0:0,0:0:0:0:
204,184,84308,2,0,L|184:216,3,35,10|2|2|2,0:0|0:0|0:0|0:0,0:0:0:0:
168,252,84627,6,0,L|172:288,3,35,2|2|2|2,0:0|0:0|0:0|0:0,0:0:0:0:
184,328,84946,2,0,L|220:344,3,35,10|2|2|2,0:0|0:0|0:0|0:0,0:0:0:0:
256,332,85266,2,0,B|292:316|324:332|324:332|344:296,2,105,2|2|2,0:0|0:0|0:0,0:0:0:0:
92,308,86063,6,0,P|76:256|88:204,1,105,2|2,0:0|0:0,0:0:0:0:
200,152,86542,2,0,P|210:202|194:252,1,105,2|2,0:0|0:0,0:0:0:0:
92,308,87021,1,2,0:0:0:0:
256,344,87340,6,0,P|308:348|360:340,1,105,2|2,0:0|0:0,0:0:0:0:
344,212,87819,2,0,P|292:204|240:208,1,105,2|2,0:0|0:0,0:0:0:0:
132,268,88297,1,2,0:0:0:0:
88,196,88457,6,0,P|72:128|96:64,1,140,6|8,0:0|0:0,0:0:0:0:
160,12,88936,1,0,0:0:0:0:
212,80,89095,2,0,P|260:84|312:64,1,105,2|0,0:0|0:0,0:0:0:0:
340,32,89414,2,0,L|412:44,1,70,8|0,0:0|0:0,0:0:0:0:
448,120,89734,6,0,L|376:132,1,70,2|0,0:0|0:0,0:0:0:0:
300,156,90053,1,8,0:0:0:0:
256,228,90212,1,0,0:0:0:0:
272,312,90372,2,0,P|336:336|400:312,1,140,2|8,0:0|0:0,0:0:0:0:
436,236,90851,1,0,0:0:0:0:
380,176,91010,6,0,L|376:104,1,70,2|0,0:0|0:0,0:0:0:0:
296,86,91329,2,0,L|300:156,1,70,8|0,0:0|0:0,0:0:0:0:
216,152,91649,2,0,L|212:44,2,105,2|0|0,0:0|0:0|0:0,0:0:0:0:
256,228,92287,6,0,P|256:264|248:300,1,70,2|0,0:0|0:0,0:0:0:0:
176,336,92606,2,0,L|104:328,1,70,8|0,0:0|0:0,0:0:0:0:
96,244,92925,2,0,L|168:252,1,70,2|0,0:0|0:0,0:0:0:0:
332,276,93244,1,8,0:0:0:0:
352,280,93324,1,0,0:0:0:0:
372,284,93404,1,0,0:0:0:0:
392,288,93484,1,0,0:0:0:0:
412,292,93563,6,0,P|432:232|412:160,1,140,2|8,0:0|0:0,0:0:0:0:
340,116,94042,1,0,0:0:0:0:
268,164,94202,2,0,P|216:168|168:148,1,105,2|0,0:0|0:0,0:0:0:0:
144,112,94521,2,0,L|132:184,1,70,8|0,0:0|0:0,0:0:0:0:
120,264,94840,6,0,P|116:300|128:336,1,70,2|0,0:0|0:0,0:0:0:0:
199,292,95159,2,0,P|234:287|267:297,1,70,8|0,0:0|0:0,0:0:0:0:
336,348,95478,2,0,P|369:357|403:353,1,70,2|0,0:0|0:0,0:0:0:0:
468,300,95797,2,0,P|472:264|460:228,1,70,8|0,0:0|0:0,0:0:0:0:
412,164,96117,5,2,0:0:0:0:
412,164,96276,1,0,0:0:0:0:
332,140,96436,1,8,0:0:0:0:
332,140,96595,1,0,0:0:0:0:
256,172,96755,2,0,P|204:176|156:152,2,105,2|0|0,0:0|0:0|0:0,0:0:0:0:
320,224,97393,6,0,L|324:296,1,70,6|2,0:0|0:0,0:0:0:0:
244,324,97712,2,0,L|243:290,1,35,14|2,0:0|0:0,0:0:0:0:
164,256,97952,2,0,L|163:290,1,35,6|2,0:0|0:0,0:0:0:0:
80,272,98191,1,2,0:0:0:0:
72,252,98271,1,2,0:0:0:0:
64,232,98351,2,0,L|68:188,3,35,10|2|2|2,0:0|0:0|0:0|0:0,0:0:0:0:
76,156,98670,6,0,P|132:124|208:128,1,140,6|8,0:0|0:0,0:0:0:0:
268,184,99149,1,0,0:0:0:0:
300,260,99308,2,0,P|348:268|404:252,1,105,2|0,0:0|0:0,0:0:0:0:
424,220,99627,2,0,L|432:144,1,70,8|0,0:0|0:0,0:0:0:0:
408,68,99946,6,0,P|376:56|340:60,1,70,2|0,0:0|0:0,0:0:0:0:
264,96,100266,1,8,0:0:0:0:
244,176,100425,1,0,0:0:0:0:
256,180,100505,1,0,0:0:0:0:
268,184,100585,2,0,P|276:256|244:312,1,140,2|8,0:0|0:0,0:0:0:0:
160,300,101063,1,0,0:0:0:0:
240,328,101223,6,0,L|316:324,1,70,2|0,0:0|0:0,0:0:0:0:
364,260,101542,2,0,L|440:256,1,70,8|0,0:0|0:0,0:0:0:0:
484,188,101861,2,0,P|480:136|492:84,1,105,2|0,0:0|0:0,0:0:0:0:
464,52,102180,2,0,L|392:48,1,70,10|2,0:0|0:0,0:0:0:0:
364,128,102500,6,0,P|328:132|296:120,1,70,6|2,0:0|0:0,0:0:0:0:
215,120,102819,2,0,P|182:132|148:128,1,70,10|2,0:0|0:0,0:0:0:0:
76,84,103138,2,0,L|40:104,3,35,2|2|2|2,0:0|0:0|0:0|0:0,0:0:0:0:
32,140,103457,2,0,L|20:179,3,35,10|2|2|2,0:0|0:0|0:0|0:0,0:0:0:0:
40,210,103776,6,0,P|44:244|36:280,1,70,6|0,0:0|0:0,0:0:0:0:
128,328,104095,2,0,P|124:294|132:258,1,70,8|0,0:0|0:0,0:0:0:0:
172,188,104414,2,0,L|280:180,2,105,2|2|2,0:0|0:0|0:0,0:0:0:0:
96,148,105053,5,4,0:0:0:0:
96,148,105372,1,4,0:0:0:0:
96,148,105691,1,4,0:0:0:0:
96,148,106010,1,4,0:0:0:0:
96,148,106329,6,0,P|92:112|104:80,1,70,2|2,0:0|0:0,0:0:0:0:
156,16,106649,2,0,P|192:12|224:24,1,70,10|2,0:0|0:0,0:0:0:0:
280,84,106968,2,0,L|276:124,3,35,2|2|2|2,0:0|0:0|0:0|0:0,0:0:0:0:
272,160,107287,2,0,L|276:200,3,35,10|2|2|2,0:0|0:0|0:0|0:0,0:0:0:0:
280,236,107606,6,0,L|276:308,1,70,0|4,0:0|0:0,0:0:0:0:
404,196,108085,1,4,0:0:0:0:
280,84,108404,1,4,0:0:0:0:
200,112,108563,2,0,P|148:96|116:56,1,105,0|0,0:0|0:0,0:0:0:0:
108,16,108883,6,0,L|100:96,1,70,4|0,0:0|0:0,0:0:0:0:
84,252,109361,1,0,0:0:0:0:
84,252,109441,1,0,0:0:0:0:
84,252,109521,2,0,P|60:296|12:320,2,105,4|0|0,0:0|0:0|0:0,0:0:0:0:
148,200,110159,6,0,L|220:204,1,70,4|0,0:0|0:0,0:0:0:0:
256,280,110478,2,0,L|304:276,1,35,4|0,0:0|0:0,0:0:0:0:
348,216,110718,2,0,L|396:220,1,35,4|0,0:0|0:0,0:0:0:0:
448,272,110957,2,0,L|456:312,2,35,0|0|6,0:0|0:0|0:0,0:0:0:0:
