osu file format v14

[General]
AudioFilename: audio.mp3
AudioLeadIn: 0
PreviewTime: 226391
Countdown: 0
SampleSet: Soft
StackLeniency: 0.7
Mode: 3
LetterboxInBreaks: 0
SpecialStyle: 0
WidescreenStoryboard: 1

[Editor]
Bookmarks: 236444,256548
DistanceSpacing: 1
BeatDivisor: 4
GridSize: 8
TimelineZoom: 2.999999

[Metadata]
Title:MariannE
TitleUnicode:MariannE
Artist:Yooh
ArtistUnicode:Yooh
Creator:inbee
Version:4K MANIAC
Source:
Tags:
BeatmapID:1149941
BeatmapSetID:542460

[Difficulty]
HPDrainRate:8
CircleSize:4
OverallDifficulty:8
ApproachRate:5
SliderMultiplier:1.4
SliderTickRate:1

[Events]
//Background and Video events
0,0,"BG.jpg",0,0
//Break Periods
//Storyboard Layer 0 (Background)
//Storyboard Layer 1 (Fail)
//Storyboard Layer 2 (Pass)
//Storyboard Layer 3 (Foreground)
//Storyboard Sound Samples

[TimingPoints]
215,314.134480971304,4,2,0,100,1,0
19848,-66.6666666666667,4,2,1,100,0,0
19926,-133.333333333333,4,2,1,100,0,0
20005,-66.6666666666667,4,2,1,100,0,0
20084,-133.333333333333,4,2,1,100,0,0
20162,-66.6666666666667,4,2,1,100,0,0
20241,-133.333333333333,4,2,1,100,0,0
20319,-100,4,2,1,100,0,0
31785,-66.6666666666667,4,2,1,100,0,0
31864,-100,4,2,1,100,0,0
31942,-66.6666666666667,4,2,1,100,0,0
32021,-100,4,2,1,100,0,0
32099,-66.6666666666667,4,2,1,100,0,0
32178,-100,4,2,1,100,0,0
32256,-66.6666666666667,4,2,1,100,0,0
32413,-100,4,2,1,100,0,0
32570,-66.6666666666667,4,2,1,100,0,0
32727,-100,4,2,1,100,0,0
32884,-100,4,2,1,100,0,0
45136,-66.6666666666667,4,2,1,100,0,0
45214,-133.333333333333,4,2,1,100,0,0
45293,-66.6666666666667,4,2,1,100,0,0
45371,-133.333333333333,4,2,1,100,0,0
45450,-66.6666666666667,4,2,1,100,0,0
45528,-133.333333333333,4,2,1,100,0,0
45607,-100,4,2,1,100,0,0
79533,-100,4,2,0,100,0,0
90685,-100,4,2,1,100,0,0
103251,-100,4,2,0,100,0,0
123355,-100,4,2,1,100,0,0
143460,-100,4,2,1,100,0,1
162308,-100,4,2,1,100,0,0
163564,-100,4,2,1,100,0,1
186182,-100,4,2,0,100,0,0
186261,-105.263157894737,4,2,0,100,0,0
186339,-111.111111111111,4,2,0,100,0,0
186418,-117.647058823529,4,2,0,100,0,0
186496,-125,4,2,0,100,0,0
186575,-133.333333333333,4,2,0,100,0,0
205816,-133.333333333333,4,2,0,100,0,0
205894,-125,4,2,0,100,0,0
205973,-117.647058823529,4,2,0,100,0,0
206051,-111.111111111111,4,2,0,100,0,0
206130,-105.263157894737,4,2,0,100,0,0
206208,-100,4,2,0,100,0,0
216339,-100,4,2,1,100,0,0
226391,-100,4,2,1,100,0,1
245239,-66.6666666666667,4,2,1,100,0,0
245396,-133.333333333333,4,2,1,100,0,0
245554,-66.6666666666667,4,2,1,100,0,0
245711,-133.333333333333,4,2,1,100,0,0
245868,-66.6666666666667,4,2,1,100,0,0
246025,-133.333333333333,4,2,1,100,0,0
246182,-66.6666666666667,4,2,1,100,0,0
246339,-133.333333333333,4,2,1,100,0,0
246496,-100,4,2,1,100,0,1
265187,-100,4,2,1,100,0,0
265344,-66.6666666666667,4,2,1,100,0,1
265501,-133.333333333333,4,2,1,100,0,0
265658,-66.6666666666667,4,2,1,100,0,1
265815,-133.333333333333,4,2,1,100,0,0
265972,-66.6666666666667,4,2,1,100,0,1
266129,-133.333333333333,4,2,1,100,0,0
266286,-66.6666666666667,4,2,1,100,0,1
266443,-133.333333333333,4,2,1,100,0,0
266601,-100,4,2,1,100,0,0

[HitObjects]
64,192,215,5,0,0:0:0:0:
448,192,215,1,0,0:0:0:0:
320,192,372,1,0,0:0:0:0:
64,192,529,1,0,0:0:0:0:
320,192,686,1,0,0:0:0:0:
192,192,843,1,0,0:0:0:0:
64,192,1000,1,0,0:0:0:0:
448,192,1157,1,0,0:0:0:0:
192,192,1314,1,0,0:0:0:0:
448,192,1471,1,0,0:0:0:0:
64,192,1628,1,0,0:0:0:0:
448,192,1785,1,0,0:0:0:0:
64,192,1942,1,0,0:0:0:0:
320,192,2099,1,0,0:0:0:0:
64,192,2256,1,0,0:0:0:0:
192,192,2413,1,0,0:0:0:0:
448,192,2571,1,0,0:0:0:0:
320,192,2728,1,0,0:0:0:0:
64,192,2728,1,0,0:0:0:0:
192,192,2885,1,0,0:0:0:0:
448,192,3042,1,0,0:0:0:0:
192,192,3199,1,0,0:0:0:0:
320,192,3356,1,0,0:0:0:0:
192,192,3513,1,0,0:0:0:0:
64,192,3670,1,0,0:0:0:0:
320,192,3827,1,0,0:0:0:0:
192,192,3984,1,0,0:0:0:0:
448,192,3984,1,0,0:0:0:0:
320,192,4141,1,0,0:0:0:0:
64,192,4298,1,0,0:0:0:0:
320,192,4455,1,0,0:0:0:0:
448,192,4612,1,0,0:0:0:0:
320,192,4769,1,0,0:0:0:0:
192,192,4927,1,0,0:0:0:0:
64,192,5084,1,0,0:0:0:0:
448,192,5241,1,0,0:0:0:0:
64,192,5241,1,0,0:0:0:0:
320,192,5398,1,0,0:0:0:0:
64,192,5555,1,0,0:0:0:0:
320,192,5712,1,0,0:0:0:0:
192,192,5869,1,0,0:0:0:0:
64,192,6026,1,0,0:0:0:0:
448,192,6183,1,0,0:0:0:0:
192,192,6340,1,0,0:0:0:0:
448,192,6497,1,0,0:0:0:0:
64,192,6654,1,0,0:0:0:0:
448,192,6811,1,0,0:0:0:0:
64,192,6968,1,0,0:0:0:0:
320,192,7125,1,0,0:0:0:0:
64,192,7283,1,0,0:0:0:0:
192,192,7440,1,0,0:0:0:0:
448,192,7597,1,0,0:0:0:0:
64,192,7754,1,0,0:0:0:0:
320,192,7754,1,0,0:0:0:0:
192,192,7911,1,0,0:0:0:0:
448,192,8068,1,0,0:0:0:0:
192,192,8225,1,0,0:0:0:0:
320,192,8382,1,0,0:0:0:0:
64,192,8539,1,0,0:0:0:0:
320,192,8696,1,0,0:0:0:0:
448,192,8853,1,0,0:0:0:0:
320,192,9010,1,0,0:0:0:0:
64,192,9010,1,0,0:0:0:0:
192,192,9167,1,0,0:0:0:0:
448,192,9324,1,0,0:0:0:0:
320,192,9481,1,0,0:0:0:0:
192,192,9639,1,0,0:0:0:0:
448,192,9639,1,0,0:0:0:0:
64,192,9796,1,0,0:0:0:0:
448,192,9953,1,0,0:0:0:0:
320,192,10110,1,0,0:0:0:0:
64,192,10267,5,0,0:0:0:70:soft-hitnormal.wav
448,192,10267,1,0,0:0:0:0:
320,192,10424,1,0,0:0:0:0:
64,192,10581,1,0,0:0:0:0:
320,192,10738,1,0,0:0:0:0:
192,192,10895,1,0,0:0:0:0:
64,192,11052,1,0,0:0:0:0:
320,192,11209,1,0,0:0:0:0:
192,192,11366,1,0,0:0:0:0:
448,192,11523,1,0,0:0:0:0:
64,192,11680,1,0,0:0:0:0:
448,192,11837,1,0,0:0:0:0:
64,192,11995,1,0,0:0:0:0:
320,192,12152,1,0,0:0:0:0:
64,192,12309,1,0,0:0:0:0:
192,192,12466,1,0,0:0:0:0:
448,192,12623,1,0,0:0:0:0:
64,192,12780,1,0,0:0:0:70:soft-hitnormal.wav
320,192,12780,1,0,0:0:0:0:
192,192,12937,1,0,0:0:0:0:
448,192,13094,1,0,0:0:0:0:
192,192,13251,1,0,0:0:0:0:
320,192,13408,1,0,0:0:0:0:
192,192,13565,1,0,0:0:0:0:
64,192,13722,1,0,0:0:0:0:
320,192,13879,1,0,0:0:0:0:
448,192,14036,1,0,0:0:0:0:
64,192,14036,1,0,0:0:0:0:
320,192,14193,1,0,0:0:0:0:
192,192,14351,1,0,0:0:0:0:
320,192,14508,1,0,0:0:0:0:
448,192,14665,1,0,0:0:0:0:
320,192,14822,1,0,0:0:0:0:
192,192,14979,1,0,0:0:0:0:
64,192,15136,1,0,0:0:0:0:
64,192,15293,1,0,0:0:0:70:soft-hitnormal.wav
448,192,15293,1,0,0:0:0:0:
192,192,15293,1,0,0:0:0:0:
320,192,15450,1,0,0:0:0:0:
64,192,15607,1,0,0:0:0:0:
320,192,15764,1,0,0:0:0:0:
192,192,15921,1,0,0:0:0:0:
64,192,16078,1,0,0:0:0:0:
448,192,16235,1,0,0:0:0:0:
64,192,16235,1,0,0:0:0:70:soft-hitnormal.wav
192,192,16392,1,0,0:0:0:0:
448,192,16549,1,0,0:0:0:0:
64,192,16549,1,0,0:0:0:70:soft-hitnormal.wav
64,192,16707,1,0,0:0:0:0:
448,192,16864,1,0,0:0:0:0:
64,192,17021,1,0,0:0:0:0:
320,192,17178,1,0,0:0:0:0:
64,192,17335,1,0,0:0:0:0:
192,192,17492,1,0,0:0:0:0:
448,192,17649,1,0,0:0:0:0:
320,192,17806,1,0,0:0:0:0:
64,192,17806,1,0,0:0:0:70:soft-hitnormal.wav
448,192,17806,1,0,0:0:0:0:
192,192,17963,1,0,0:0:0:0:
448,192,18120,1,0,0:0:0:0:
192,192,18277,1,0,0:0:0:0:
320,192,18434,1,0,0:0:0:0:
64,192,18591,1,0,0:0:0:0:
320,192,18748,1,0,0:0:0:0:
448,192,18748,1,0,0:0:0:70:soft-hitnormal.wav
448,192,18906,1,0,0:0:0:0:
64,192,19063,1,0,0:0:0:70:soft-hitnormal.wav
192,192,19063,1,0,0:0:0:0:
64,192,19220,1,0,0:0:0:0:
448,192,19377,1,0,0:0:0:70:soft-hitnormal.wav
320,192,19377,1,0,0:0:0:0:
320,192,19534,1,0,0:0:0:0:
192,192,19691,1,0,0:0:0:0:
64,192,19691,1,0,0:0:0:0:
320,192,19848,1,0,0:0:0:0:
448,192,19848,1,0,0:0:0:0:
320,192,20005,1,0,0:0:0:0:
448,192,20005,1,0,0:0:0:0:
192,192,20162,1,0,0:0:0:0:
64,192,20162,1,0,0:0:0:0:
64,192,20319,5,0,0:0:0:0:
192,192,20319,1,0,0:0:0:0:
448,192,20319,1,4,0:0:0:0:
320,192,20476,1,0,0:0:0:0:
64,192,20633,1,0,0:0:0:0:
320,192,20790,1,0,0:0:0:0:
192,192,20947,1,0,0:0:0:0:
448,192,20947,1,8,0:0:0:0:
64,192,21104,1,0,0:0:0:0:
448,192,21262,1,0,0:0:0:0:
64,192,21262,1,0,0:0:0:0:
192,192,21419,1,0,0:0:0:0:
448,192,21576,1,0,0:0:0:0:
64,192,21576,1,0,0:0:0:0:
192,192,21733,1,0,0:0:0:0:
64,192,21733,128,0,21811:0:0:0:0:
448,192,21890,1,0,0:0:0:0:
64,192,21890,128,0,21968:0:0:0:0:
192,192,22047,1,0,0:0:0:0:
64,192,22047,128,0,22125:0:0:0:0:
320,192,22204,1,0,0:0:0:0:
448,192,22204,1,8,0:0:0:0:
64,192,22204,128,0,22440:0:0:0:0:
320,192,22361,1,0,0:0:0:0:
192,192,22518,1,0,0:0:0:0:
64,192,22518,128,0,22754:0:0:0:0:
448,192,22675,1,0,0:0:0:0:
320,192,22832,1,0,0:0:0:0:
64,192,22832,1,0,0:0:0:0:
448,192,22832,1,0,0:0:0:0:
192,192,22989,1,0,0:0:0:0:
448,192,23146,1,0,0:0:0:0:
192,192,23303,1,0,0:0:0:0:
320,192,23460,1,0,0:0:0:0:
64,192,23460,1,8,0:0:0:0:
192,192,23618,1,0,0:0:0:0:
64,192,23775,1,0,0:0:0:0:
448,192,23775,1,0,0:0:0:0:
320,192,23932,1,0,0:0:0:0:
192,192,24089,1,0,0:0:0:0:
448,192,24089,1,0,0:0:0:0:
320,192,24246,1,0,0:0:0:0:
64,192,24403,1,0,0:0:0:0:
448,192,24403,128,0,24481:0:0:0:0:
320,192,24560,1,0,0:0:0:0:
448,192,24560,128,0,24638:0:0:0:0:
448,192,24717,128,0,24796:0:0:0:0:
64,192,24717,1,8,0:0:0:0:
192,192,24717,1,0,0:0:0:0:
448,192,24874,128,0,24953:0:0:0:0:
64,192,24874,1,0,0:0:0:0:
192,192,25031,1,0,0:0:0:0:
320,192,25031,128,0,25110:0:0:0:0:
64,192,25188,1,0,0:0:0:0:
448,192,25188,128,0,25267:0:0:0:0:
448,192,25345,1,0,0:0:0:0:
64,192,25345,1,0,0:0:0:0:
192,192,25345,1,0,0:0:0:0:
320,192,25502,1,0,0:0:0:0:
64,192,25659,1,0,0:0:0:0:
320,192,25816,1,0,0:0:0:0:
192,192,25974,1,0,0:0:0:0:
448,192,25974,1,8,0:0:0:0:
64,192,26131,1,0,0:0:0:0:
448,192,26288,1,0,0:0:0:0:
64,192,26288,1,0,0:0:0:0:
192,192,26445,1,0,0:0:0:0:
448,192,26602,1,0,0:0:0:0:
64,192,26602,1,0,0:0:0:0:
448,192,26759,128,0,26837:0:0:0:0:
320,192,26759,1,0,0:0:0:0:
448,192,26916,128,0,26994:0:0:0:0:
64,192,26916,1,0,0:0:0:0:
448,192,27073,128,0,27152:0:0:0:0:
320,192,27073,1,0,0:0:0:0:
192,192,27230,1,0,0:0:0:0:
448,192,27230,128,0,27466:0:0:0:0:
64,192,27230,1,8,0:0:0:0:
64,192,27387,1,0,0:0:0:0:
192,192,27544,1,0,0:0:0:0:
448,192,27544,128,0,27858:0:0:0:0:
320,192,27701,1,0,0:0:0:0:
320,192,27858,1,0,0:0:0:0:
64,192,27858,1,0,0:0:0:0:
192,192,28015,1,0,0:0:0:0:
448,192,28172,1,0,0:0:0:0:
64,192,28330,1,0,0:0:0:0:
448,192,28487,1,0,0:0:0:0:
320,192,28487,1,8,0:0:0:0:
448,192,28644,1,0,0:0:0:0:
192,192,28801,1,0,0:0:0:0:
64,192,28801,1,0,0:0:0:0:
64,192,28958,1,0,0:0:0:0:
192,192,29115,1,0,0:0:0:0:
448,192,29115,1,0,0:0:0:0:
192,192,29272,1,0,0:0:0:0:
320,192,29429,1,0,0:0:0:0:
64,192,29429,128,0,29508:0:0:0:0:
64,192,29586,128,0,29665:0:0:0:0:
192,192,29586,1,0,0:0:0:0:
448,192,29743,1,0,0:0:0:0:
320,192,29743,1,8,0:0:0:0:
64,192,29900,128,0,29979:0:0:0:0:
192,192,29900,1,0,0:0:0:0:
448,192,30057,128,0,30136:0:0:0:0:
320,192,30057,1,0,0:0:0:0:
64,192,30214,128,0,30293:0:0:0:0:
192,192,30214,1,0,0:0:0:0:
448,192,30371,1,4,0:0:0:0:
320,192,30371,1,0,0:0:0:0:
64,192,30371,1,0,0:0:0:0:
64,192,30686,1,0,0:0:0:0:
64,192,31000,1,0,0:0:0:0:
192,192,31000,1,8,0:0:0:0:
64,192,31314,1,0,0:0:0:0:
64,192,31628,1,0,0:0:0:0:
448,192,31785,128,0,31864:0:0:0:0:
64,192,31942,1,0,0:0:0:0:
448,192,31942,128,0,32021:0:0:0:0:
448,192,32099,128,0,32178:0:0:0:0:
64,192,32256,1,0,0:0:0:0:
448,192,32256,128,0,32492:0:0:0:0:
192,192,32256,1,8,0:0:0:0:
64,192,32570,1,0,0:0:0:0:
448,192,32570,128,0,32806:0:0:0:0:
192,192,32884,1,0,0:0:0:0:
448,192,32884,1,0,0:0:0:0:
64,192,32884,128,0,33513:0:0:0:0:
192,192,33199,128,0,33513:0:0:0:0:
448,192,33199,1,0,0:0:0:0:
448,192,33513,1,0,0:0:0:0:
320,192,33513,1,8,0:0:0:0:
448,192,33827,1,0,0:0:0:0:
448,192,34141,1,0,0:0:0:0:
320,192,34298,1,0,0:0:0:0:
192,192,34377,1,0,0:0:0:0:
448,192,34455,1,0,0:0:0:0:
64,192,34455,128,0,34534:0:0:0:0:
64,192,34612,128,0,34691:0:0:0:0:
64,192,34769,128,0,34848:0:0:0:0:
320,192,34769,1,8,0:0:0:0:
448,192,34769,1,0,0:0:0:0:
64,192,34926,128,0,35005:0:0:0:0:
192,192,35083,128,0,35162:0:0:0:0:
448,192,35083,1,0,0:0:0:0:
64,192,35240,128,0,35319:0:0:0:0:
320,192,35398,1,0,0:0:0:0:
448,192,35398,1,0,0:0:0:0:
64,192,35398,1,0,0:0:0:0:
448,192,35555,1,0,0:0:0:0:
192,192,35555,1,0,0:0:0:0:
448,192,35712,1,0,0:0:0:0:
320,192,35712,1,0,0:0:0:0:
448,192,35869,1,0,0:0:0:0:
192,192,35869,1,0,0:0:0:0:
64,192,36026,1,0,0:0:0:0:
320,192,36026,1,0,0:0:0:0:
448,192,36026,1,8,0:0:0:0:
64,192,36183,1,0,0:0:0:0:
192,192,36183,1,0,0:0:0:0:
64,192,36340,1,0,0:0:0:0:
320,192,36340,1,0,0:0:0:0:
64,192,36497,1,0,0:0:0:0:
192,192,36497,1,0,0:0:0:0:
320,192,36654,1,0,0:0:0:0:
448,192,36654,1,0,0:0:0:0:
320,192,36811,1,0,0:0:0:0:
64,192,36811,1,0,0:0:0:0:
320,192,36968,1,0,0:0:0:0:
448,192,36968,1,0,0:0:0:0:
320,192,37125,1,0,0:0:0:0:
64,192,37125,1,0,0:0:0:0:
192,192,37282,1,0,0:0:0:0:
448,192,37282,1,0,0:0:0:0:
64,192,37282,1,8,0:0:0:0:
192,192,37439,1,0,0:0:0:0:
64,192,37439,1,0,0:0:0:0:
192,192,37597,1,0,0:0:0:0:
448,192,37597,1,0,0:0:0:0:
192,192,37754,1,0,0:0:0:0:
64,192,37754,1,0,0:0:0:0:
448,192,37911,1,0,0:0:0:0:
320,192,37989,1,0,0:0:0:0:
192,192,38068,1,0,0:0:0:0:
64,192,38146,1,0,0:0:0:0:
448,192,38225,1,0,0:0:0:0:
320,192,38303,1,0,0:0:0:0:
192,192,38382,1,0,0:0:0:0:
64,192,38460,1,0,0:0:0:0:
448,192,38539,1,0,0:0:0:0:
320,192,38617,1,0,0:0:0:0:
192,192,38696,1,0,0:0:0:0:
64,192,38775,1,0,0:0:0:0:
448,192,38853,1,0,0:0:0:0:
320,192,38873,1,0,0:0:0:0:
192,192,38892,1,0,0:0:0:0:
64,192,38912,1,0,0:0:0:0:
448,192,38932,1,0,0:0:0:0:
320,192,38951,1,0,0:0:0:0:
64,192,39010,1,0,0:0:0:0:
192,192,39030,1,0,0:0:0:0:
320,192,39049,1,0,0:0:0:0:
448,192,39069,1,0,0:0:0:0:
64,192,39089,1,0,0:0:0:0:
192,192,39108,1,0,0:0:0:0:
448,192,39167,1,0,0:0:0:0:
320,192,39246,1,0,0:0:0:0:
192,192,39324,1,0,0:0:0:0:
64,192,39403,1,0,0:0:0:0:
448,192,39481,1,0,0:0:0:0:
320,192,39638,1,0,0:0:0:0:
64,192,39795,1,0,0:0:0:0:
192,192,39953,1,0,0:0:0:0:
320,192,40110,1,0,0:0:0:0:
64,192,40267,1,0,0:0:0:0:
448,192,40424,1,0,0:0:0:0:
320,192,40424,1,4,0:0:0:0:
64,192,40424,1,0,0:0:0:0:
448,192,40581,128,0,40738:0:0:0:0:
192,192,40738,1,0,0:0:0:0:
64,192,40738,1,0,0:0:0:0:
448,192,40895,128,0,41052:0:0:0:0:
64,192,41052,1,0,0:0:0:0:
320,192,41052,1,0,0:0:0:0:
448,192,41209,128,0,41366:0:0:0:0:
64,192,41366,1,0,0:0:0:0:
192,192,41366,1,0,0:0:0:0:
448,192,41523,128,0,41680:0:0:0:0:
64,192,41680,1,0,0:0:0:0:
320,192,41680,1,0,0:0:0:0:
64,192,41837,128,0,41994:0:0:0:0:
320,192,41994,1,0,0:0:0:0:
448,192,41994,1,0,0:0:0:0:
64,192,42151,128,0,42309:0:0:0:0:
192,192,42309,1,0,0:0:0:0:
448,192,42309,1,0,0:0:0:0:
64,192,42466,128,0,42623:0:0:0:0:
320,192,42623,1,0,0:0:0:0:
448,192,42623,1,0,0:0:0:0:
64,192,42780,128,0,42937:0:0:0:0:
192,192,42937,1,0,0:0:0:0:
448,192,42937,1,0,0:0:0:0:
320,192,43094,128,0,43251:0:0:0:0:
192,192,43251,1,0,0:0:0:0:
448,192,43251,1,0,0:0:0:0:
320,192,43408,128,0,43565:0:0:0:0:
192,192,43565,1,0,0:0:0:0:
64,192,43565,1,0,0:0:0:0:
320,192,43722,128,0,43879:0:0:0:0:
192,192,43879,1,0,0:0:0:0:
448,192,43879,1,0,0:0:0:0:
320,192,44036,128,0,44193:0:0:0:0:
192,192,44193,1,0,0:0:0:0:
64,192,44193,1,0,0:0:0:0:
192,192,44350,128,0,44507:0:0:0:0:
320,192,44507,1,0,0:0:0:0:
448,192,44507,1,0,0:0:0:0:
192,192,44665,128,0,44822:0:0:0:0:
64,192,44822,1,0,0:0:0:0:
320,192,44822,1,0,0:0:0:0:
192,192,44979,128,0,45136:0:0:0:0:
320,192,45136,1,0,0:0:0:0:
448,192,45136,1,0,0:0:0:0:
320,192,45293,1,0,0:0:0:0:
448,192,45293,1,0,0:0:0:0:
320,192,45450,1,0,0:0:0:0:
448,192,45450,1,0,0:0:0:0:
64,192,45607,128,0,45764:0:0:0:0:
192,192,45764,1,0,0:0:0:0:
320,192,45764,1,0,0:0:0:0:
64,192,45921,128,0,46078:0:0:0:0:
192,192,46078,1,0,0:0:0:0:
448,192,46078,1,0,0:0:0:0:
64,192,46235,128,0,46392:0:0:0:0:
320,192,46392,1,0,0:0:0:0:
192,192,46392,1,0,0:0:0:0:
64,192,46549,128,0,46706:0:0:0:0:
192,192,46706,1,0,0:0:0:0:
448,192,46706,1,0,0:0:0:0:
448,192,46863,128,0,47021:0:0:0:0:
320,192,47021,1,0,0:0:0:0:
192,192,47021,1,0,0:0:0:0:
448,192,47178,128,0,47335:0:0:0:0:
64,192,47335,1,0,0:0:0:0:
320,192,47335,1,0,0:0:0:0:
448,192,47492,128,0,47649:0:0:0:0:
192,192,47649,1,0,0:0:0:0:
320,192,47649,1,0,0:0:0:0:
448,192,47806,128,0,47963:0:0:0:0:
320,192,47963,1,0,0:0:0:0:
64,192,47963,1,0,0:0:0:0:
64,192,48120,128,0,48277:0:0:0:0:
192,192,48277,1,0,0:0:0:0:
320,192,48277,1,0,0:0:0:0:
64,192,48434,128,0,48591:0:0:0:0:
320,192,48591,1,0,0:0:0:0:
448,192,48591,1,0,0:0:0:0:
64,192,48748,128,0,48905:0:0:0:0:
192,192,48905,1,0,0:0:0:0:
320,192,48905,1,0,0:0:0:0:
64,192,49062,128,0,49219:0:0:0:0:
320,192,49219,1,0,0:0:0:0:
448,192,49219,1,0,0:0:0:0:
192,192,49377,128,0,49848:0:0:0:0:
320,192,49534,128,0,49848:0:0:0:0:
64,192,49848,128,0,50162:0:0:0:0:
448,192,50005,128,0,50162:0:0:0:0:
192,192,50162,128,0,50476:0:0:0:0:
320,192,50162,128,8,50476:0:0:0:0:
64,192,50476,1,0,0:0:0:0:
448,192,50476,1,12,0:0:0:0:
192,192,50633,1,0,0:0:0:0:
320,192,50712,1,0,0:0:0:0:
192,192,50790,1,0,0:0:0:0:
64,192,50790,1,8,0:0:0:0:
448,192,50869,1,0,0:0:0:0:
320,192,50947,1,0,0:0:0:0:
192,192,51026,1,0,0:0:0:0:
320,192,51104,1,0,0:0:0:0:
448,192,51104,1,0,0:0:0:0:
64,192,51261,1,0,0:0:0:0:
448,192,51340,1,0,0:0:0:0:
192,192,51418,1,8,0:0:0:0:
64,192,51418,1,0,0:0:0:0:
320,192,51497,1,0,0:0:0:0:
448,192,51575,1,0,0:0:0:0:
64,192,51654,1,0,0:0:0:0:
320,192,51733,1,0,0:0:0:0:
448,192,51733,1,0,0:0:0:0:
192,192,51890,1,0,0:0:0:0:
448,192,51968,1,0,0:0:0:0:
320,192,52047,1,0,0:0:0:0:
64,192,52047,1,8,0:0:0:0:
192,192,52125,1,0,0:0:0:0:
320,192,52204,1,0,0:0:0:0:
64,192,52282,1,0,0:0:0:0:
192,192,52361,1,0,0:0:0:0:
448,192,52361,1,0,0:0:0:0:
320,192,52518,1,0,0:0:0:0:
64,192,52596,1,0,0:0:0:0:
192,192,52675,1,0,0:0:0:0:
448,192,52675,1,8,0:0:0:0:
320,192,52753,1,0,0:0:0:0:
192,192,52832,1,0,0:0:0:0:
448,192,52911,1,0,0:0:0:0:
64,192,52989,1,0,0:0:0:0:
320,192,52989,1,0,0:0:0:0:
320,192,53146,1,0,0:0:0:0:
192,191,53225,1,0,0:0:0:0:
448,192,53303,1,8,0:0:0:0:
320,192,53303,1,0,0:0:0:0:
64,191,53382,1,0,0:0:0:0:
192,191,53460,1,0,0:0:0:0:
320,192,53539,1,0,0:0:0:0:
192,191,53617,1,0,0:0:0:0:
64,191,53617,1,0,0:0:0:0:
448,192,53774,1,0,0:0:0:0:
64,191,53853,1,0,0:0:0:0:
320,192,53931,1,8,0:0:0:0:
448,192,53931,1,0,0:0:0:0:
192,191,54010,1,0,0:0:0:0:
64,191,54089,1,0,0:0:0:0:
448,192,54167,1,0,0:0:0:0:
192,191,54246,1,0,0:0:0:0:
64,191,54246,1,0,0:0:0:0:
320,192,54403,1,0,0:0:0:0:
64,191,54481,1,0,0:0:0:0:
448,192,54560,1,8,0:0:0:0:
192,191,54560,1,0,0:0:0:0:
320,192,54638,1,0,0:0:0:0:
192,191,54717,1,0,0:0:0:0:
448,192,54795,1,0,0:0:0:0:
320,192,54874,1,0,0:0:0:0:
64,191,54874,1,0,0:0:0:0:
192,191,55031,1,0,0:0:0:0:
448,192,55110,1,0,0:0:0:0:
320,192,55188,1,0,0:0:0:0:
64,191,55188,1,8,0:0:0:0:
192,191,55267,1,0,0:0:0:0:
320,192,55345,1,0,0:0:0:0:
448,192,55345,1,0,0:0:0:0:
64,191,55424,1,0,0:0:0:0:
192,191,55502,1,0,0:0:0:0:
448,192,55502,1,0,0:0:0:0:
320,192,55581,1,0,0:0:0:0:
64,192,55659,1,0,0:0:0:0:
192,192,55738,1,0,0:0:0:0:
448,192,55816,1,8,0:0:0:0:
320,192,55816,1,0,0:0:0:0:
64,192,55895,1,0,0:0:0:0:
448,192,55973,1,0,0:0:0:0:
320,192,56052,1,0,0:0:0:0:
192,192,56130,1,0,0:0:0:0:
64,192,56130,1,0,0:0:0:0:
320,192,56209,1,0,0:0:0:0:
448,192,56288,1,0,0:0:0:0:
192,192,56366,1,0,0:0:0:0:
64,192,56445,1,0,0:0:0:0:
320,192,56445,1,8,0:0:0:0:
192,192,56523,1,0,0:0:0:0:
64,192,56602,1,0,0:0:0:0:
320,192,56680,1,0,0:0:0:0:
192,192,56759,1,0,0:0:0:0:
448,192,56759,1,0,0:0:0:0:
320,192,56837,1,0,0:0:0:0:
448,192,56916,1,0,0:0:0:0:
192,192,56994,1,0,0:0:0:0:
64,192,57073,1,8,0:0:0:0:
448,192,57073,1,0,0:0:0:0:
320,192,57151,1,0,0:0:0:0:
192,192,57230,1,0,0:0:0:0:
64,192,57308,1,0,0:0:0:0:
192,192,57387,1,0,0:0:0:0:
448,192,57387,1,0,0:0:0:0:
320,192,57466,1,0,0:0:0:0:
192,192,57544,1,0,0:0:0:0:
320,192,57623,1,0,0:0:0:0:
64,192,57701,1,0,0:0:0:0:
448,192,57701,1,8,0:0:0:0:
192,192,57780,1,0,0:0:0:0:
320,192,57858,1,0,0:0:0:0:
448,192,57937,1,0,0:0:0:0:
64,192,58015,1,0,0:0:0:0:
320,192,58015,1,0,0:0:0:0:
192,192,58094,1,0,0:0:0:0:
320,192,58172,1,0,0:0:0:0:
448,192,58251,1,0,0:0:0:0:
192,192,58329,1,0,0:0:0:0:
64,192,58329,1,8,0:0:0:0:
320,192,58408,1,0,0:0:0:0:
192,192,58486,1,0,0:0:0:0:
64,192,58565,1,0,0:0:0:0:
320,192,58644,1,0,0:0:0:0:
448,192,58644,1,8,0:0:0:0:
192,192,58722,1,0,0:0:0:0:
448,192,58801,1,0,0:0:0:0:
320,192,58879,1,0,0:0:0:0:
192,192,58958,1,0,0:0:0:0:
64,192,58958,1,8,0:0:0:0:
320,192,59036,1,0,0:0:0:0:
64,192,59115,1,0,0:0:0:0:
192,192,59193,1,0,0:0:0:0:
320,192,59272,1,0,0:0:0:0:
448,192,59272,1,8,0:0:0:0:
64,192,59429,1,0,0:0:0:0:
448,192,59586,1,0,0:0:0:0:
192,192,59586,1,8,0:0:0:0:
448,192,59743,1,0,0:0:0:0:
64,192,59900,1,0,0:0:0:0:
320,192,59900,1,8,0:0:0:0:
64,192,60057,1,0,0:0:0:0:
320,192,60214,1,0,0:0:0:0:
448,192,60214,1,8,0:0:0:0:
320,192,60371,1,8,0:0:0:0:
64,192,60528,1,0,0:0:0:0:
192,192,60528,1,0,0:0:0:0:
448,192,60528,1,4,0:0:0:0:
192,192,60685,1,0,0:0:0:0:
64,192,60842,1,0,0:0:0:0:
320,192,60842,1,0,0:0:0:0:
448,192,60842,1,8,0:0:0:0:
64,192,61000,1,0,0:0:0:0:
320,192,61157,1,0,0:0:0:0:
448,192,61157,1,0,0:0:0:0:
320,192,61314,1,0,0:0:0:0:
64,192,61471,1,8,0:0:0:0:
192,192,61471,1,0,0:0:0:0:
448,192,61471,1,0,0:0:0:0:
320,192,61628,1,0,0:0:0:0:
448,192,61785,1,0,0:0:0:0:
192,192,61785,1,0,0:0:0:0:
64,192,61942,1,0,0:0:0:0:
192,192,62099,1,8,0:0:0:0:
448,192,62099,1,0,0:0:0:0:
64,192,62099,1,0,0:0:0:0:
448,192,62256,1,0,0:0:0:0:
192,192,62413,1,0,0:0:0:0:
320,192,62413,1,0,0:0:0:0:
320,192,62570,1,0,0:0:0:0:
192,192,62727,1,0,0:0:0:0:
64,192,62727,1,0,0:0:0:0:
448,192,62727,1,8,0:0:0:0:
192,192,62884,1,0,0:0:0:0:
64,192,63041,1,0,0:0:0:0:
320,192,63041,1,0,0:0:0:0:
448,192,63198,1,0,0:0:0:0:
448,192,63356,1,0,0:0:0:0:
320,192,63356,1,0,0:0:0:0:
64,192,63356,1,8,0:0:0:0:
192,192,63513,1,0,0:0:0:0:
192,192,63670,1,0,0:0:0:0:
64,192,63670,1,0,0:0:0:0:
448,192,63827,1,0,0:0:0:0:
192,192,63984,1,8,0:0:0:0:
448,192,63984,1,0,0:0:0:0:
64,192,63984,1,0,0:0:0:0:
320,192,64141,1,0,0:0:0:0:
64,192,64298,1,0,0:0:0:0:
192,192,64298,1,0,0:0:0:0:
320,192,64455,1,0,0:0:0:0:
320,192,64612,1,8,0:0:0:0:
448,192,64612,1,0,0:0:0:0:
64,192,64612,1,0,0:0:0:0:
192,192,64769,1,0,0:0:0:0:
320,192,64926,1,0,0:0:0:0:
448,192,64926,1,0,0:0:0:0:
64,192,65083,1,0,0:0:0:0:
64,192,65240,1,0,0:0:0:0:
192,192,65240,1,8,0:0:0:0:
448,192,65240,1,0,0:0:0:0:
448,192,65397,1,0,0:0:0:0:
320,192,65397,1,8,0:0:0:0:
192,192,65554,1,0,0:0:0:0:
64,192,65554,1,0,0:0:0:0:
192,192,65712,1,0,0:0:0:0:
448,192,65869,1,8,0:0:0:0:
320,192,65869,1,0,0:0:0:0:
64,192,65869,1,0,0:0:0:0:
64,192,66026,1,0,0:0:0:0:
448,192,66183,1,0,0:0:0:0:
320,192,66183,1,0,0:0:0:0:
320,192,66340,1,0,0:0:0:0:
192,192,66497,1,0,0:0:0:0:
448,192,66497,1,0,0:0:0:0:
64,192,66497,1,8,0:0:0:0:
320,192,66654,1,0,0:0:0:0:
448,192,66811,1,0,0:0:0:0:
192,192,66811,1,0,0:0:0:0:
64,192,66968,1,0,0:0:0:0:
64,192,67125,1,0,0:0:0:0:
448,192,67125,1,0,0:0:0:0:
192,192,67125,1,8,0:0:0:0:
320,192,67282,1,0,0:0:0:0:
320,192,67439,1,0,0:0:0:0:
192,192,67439,1,0,0:0:0:0:
64,192,67596,1,0,0:0:0:0:
192,192,67753,1,0,0:0:0:0:
64,192,67753,1,0,0:0:0:0:
448,192,67753,1,8,0:0:0:0:
192,192,67910,1,0,0:0:0:0:
320,192,68068,1,0,0:0:0:0:
64,192,68068,1,0,0:0:0:0:
448,192,68225,1,0,0:0:0:0:
64,192,68382,1,0,0:0:0:0:
320,192,68382,1,0,0:0:0:0:
448,192,68382,1,8,0:0:0:0:
192,192,68539,1,0,0:0:0:0:
320,192,68696,1,0,0:0:0:0:
64,192,68696,1,0,0:0:0:0:
320,192,68853,1,0,0:0:0:0:
64,192,69010,1,8,0:0:0:0:
192,192,69010,1,0,0:0:0:0:
448,192,69010,1,0,0:0:0:0:
448,192,69167,1,0,0:0:0:0:
64,192,69324,1,0,0:0:0:0:
192,192,69324,1,0,0:0:0:0:
192,192,69481,1,0,0:0:0:0:
64,192,69638,1,8,0:0:0:0:
320,192,69638,1,0,0:0:0:0:
448,192,69638,1,0,0:0:0:0:
448,192,69795,1,0,0:0:0:0:
64,192,69952,1,0,0:0:0:0:
320,192,69952,1,0,0:0:0:0:
320,192,70109,1,0,0:0:0:0:
64,192,70266,1,0,0:0:0:0:
448,192,70266,1,8,0:0:0:0:
192,192,70266,1,0,0:0:0:0:
192,192,70424,1,0,0:0:0:0:
448,192,70424,1,8,0:0:0:0:
320,192,70502,1,0,0:0:0:0:
192,192,70581,1,4,0:0:0:0:
64,192,70581,1,0,0:0:0:0:
192,192,70738,1,0,0:0:0:0:
448,192,70895,1,8,0:0:0:0:
320,192,70895,1,0,0:0:0:0:
64,192,70895,1,0,0:0:0:0:
64,192,71052,1,0,0:0:0:0:
320,192,71209,1,0,0:0:0:0:
448,192,71209,1,0,0:0:0:0:
320,192,71366,1,0,0:0:0:0:
64,192,71523,1,8,0:0:0:0:
192,192,71523,1,0,0:0:0:0:
448,192,71523,128,0,71680:0:0:0:0:
320,192,71680,128,0,71837:0:0:0:0:
448,192,71837,1,0,0:0:0:0:
192,192,71837,128,0,71994:0:0:0:0:
64,192,71994,1,0,0:0:0:0:
64,192,72151,1,8,0:0:0:0:
448,192,72151,1,0,0:0:0:0:
192,192,72151,1,0,0:0:0:0:
448,192,72308,1,0,0:0:0:0:
192,192,72465,1,0,0:0:0:0:
320,192,72465,1,0,0:0:0:0:
320,192,72622,1,0,0:0:0:0:
448,192,72780,1,0,0:0:0:0:
64,192,72780,1,8,0:0:0:0:
192,192,72780,1,0,0:0:0:0:
192,192,72937,1,0,0:0:0:0:
320,192,73094,1,0,0:0:0:0:
64,192,73094,128,0,73251:0:0:0:0:
192,192,73251,128,0,73408:0:0:0:0:
64,192,73408,1,0,0:0:0:0:
320,192,73408,128,0,73565:0:0:0:0:
448,192,73408,1,8,0:0:0:0:
448,192,73565,128,0,73722:0:0:0:0:
64,192,73722,1,0,0:0:0:0:
320,192,73722,128,0,73879:0:0:0:0:
192,192,73879,128,0,74036:0:0:0:0:
64,192,74036,128,0,74193:0:0:0:0:
320,192,74036,1,0,0:0:0:0:
448,192,74036,1,8,0:0:0:0:
192,192,74193,128,0,74350:0:0:0:0:
64,192,74350,128,0,74507:0:0:0:0:
320,192,74350,1,0,0:0:0:0:
320,192,74507,1,0,0:0:0:0:
448,192,74664,1,8,0:0:0:0:
64,192,74664,1,0,0:0:0:0:
320,192,74664,1,0,0:0:0:0:
192,192,74821,128,0,74979:0:0:0:0:
448,192,74979,1,0,0:0:0:0:
320,192,74979,128,0,75136:0:0:0:0:
64,192,75136,128,0,75293:0:0:0:0:
448,192,75293,128,0,75450:0:0:0:0:
192,192,75293,1,8,0:0:0:0:
320,192,75293,1,0,0:0:0:0:
320,192,75450,128,0,75607:0:0:0:0:
64,192,75607,1,4,0:0:0:0:
448,192,75607,1,0,0:0:0:0:
192,192,75607,1,0,0:0:0:0:
192,192,75764,1,0,0:0:0:0:
64,192,75921,1,0,0:0:0:0:
320,192,75921,1,0,0:0:0:0:
448,192,75921,1,8,0:0:0:0:
64,192,76078,1,0,0:0:0:0:
320,192,76235,1,0,0:0:0:0:
448,192,76235,1,8,0:0:0:0:
320,192,76392,1,0,0:0:0:0:
64,192,76549,1,8,0:0:0:0:
192,192,76549,1,0,0:0:0:0:
448,192,76549,128,0,76706:0:0:0:0:
320,192,76706,128,0,76863:0:0:0:0:
448,192,76863,1,0,0:0:0:0:
192,192,76863,128,0,77020:0:0:0:0:
64,192,76863,1,4,0:0:0:0:
64,192,77020,1,0,0:0:0:0:
192,192,77177,1,0,0:0:0:0:
64,192,77177,1,0,0:0:0:0:
448,192,77177,1,8,0:0:0:0:
320,192,77335,1,0,0:0:0:0:
320,192,77492,1,8,0:0:0:0:
192,192,77492,1,0,0:0:0:0:
64,192,77649,1,0,0:0:0:0:
192,192,77806,1,0,0:0:0:0:
64,192,77806,1,0,0:0:0:0:
448,192,77806,1,8,0:0:0:0:
192,192,77963,1,0,0:0:0:0:
64,192,78120,1,0,0:0:0:0:
320,192,78120,1,0,0:0:0:0:
448,192,78120,1,4,0:0:0:0:
192,192,78277,1,0,0:0:0:0:
64,192,78277,1,0,0:0:0:0:
64,192,78434,1,8,0:0:0:0:
192,192,78434,1,0,0:0:0:0:
448,192,78434,1,0,0:0:0:0:
320,192,78591,1,0,0:0:0:0:
448,192,78591,1,0,0:0:0:0:
64,192,78748,1,0,0:0:0:0:
320,192,78748,1,0,0:0:0:0:
448,192,78748,1,4,0:0:0:0:
192,192,78827,1,0,0:0:0:0:
320,192,78905,1,0,0:0:0:0:
192,192,78984,1,0,0:0:0:0:
64,192,79062,1,0,0:0:0:0:
448,192,79062,1,8,0:0:0:0:
320,192,79141,1,0,0:0:0:0:
192,192,79219,1,0,0:0:0:0:
320,192,79298,1,0,0:0:0:0:
64,192,79376,1,4,0:0:0:0:
192,192,79376,1,0,0:0:0:0:
448,192,79376,1,0,0:0:0:0:
64,192,79533,1,0,0:0:0:0:
448,192,79691,128,0,79848:0:0:0:0:
320,192,79848,128,0,80005:0:0:0:0:
192,192,80005,128,0,80162:0:0:0:0:
64,192,80162,128,0,80319:0:0:0:0:
320,192,80319,128,0,80476:0:0:0:0:
64,192,80476,128,0,80633:0:0:0:0:
448,192,80476,128,0,80633:0:0:0:0:
192,192,80633,128,4,80790:0:0:0:0:
320,192,80790,1,0,0:0:0:0:
64,192,80947,1,0,0:0:0:0:
192,192,81104,1,0,0:0:0:0:
448,192,81261,1,0,0:0:0:0:
192,192,81418,1,0,0:0:0:0:
448,192,81575,1,0,0:0:0:0:
320,192,81732,1,0,0:0:0:0:
320,192,81889,1,0,0:0:0:0:
64,192,81889,1,0,0:0:0:0:
448,192,82047,1,0,0:0:0:0:
192,192,82204,1,0,0:0:0:0:
320,192,82361,1,0,0:0:0:0:
64,192,82518,1,0,0:0:0:0:
448,192,82675,1,0,0:0:0:0:
64,192,82832,1,0,0:0:0:0:
192,192,82989,1,0,0:0:0:0:
320,192,83146,1,0,0:0:0:0:
448,192,83146,1,0,0:0:0:0:
64,192,83303,1,0,0:0:0:0:
320,192,83460,1,0,0:0:0:0:
64,192,83617,1,0,0:0:0:0:
192,192,83774,1,0,0:0:0:0:
448,192,83931,128,0,84088:0:0:0:0:
320,192,84088,128,0,84245:0:0:0:0:
192,192,84245,128,0,84403:0:0:0:0:
64,192,84403,128,0,84560:0:0:0:0:
448,192,84403,128,0,84560:0:0:0:0:
320,192,84560,1,0,0:0:0:0:
192,192,84717,1,0,0:0:0:0:
64,192,84874,1,0,0:0:0:0:
448,192,85031,1,0,0:0:0:0:
64,192,85188,1,0,0:0:0:0:
320,192,85345,1,0,0:0:0:0:
64,192,85502,1,0,0:0:0:0:
192,192,85659,1,0,0:0:0:0:
448,192,85659,1,0,0:0:0:0:
320,192,85816,1,0,0:0:0:0:
192,192,85973,1,0,0:0:0:0:
64,192,86130,1,0,0:0:0:0:
448,192,86287,1,0,0:0:0:0:
64,192,86444,1,0,0:0:0:0:
448,192,86601,1,0,0:0:0:0:
192,192,86759,1,0,0:0:0:0:
192,192,86916,1,0,0:0:0:0:
320,192,86916,1,0,0:0:0:0:
448,192,87073,1,0,0:0:0:0:
64,192,87230,1,0,0:0:0:0:
448,192,87387,1,0,0:0:0:0:
192,192,87544,1,0,0:0:0:0:
64,192,87544,1,0,0:0:0:0:
448,192,87701,1,0,0:0:0:0:
320,192,87858,1,0,0:0:0:0:
192,192,88015,1,0,0:0:0:0:
320,192,88172,1,0,0:0:0:0:
448,192,88172,1,0,0:0:0:0:
64,192,88329,1,0,0:0:0:0:
192,192,88486,1,0,0:0:0:0:
320,192,88643,1,0,0:0:0:0:
448,192,88800,1,0,0:0:0:0:
64,192,88957,1,0,0:0:0:0:
448,192,89115,1,0,0:0:0:0:
192,192,89272,1,0,0:0:0:0:
192,192,89429,1,0,0:0:0:0:
320,192,89586,1,0,0:0:0:0:
64,192,89743,1,0,0:0:0:0:
192,192,89821,1,0,0:0:0:0:
320,192,89874,1,0,0:0:0:0:
192,192,89926,1,0,0:0:0:0:
320,192,89978,1,0,0:0:0:0:
192,192,90031,1,0,0:0:0:0:
320,192,90083,1,0,0:0:0:0:
448,192,90214,1,0,0:0:0:0:
448,192,90371,1,0,0:0:0:0:
64,192,90528,1,0,0:0:0:0:
320,192,90685,1,0,0:0:0:0:
448,192,90685,1,0,0:0:0:0:
192,192,90842,1,0,0:0:0:0:
64,192,90999,1,0,0:0:0:0:
320,192,91313,1,8,0:0:0:0:
448,192,91313,1,0,0:0:0:0:
448,192,91628,1,0,0:0:0:0:
192,192,91628,1,0,0:0:0:0:
64,192,91942,1,0,0:0:0:0:
320,192,91942,1,0,0:0:0:0:
320,192,92570,1,0,0:0:0:0:
448,192,92570,1,8,0:0:0:0:
64,192,92727,1,0,0:0:0:0:
192,192,92884,1,0,0:0:0:0:
320,192,93041,1,0,0:0:0:0:
448,192,93198,1,0,0:0:0:0:
64,192,93198,1,0,0:0:0:0:
192,192,93512,1,0,0:0:0:0:
64,192,93827,1,0,0:0:0:0:
448,192,93827,1,8,0:0:0:0:
192,192,93984,1,0,0:0:0:0:
448,192,94141,1,0,0:0:0:0:
64,192,94298,1,0,0:0:0:0:
320,192,94455,1,0,0:0:0:0:
320,192,94769,1,0,0:0:0:0:
192,192,95083,1,0,0:0:0:0:
64,192,95083,1,8,0:0:0:0:
192,192,95397,1,0,0:0:0:0:
64,192,95711,1,0,0:0:0:0:
448,192,95711,1,0,0:0:0:0:
320,192,95868,1,0,0:0:0:0:
192,192,96026,1,0,0:0:0:0:
64,192,96183,1,0,0:0:0:0:
320,192,96340,1,0,0:0:0:0:
448,192,96340,1,8,0:0:0:0:
448,192,96654,1,0,0:0:0:0:
192,192,96654,1,0,0:0:0:0:
64,192,96968,1,0,0:0:0:0:
320,192,96968,1,0,0:0:0:0:
320,192,97596,1,0,0:0:0:0:
448,192,97596,1,8,0:0:0:0:
64,192,97753,1,0,0:0:0:0:
192,192,97910,1,0,0:0:0:0:
320,192,98067,1,0,0:0:0:0:
64,192,98224,1,0,0:0:0:0:
192,192,98224,1,0,0:0:0:0:
320,192,98539,1,0,0:0:0:0:
64,192,98853,1,0,0:0:0:0:
192,192,98853,1,8,0:0:0:0:
448,192,99167,1,0,0:0:0:0:
320,192,99324,1,0,0:0:0:0:
320,192,99481,1,0,0:0:0:0:
192,192,99481,1,0,0:0:0:0:
64,192,99952,1,0,0:0:0:0:
448,192,100031,1,0,0:0:0:0:
192,192,100109,1,0,0:0:0:0:
64,192,100109,1,8,0:0:0:0:
192,192,100266,1,0,0:0:0:0:
320,192,100423,1,0,0:0:0:0:
320,192,100580,1,0,0:0:0:0:
64,192,100738,128,0,101366:0:0:0:0:
448,192,100738,128,0,101366:0:0:0:0:
320,192,101052,1,0,0:0:0:0:
192,192,101130,1,0,0:0:0:0:
320,192,101209,1,0,0:0:0:0:
192,192,101287,1,0,0:0:0:0:
320,192,101366,1,8,0:0:0:0:
192,192,101523,1,0,0:0:0:0:
320,192,101680,1,0,0:0:0:0:
448,192,101837,1,0,0:0:0:0:
64,192,101994,1,0,0:0:0:0:
192,192,101994,1,0,0:0:0:0:
448,192,102151,1,0,0:0:0:0:
320,192,102308,1,0,0:0:0:0:
192,192,102465,1,0,0:0:0:0:
320,192,102622,1,0,0:0:0:0:
448,192,102622,1,8,0:0:0:0:
64,192,102779,1,0,0:0:0:0:
64,192,102936,1,0,0:0:0:0:
448,192,103094,1,0,0:0:0:0:
64,192,103251,1,0,0:0:0:0:
192,192,103251,1,4,0:0:0:0:
448,192,103251,128,0,103565:0:0:0:0:
64,192,103565,128,0,103879:0:0:0:0:
448,192,103879,128,0,104193:0:0:0:0:
64,192,104193,128,0,104507:0:0:0:0:
448,192,104507,128,0,104821:0:0:0:0:
64,192,104821,128,0,105135:0:0:0:0:
448,192,105135,128,0,105450:0:0:0:0:
64,192,105450,128,0,105764:0:0:0:0:
320,192,105764,128,0,106078:0:0:0:0:
192,192,106078,128,0,106392:0:0:0:0:
320,192,106392,128,0,106706:0:0:0:0:
192,192,106706,128,0,107020:0:0:0:0:
320,192,107020,128,0,107334:0:0:0:0:
192,192,107334,128,0,107648:0:0:0:0:
320,192,107648,128,0,107963:0:0:0:0:
192,192,107963,128,0,108277:0:0:0:0:
448,192,108277,128,0,108591:0:0:0:0:
320,192,108591,128,0,108905:0:0:0:0:
448,192,108905,128,0,109219:0:0:0:0:
320,192,109219,128,0,109533:0:0:0:0:
64,192,109533,128,0,109847:0:0:0:0:
192,192,109847,128,0,110162:0:0:0:0:
64,192,110162,128,0,110476:0:0:0:0:
192,192,110476,128,0,110790:0:0:0:0:
320,192,110790,128,0,111104:0:0:0:0:
448,192,111104,128,0,111418:0:0:0:0:
192,192,111418,128,0,111732:0:0:0:0:
64,192,111732,128,0,112046:0:0:0:0:
320,192,112046,128,0,112361:0:0:0:0:
448,192,112361,128,0,112675:0:0:0:0:
192,192,112675,128,0,112989:0:0:0:0:
64,192,112989,128,0,113303:0:0:0:0:
320,192,113303,1,0,0:0:0:0:
448,192,113303,1,0,0:0:0:0:
192,192,113460,1,0,0:0:0:0:
192,192,113774,1,0,0:0:0:0:
448,192,113853,1,0,0:0:0:0:
64,192,114088,1,0,0:0:0:0:
64,192,114402,1,0,0:0:0:0:
64,192,114717,1,0,0:0:0:0:
64,192,115031,1,0,0:0:0:0:
320,192,115109,1,0,0:0:0:0:
448,192,115345,1,0,0:0:0:0:
448,192,115659,1,0,0:0:0:0:
448,192,115973,1,0,0:0:0:0:
448,192,116287,1,0,0:0:0:0:
192,192,116366,1,0,0:0:0:0:
320,192,116601,1,0,0:0:0:0:
320,192,116915,1,0,0:0:0:0:
320,192,117230,1,0,0:0:0:0:
320,192,117544,1,0,0:0:0:0:
64,192,117622,1,0,0:0:0:0:
192,192,117858,1,0,0:0:0:0:
192,192,118172,1,0,0:0:0:0:
192,192,118486,1,0,0:0:0:0:
192,192,118800,1,0,0:0:0:0:
448,192,118879,1,0,0:0:0:0:
64,192,119114,1,0,0:0:0:0:
64,192,119429,1,0,0:0:0:0:
64,192,119743,1,0,0:0:0:0:
64,192,120057,1,0,0:0:0:0:
320,192,120135,1,0,0:0:0:0:
448,192,120371,1,0,0:0:0:0:
448,192,120685,1,0,0:0:0:0:
448,192,120999,1,0,0:0:0:0:
448,192,121313,1,0,0:0:0:0:
192,192,121392,1,0,0:0:0:0:
320,192,121627,1,0,0:0:0:0:
320,192,121942,1,0,0:0:0:0:
320,192,122256,1,0,0:0:0:0:
320,192,122570,1,0,0:0:0:0:
64,192,122648,1,0,0:0:0:0:
192,192,122884,1,0,0:0:0:0:
320,192,123198,1,0,0:0:0:0:
192,192,123355,1,0,0:0:0:0:
64,192,123355,1,4,0:0:0:0:
448,192,123512,1,0,0:0:0:0:
448,192,123669,1,0,0:0:0:0:
320,192,123669,1,0,0:0:0:0:
64,192,123826,1,0,0:0:0:0:
320,192,123905,1,0,0:0:0:0:
64,192,123983,1,0,0:0:0:0:
192,192,123983,1,0,0:0:0:0:
320,192,124141,1,0,0:0:0:0:
320,192,124298,1,0,0:0:0:0:
448,192,124298,1,0,0:0:0:0:
192,192,124455,1,0,0:0:0:0:
192,192,124612,1,0,0:0:0:0:
64,192,124612,1,0,0:0:0:0:
320,192,124769,1,0,0:0:0:0:
192,192,124926,1,0,0:0:0:0:
448,192,124926,1,0,0:0:0:0:
320,192,125083,1,0,0:0:0:0:
64,192,125161,1,0,0:0:0:0:
192,192,125240,1,0,0:0:0:0:
448,192,125240,1,0,0:0:0:0:
192,192,125397,1,0,0:0:0:0:
64,192,125554,1,0,0:0:0:0:
320,192,125554,1,0,0:0:0:0:
192,192,125711,1,0,0:0:0:0:
320,192,125868,1,0,0:0:0:0:
64,192,125868,1,0,0:0:0:0:
192,192,126025,1,0,0:0:0:0:
320,192,126182,1,0,0:0:0:0:
448,192,126182,1,0,0:0:0:0:
64,192,126339,1,0,0:0:0:0:
192,192,126418,1,0,0:0:0:0:
320,192,126497,1,0,0:0:0:0:
448,192,126497,1,0,0:0:0:0:
320,192,126654,1,0,0:0:0:0:
192,192,126811,1,0,0:0:0:0:
64,192,126811,1,0,0:0:0:0:
320,192,126968,1,0,0:0:0:0:
64,192,127125,1,0,0:0:0:0:
192,192,127125,1,0,0:0:0:0:
320,192,127282,1,0,0:0:0:0:
320,192,127439,1,0,0:0:0:0:
64,192,127439,1,0,0:0:0:0:
192,192,127596,1,0,0:0:0:0:
320,192,127675,1,0,0:0:0:0:
192,192,127753,1,0,0:0:0:0:
448,192,127753,1,0,0:0:0:0:
448,192,127910,1,0,0:0:0:0:
64,192,128067,1,0,0:0:0:0:
320,192,128067,1,0,0:0:0:0:
64,192,128224,1,0,0:0:0:0:
320,192,128381,1,0,0:0:0:0:
448,192,128381,1,0,0:0:0:0:
64,192,128538,1,0,0:0:0:0:
192,191,128696,1,0,0:0:0:0:
64,192,128696,1,0,0:0:0:0:
448,192,128853,1,0,0:0:0:0:
192,192,128931,1,0,0:0:0:0:
448,192,129010,1,0,0:0:0:0:
320,191,129010,1,0,0:0:0:0:
192,191,129167,1,0,0:0:0:0:
192,191,129324,1,0,0:0:0:0:
64,192,129324,1,0,0:0:0:0:
320,191,129481,1,0,0:0:0:0:
320,191,129638,1,0,0:0:0:0:
448,192,129638,1,0,0:0:0:0:
192,192,129795,1,0,0:0:0:0:
64,192,129952,1,0,0:0:0:0:
320,191,129952,1,0,0:0:0:0:
192,192,130109,1,0,0:0:0:0:
448,192,130188,1,0,0:0:0:0:
64,192,130266,1,0,0:0:0:0:
320,191,130266,1,0,0:0:0:0:
320,192,130423,1,0,0:0:0:0:
448,192,130580,1,0,0:0:0:0:
192,191,130580,1,0,0:0:0:0:
320,192,130737,1,0,0:0:0:0:
192,191,130894,1,0,0:0:0:0:
448,192,130894,1,0,0:0:0:0:
320,192,131052,1,0,0:0:0:0:
64,192,131209,1,0,0:0:0:0:
192,191,131209,1,0,0:0:0:0:
448,192,131366,1,0,0:0:0:0:
320,192,131444,1,0,0:0:0:0:
64,192,131523,1,0,0:0:0:0:
192,191,131523,1,0,0:0:0:0:
192,192,131680,1,0,0:0:0:0:
448,192,131837,1,0,0:0:0:0:
320,191,131837,1,0,0:0:0:0:
192,192,131994,1,0,0:0:0:0:
448,192,132151,1,0,0:0:0:0:
320,191,132151,1,0,0:0:0:0:
192,191,132308,1,0,0:0:0:0:
448,192,132465,1,0,0:0:0:0:
192,191,132465,1,0,0:0:0:0:
320,191,132622,1,0,0:0:0:0:
192,192,132701,1,0,0:0:0:0:
64,192,132779,1,0,0:0:0:0:
320,191,132779,1,0,0:0:0:0:
64,192,132936,1,0,0:0:0:0:
192,191,133093,1,0,0:0:0:0:
448,192,133093,1,0,0:0:0:0:
448,192,133250,1,0,0:0:0:0:
192,191,133408,1,0,0:0:0:0:
64,192,133408,1,4,0:0:0:0:
448,192,133408,1,0,0:0:0:0:
192,192,133565,1,0,0:0:0:0:
320,192,133565,1,0,0:0:0:0:
320,192,133722,1,0,0:0:0:0:
448,192,133722,1,0,0:0:0:0:
448,192,133879,1,0,0:0:0:0:
64,192,133879,1,0,0:0:0:0:
320,192,133957,1,0,0:0:0:0:
64,192,134036,1,0,0:0:0:0:
192,192,134036,1,0,0:0:0:0:
192,192,134193,1,0,0:0:0:0:
320,192,134193,1,0,0:0:0:0:
320,192,134350,1,0,0:0:0:0:
448,192,134350,1,0,0:0:0:0:
64,192,134507,1,0,0:0:0:0:
448,192,134507,1,0,0:0:0:0:
64,192,134664,1,0,0:0:0:0:
192,192,134664,1,0,0:0:0:0:
320,192,134821,1,0,0:0:0:0:
448,192,134821,1,0,0:0:0:0:
192,192,134978,1,0,0:0:0:0:
320,192,134978,1,0,0:0:0:0:
64,192,135135,1,0,0:0:0:0:
448,192,135135,1,0,0:0:0:0:
192,192,135214,1,0,0:0:0:0:
320,192,135292,1,0,0:0:0:0:
448,192,135292,1,0,0:0:0:0:
64,192,135449,1,0,0:0:0:0:
192,192,135449,1,0,0:0:0:0:
192,192,135606,1,0,0:0:0:0:
320,192,135606,1,0,0:0:0:0:
64,192,135764,1,0,0:0:0:0:
448,192,135764,1,0,0:0:0:0:
320,192,135921,1,0,0:0:0:0:
448,192,135921,1,4,0:0:0:0:
64,192,135921,1,0,0:0:0:0:
192,192,136078,1,0,0:0:0:0:
320,192,136078,1,0,0:0:0:0:
64,192,136235,1,0,0:0:0:0:
192,192,136235,1,0,0:0:0:0:
64,192,136392,1,0,0:0:0:0:
448,192,136392,1,0,0:0:0:0:
320,192,136470,1,0,0:0:0:0:
192,192,136549,1,0,0:0:0:0:
320,192,136549,1,0,0:0:0:0:
64,192,136706,1,0,0:0:0:0:
192,192,136706,1,0,0:0:0:0:
320,192,136863,1,0,0:0:0:0:
448,192,136863,1,0,0:0:0:0:
64,192,137020,1,0,0:0:0:0:
448,192,137020,1,0,0:0:0:0:
192,192,137177,1,0,0:0:0:0:
320,192,137177,1,0,0:0:0:0:
320,192,137334,1,0,0:0:0:0:
448,192,137334,1,0,0:0:0:0:
192,192,137491,1,0,0:0:0:0:
64,192,137491,1,0,0:0:0:0:
64,192,137648,1,0,0:0:0:0:
448,192,137648,1,0,0:0:0:0:
192,192,137727,1,0,0:0:0:0:
320,192,137805,1,0,0:0:0:0:
448,192,137805,1,0,0:0:0:0:
192,192,137962,1,0,0:0:0:0:
320,192,137962,1,0,0:0:0:0:
64,192,138120,1,0,0:0:0:0:
192,192,138120,1,0,0:0:0:0:
64,192,138277,1,0,0:0:0:0:
448,192,138277,1,0,0:0:0:0:
192,192,138434,1,0,0:0:0:0:
320,192,138512,1,0,0:0:0:0:
192,192,138591,1,0,0:0:0:0:
320,192,138669,1,0,0:0:0:0:
192,192,138748,1,0,0:0:0:0:
320,192,138826,1,0,0:0:0:0:
192,192,138905,1,0,0:0:0:0:
320,192,138983,1,0,0:0:0:0:
192,192,139062,1,0,0:0:0:0:
320,192,139140,1,0,0:0:0:0:
192,192,139219,1,0,0:0:0:0:
320,192,139298,1,0,0:0:0:0:
192,192,139376,1,0,0:0:0:0:
320,192,139455,1,0,0:0:0:0:
192,192,139533,1,0,0:0:0:0:
320,192,139612,1,0,0:0:0:0:
64,192,139690,1,0,0:0:0:0:
448,192,139769,1,0,0:0:0:0:
64,192,139847,1,0,0:0:0:0:
448,192,139926,1,0,0:0:0:0:
64,192,140004,1,0,0:0:0:0:
448,192,140083,1,0,0:0:0:0:
64,192,140161,1,0,0:0:0:0:
448,192,140240,1,0,0:0:0:0:
64,192,140318,1,0,0:0:0:0:
448,192,140397,1,0,0:0:0:0:
64,192,140476,1,0,0:0:0:0:
448,192,140554,1,0,0:0:0:0:
64,192,140633,1,0,0:0:0:0:
448,192,140711,1,0,0:0:0:0:
64,192,140790,1,0,0:0:0:0:
448,192,140868,1,0,0:0:0:0:
192,192,140947,1,0,0:0:0:0:
64,192,140947,1,0,0:0:0:0:
320,192,141025,1,0,0:0:0:0:
448,192,141025,1,0,0:0:0:0:
192,192,141104,1,0,0:0:0:0:
64,192,141104,1,0,0:0:0:0:
448,192,141182,1,0,0:0:0:0:
320,192,141182,1,0,0:0:0:0:
64,192,141261,1,0,0:0:0:0:
192,192,141261,1,0,0:0:0:0:
320,192,141339,1,0,0:0:0:0:
448,192,141339,1,0,0:0:0:0:
192,192,141418,1,0,0:0:0:0:
64,192,141418,1,0,0:0:0:0:
448,192,141496,1,0,0:0:0:0:
320,192,141496,1,0,0:0:0:0:
64,192,141575,1,0,0:0:0:0:
192,192,141575,1,0,0:0:0:0:
320,192,141654,1,0,0:0:0:0:
448,192,141654,1,0,0:0:0:0:
192,192,141732,1,0,0:0:0:0:
64,192,141732,1,0,0:0:0:0:
448,192,141811,1,0,0:0:0:0:
320,192,141811,1,0,0:0:0:0:
64,192,141889,1,0,0:0:0:0:
192,192,141909,1,0,0:0:0:0:
320,192,141928,1,0,0:0:0:0:
448,191,141948,1,0,0:0:0:0:
64,192,141968,1,0,0:0:0:0:
192,192,141987,1,0,0:0:0:0:
448,191,142046,1,0,0:0:0:0:
320,192,142066,1,0,0:0:0:0:
192,192,142085,1,0,0:0:0:0:
64,192,142105,1,0,0:0:0:0:
448,191,142125,1,0,0:0:0:0:
320,192,142144,1,0,0:0:0:0:
64,192,142203,1,0,0:0:0:0:
192,192,142360,128,0,142517:0:0:0:0:
64,192,142517,128,0,142674:0:0:0:0:
320,192,142517,128,0,142674:0:0:0:0:
192,192,142674,128,0,142832:0:0:0:0:
320,192,142832,128,0,142989:0:0:0:0:
448,192,142832,128,0,142989:0:0:0:0:
192,192,142989,128,0,143146:0:0:0:0:
64,192,143146,128,0,143303:0:0:0:0:
448,192,143146,128,8,143303:0:0:0:0:
320,192,143303,1,0,0:0:0:0:
192,192,143460,1,0,0:0:0:0:
64,192,143460,1,4,0:0:0:0:
448,192,143460,1,0,0:0:0:0:
320,192,143617,128,0,143774:0:0:0:0:
64,192,143774,128,0,143931:0:0:0:0:
192,192,143774,1,8,0:0:0:0:
448,192,143774,1,0,0:0:0:0:
192,192,143931,128,0,144088:0:0:0:0:
448,192,143931,1,0,0:0:0:0:
320,192,144088,128,0,144245:0:0:0:0:
64,192,144088,1,0,0:0:0:0:
448,192,144245,128,0,144402:0:0:0:0:
192,192,144245,1,0,0:0:0:0:
64,192,144402,128,0,144559:0:0:0:0:
192,192,144402,1,8,0:0:0:0:
320,192,144402,1,0,0:0:0:0:
448,192,144559,128,0,144716:0:0:0:0:
320,192,144559,1,0,0:0:0:0:
64,192,144716,128,0,144873:0:0:0:0:
192,192,144716,1,0,0:0:0:0:
320,192,144873,1,0,0:0:0:0:
448,192,145030,128,0,145188:0:0:0:0:
320,192,145030,1,0,0:0:0:0:
64,192,145030,1,8,0:0:0:0:
192,192,145188,1,0,0:0:0:0:
64,192,145345,128,0,145502:0:0:0:0:
192,192,145345,1,0,0:0:0:0:
448,192,145502,1,0,0:0:0:0:
320,192,145659,128,0,145816:0:0:0:0:
448,192,145659,1,8,0:0:0:0:
192,192,145659,1,0,0:0:0:0:
64,192,145816,1,0,0:0:0:0:
192,192,145973,128,0,146130:0:0:0:0:
64,192,145973,1,0,0:0:0:0:
320,192,146130,1,0,0:0:0:0:
64,192,146287,1,8,0:0:0:0:
320,192,146287,1,0,0:0:0:0:
448,192,146287,128,0,146444:0:0:0:0:
192,192,146444,1,0,0:0:0:0:
448,192,146601,128,0,146758:0:0:0:0:
64,192,146601,1,0,0:0:0:0:
192,192,146758,1,0,0:0:0:0:
64,192,146915,128,0,147072:0:0:0:0:
192,192,146915,1,0,0:0:0:0:
448,192,146915,1,8,0:0:0:0:
320,192,147072,1,0,0:0:0:0:
64,192,147229,128,0,147387:0:0:0:0:
320,192,147229,1,0,0:0:0:0:
192,192,147387,128,0,147544:0:0:0:0:
448,192,147387,1,0,0:0:0:0:
320,192,147544,128,0,147701:0:0:0:0:
64,192,147544,1,0,0:0:0:0:
448,192,147544,1,8,0:0:0:0:
448,192,147701,128,0,147858:0:0:0:0:
192,192,147701,1,0,0:0:0:0:
64,192,147858,128,0,148015:0:0:0:0:
320,192,147858,1,0,0:0:0:0:
192,192,148015,128,0,148172:0:0:0:0:
320,192,148172,128,0,148329:0:0:0:0:
64,192,148172,1,0,0:0:0:0:
448,192,148172,1,8,0:0:0:0:
448,192,148329,128,0,148486:0:0:0:0:
192,192,148329,1,8,0:0:0:0:
64,192,148486,1,4,0:0:0:0:
320,192,148486,1,0,0:0:0:0:
192,191,148643,128,0,148800:0:0:0:0:
448,192,148800,128,0,148957:0:0:0:0:
64,191,148800,1,8,0:0:0:0:
320,192,148800,1,0,0:0:0:0:
64,191,148957,1,0,0:0:0:0:
320,192,148957,128,0,149114:0:0:0:0:
448,192,149114,1,0,0:0:0:0:
192,191,149114,128,0,149271:0:0:0:0:
320,192,149271,1,0,0:0:0:0:
64,191,149271,128,0,149428:0:0:0:0:
320,192,149428,1,8,0:0:0:0:
448,192,149428,128,0,149585:0:0:0:0:
192,191,149428,1,0,0:0:0:0:
64,191,149585,128,0,149743:0:0:0:0:
192,191,149585,1,0,0:0:0:0:
320,192,149743,1,0,0:0:0:0:
448,192,149743,128,0,149900:0:0:0:0:
192,192,149900,1,0,0:0:0:0:
448,192,150057,1,8,0:0:0:0:
192,191,150057,1,0,0:0:0:0:
64,191,150057,128,0,150214:0:0:0:0:
320,192,150214,1,0,0:0:0:0:
448,192,150371,128,0,150528:0:0:0:0:
320,192,150371,1,0,0:0:0:0:
64,191,150528,1,0,0:0:0:0:
64,191,150685,1,8,0:0:0:0:
320,192,150685,1,0,0:0:0:0:
192,191,150685,128,0,150842:0:0:0:0:
448,192,150842,1,0,0:0:0:0:
320,192,150999,128,0,151156:0:0:0:0:
448,192,150999,1,0,0:0:0:0:
192,191,151156,1,0,0:0:0:0:
64,191,151313,128,0,151470:0:0:0:0:
192,191,151313,1,0,0:0:0:0:
448,192,151313,1,8,0:0:0:0:
320,192,151470,1,0,0:0:0:0:
448,192,151627,1,0,0:0:0:0:
64,191,151627,128,0,151784:0:0:0:0:
320,192,151784,1,0,0:0:0:0:
448,192,151941,128,0,152099:0:0:0:0:
64,191,151941,1,8,0:0:0:0:
320,192,151941,1,0,0:0:0:0:
192,191,152099,1,0,0:0:0:0:
448,192,152256,128,0,152413:0:0:0:0:
192,191,152256,1,0,0:0:0:0:
64,191,152413,1,0,0:0:0:0:
320,192,152413,128,0,152570:0:0:0:0:
448,192,152570,1,0,0:0:0:0:
192,191,152570,128,0,152727:0:0:0:0:
64,191,152570,1,8,0:0:0:0:
64,191,152727,128,0,152884:0:0:0:0:
320,192,152727,1,0,0:0:0:0:
192,191,152884,1,0,0:0:0:0:
448,192,152884,128,0,153041:0:0:0:0:
320,192,153041,128,0,153198:0:0:0:0:
448,192,153198,1,0,0:0:0:0:
192,191,153198,128,0,153355:0:0:0:0:
64,191,153198,1,8,0:0:0:0:
64,191,153355,128,0,153512:0:0:0:0:
320,192,153355,1,8,0:0:0:0:
192,191,153512,1,4,0:0:0:0:
448,192,153512,1,0,0:0:0:0:
320,192,153669,128,0,153826:0:0:0:0:
192,192,153826,1,0,0:0:0:0:
448,192,153826,1,8,0:0:0:0:
64,192,153826,128,0,153983:0:0:0:0:
192,192,153983,128,0,154140:0:0:0:0:
448,192,153983,1,0,0:0:0:0:
320,192,154140,128,0,154297:0:0:0:0:
64,192,154140,1,0,0:0:0:0:
448,192,154297,128,0,154455:0:0:0:0:
192,192,154297,1,0,0:0:0:0:
320,192,154455,1,0,0:0:0:0:
64,192,154455,128,0,154612:0:0:0:0:
192,192,154455,1,8,0:0:0:0:
320,192,154612,1,0,0:0:0:0:
448,192,154612,128,0,154769:0:0:0:0:
64,192,154769,128,0,154926:0:0:0:0:
192,192,154769,1,0,0:0:0:0:
320,192,154926,1,0,0:0:0:0:
448,192,155083,128,0,155240:0:0:0:0:
320,192,155083,1,0,0:0:0:0:
64,192,155083,1,8,0:0:0:0:
192,192,155240,1,0,0:0:0:0:
192,192,155397,1,0,0:0:0:0:
64,192,155397,128,0,155554:0:0:0:0:
448,192,155554,1,0,0:0:0:0:
320,192,155711,128,0,155868:0:0:0:0:
192,192,155711,1,0,0:0:0:0:
448,192,155711,1,8,0:0:0:0:
64,192,155868,1,0,0:0:0:0:
64,192,156025,1,0,0:0:0:0:
192,192,156025,128,0,156182:0:0:0:0:
320,192,156182,1,0,0:0:0:0:
64,192,156339,1,8,0:0:0:0:
320,192,156339,1,0,0:0:0:0:
448,192,156339,128,0,156496:0:0:0:0:
192,192,156496,1,0,0:0:0:0:
448,192,156653,128,0,156811:0:0:0:0:
64,192,156653,1,0,0:0:0:0:
192,192,156811,1,0,0:0:0:0:
192,192,156968,1,0,0:0:0:0:
448,192,156968,1,8,0:0:0:0:
64,192,156968,128,0,157125:0:0:0:0:
320,192,157125,1,0,0:0:0:0:
320,192,157282,1,0,0:0:0:0:
64,192,157282,128,0,157439:0:0:0:0:
192,192,157439,128,0,157596:0:0:0:0:
448,192,157439,1,0,0:0:0:0:
448,192,157596,1,8,0:0:0:0:
320,192,157596,128,0,157753:0:0:0:0:
64,192,157596,1,0,0:0:0:0:
192,192,157753,1,0,0:0:0:0:
448,192,157753,128,0,157910:0:0:0:0:
64,192,157910,128,0,158067:0:0:0:0:
320,192,157910,1,0,0:0:0:0:
192,192,158067,128,0,158224:0:0:0:0:
448,192,158224,1,0,0:0:0:0:
320,192,158224,128,0,158381:0:0:0:0:
64,192,158224,1,8,0:0:0:0:
192,192,158381,1,8,0:0:0:0:
448,192,158381,128,0,158538:0:0:0:0:
64,192,158538,1,4,0:0:0:0:
320,192,158538,1,0,0:0:0:0:
192,191,158695,128,0,158852:0:0:0:0:
448,192,158852,128,0,159009:0:0:0:0:
64,192,158852,1,8,0:0:0:0:
320,191,158852,1,0,0:0:0:0:
64,192,159009,1,0,0:0:0:0:
320,191,159009,128,0,159167:0:0:0:0:
448,192,159167,1,0,0:0:0:0:
192,191,159167,128,0,159324:0:0:0:0:
320,191,159324,1,0,0:0:0:0:
64,192,159324,128,0,159481:0:0:0:0:
320,191,159481,1,8,0:0:0:0:
448,192,159481,128,0,159638:0:0:0:0:
192,191,159481,1,0,0:0:0:0:
64,192,159638,128,0,159795:0:0:0:0:
192,191,159638,1,0,0:0:0:0:
320,191,159795,1,0,0:0:0:0:
448,192,159795,128,0,159952:0:0:0:0:
192,192,159795,1,4,0:0:0:0:
320,192,159952,1,0,0:0:0:0:
448,192,160109,1,8,0:0:0:0:
192,191,160109,1,0,0:0:0:0:
64,192,160109,128,0,160266:0:0:0:0:
320,191,160266,1,0,0:0:0:0:
448,192,160423,128,0,160580:0:0:0:0:
320,191,160423,1,0,0:0:0:0:
64,192,160580,1,0,0:0:0:0:
64,192,160737,1,8,0:0:0:0:
320,191,160737,1,0,0:0:0:0:
192,191,160737,128,0,160894:0:0:0:0:
448,192,160894,1,0,0:0:0:0:
320,191,161051,128,0,161208:0:0:0:0:
448,192,161051,1,4,0:0:0:0:
64,192,161051,1,0,0:0:0:0:
192,191,161208,1,0,0:0:0:0:
64,192,161365,128,0,161523:0:0:0:0:
192,191,161365,1,0,0:0:0:0:
448,192,161365,1,8,0:0:0:0:
320,191,161523,1,0,0:0:0:0:
448,192,161680,1,4,0:0:0:0:
64,192,161680,128,0,161837:0:0:0:0:
192,192,161680,1,0,0:0:0:0:
320,191,161837,1,0,0:0:0:0:
448,192,161994,128,0,162151:0:0:0:0:
64,192,161994,1,8,0:0:0:0:
320,191,161994,1,0,0:0:0:0:
192,191,162151,1,0,0:0:0:0:
64,192,162308,1,8,0:0:0:0:
320,192,162308,128,0,162465:0:0:0:0:
192,192,162465,128,0,162622:0:0:0:0:
64,192,162622,1,8,0:0:0:0:
320,192,162622,128,0,162779:0:0:0:0:
448,192,162779,128,0,162936:0:0:0:0:
64,192,162936,128,0,163093:0:0:0:0:
320,192,162936,1,8,0:0:0:0:
448,192,163093,128,0,163250:0:0:0:0:
192,192,163250,1,8,0:0:0:0:
320,192,163329,1,8,0:0:0:0:
64,192,163407,1,8,0:0:0:0:
448,192,163486,1,8,0:0:0:0:
192,192,163564,1,0,0:0:0:0:
64,192,163564,128,0,163721:0:0:0:0:
320,192,163564,1,4,0:0:0:0:
320,192,163721,128,0,163879:0:0:0:0:
64,192,163879,128,0,164036:0:0:0:0:
192,192,163879,1,0,0:0:0:0:
448,192,163879,1,8,0:0:0:0:
320,192,164036,128,0,164193:0:0:0:0:
192,192,164193,128,0,164350:0:0:0:0:
448,192,164193,128,0,164350:0:0:0:0:
320,192,164350,128,0,164507:0:0:0:0:
192,192,164507,128,0,164664:0:0:0:0:
448,192,164507,128,0,164664:0:0:0:0:
64,192,164507,1,8,0:0:0:0:
64,192,164664,128,0,164821:0:0:0:0:
320,192,164664,128,0,164821:0:0:0:0:
192,192,164821,128,0,164978:0:0:0:0:
448,192,164821,1,0,0:0:0:0:
320,192,164978,1,0,0:0:0:0:
192,192,165135,1,0,0:0:0:0:
64,192,165135,1,0,0:0:0:0:
448,192,165135,1,8,0:0:0:0:
192,192,165292,1,0,0:0:0:0:
64,192,165371,1,0,0:0:0:0:
320,192,165449,1,0,0:0:0:0:
448,192,165449,1,0,0:0:0:0:
448,192,165606,1,0,0:0:0:0:
320,192,165763,1,0,0:0:0:0:
192,192,165763,1,8,0:0:0:0:
64,192,165763,1,0,0:0:0:0:
64,192,165920,1,0,0:0:0:0:
192,192,166078,1,0,0:0:0:0:
320,192,166078,1,0,0:0:0:0:
192,192,166235,1,0,0:0:0:0:
64,192,166392,1,0,0:0:0:0:
320,192,166392,1,0,0:0:0:0:
448,192,166392,1,8,0:0:0:0:
320,192,166549,1,0,0:0:0:0:
448,192,166627,1,0,0:0:0:0:
192,192,166706,1,0,0:0:0:0:
64,192,166706,1,0,0:0:0:0:
64,192,166863,1,0,0:0:0:0:
448,192,166863,128,0,167020:0:0:0:0:
320,192,167020,128,0,167177:0:0:0:0:
192,192,167020,1,0,0:0:0:0:
64,192,167020,1,8,0:0:0:0:
192,192,167177,128,0,167334:0:0:0:0:
64,192,167334,128,0,167491:0:0:0:0:
320,192,167334,1,0,0:0:0:0:
320,192,167491,1,0,0:0:0:0:
64,192,167648,128,0,167805:0:0:0:0:
448,192,167648,1,0,0:0:0:0:
192,192,167648,1,8,0:0:0:0:
448,192,167805,1,0,0:0:0:0:
320,192,167884,1,0,0:0:0:0:
448,192,167962,128,0,168119:0:0:0:0:
192,192,167962,1,0,0:0:0:0:
192,192,168119,1,0,0:0:0:0:
448,192,168276,128,0,168434:0:0:0:0:
64,192,168276,1,0,0:0:0:0:
320,192,168276,1,8,0:0:0:0:
64,192,168434,1,0,0:0:0:0:
320,192,168591,1,0,0:0:0:0:
448,192,168591,128,0,168748:0:0:0:0:
192,191,168748,128,0,168905:0:0:0:0:
64,191,168905,1,8,0:0:0:0:
448,192,168905,128,0,169062:0:0:0:0:
320,192,168905,1,0,0:0:0:0:
192,191,169062,128,0,169219:0:0:0:0:
64,191,169219,128,0,169376:0:0:0:0:
320,192,169219,128,0,169376:0:0:0:0:
192,191,169376,128,0,169533:0:0:0:0:
320,192,169533,128,0,169690:0:0:0:0:
448,192,169533,1,8,0:0:0:0:
64,191,169533,128,0,169690:0:0:0:0:
192,191,169690,128,0,169847:0:0:0:0:
448,192,169690,128,0,169847:0:0:0:0:
320,192,169847,128,0,170004:0:0:0:0:
64,191,169847,1,0,0:0:0:0:
192,191,170004,1,0,0:0:0:0:
448,192,170161,1,0,0:0:0:0:
320,192,170161,1,0,0:0:0:0:
64,191,170161,1,8,0:0:0:0:
320,192,170318,1,0,0:0:0:0:
448,192,170397,1,0,0:0:0:0:
64,191,170475,1,0,0:0:0:0:
192,191,170475,1,0,0:0:0:0:
64,191,170632,1,0,0:0:0:0:
320,192,170790,1,0,0:0:0:0:
448,192,170790,1,0,0:0:0:0:
192,191,170790,1,8,0:0:0:0:
448,192,170947,1,0,0:0:0:0:
192,191,171104,1,0,0:0:0:0:
320,192,171104,1,0,0:0:0:0:
320,192,171261,1,0,0:0:0:0:
64,191,171418,1,0,0:0:0:0:
448,192,171418,1,8,0:0:0:0:
192,191,171418,1,0,0:0:0:0:
192,191,171575,1,0,0:0:0:0:
64,192,171653,1,0,0:0:0:0:
320,192,171732,1,0,0:0:0:0:
448,192,171732,1,0,0:0:0:0:
448,192,171889,1,0,0:0:0:0:
320,192,172046,1,0,0:0:0:0:
192,191,172046,128,0,172203:0:0:0:0:
64,192,172046,1,8,0:0:0:0:
320,192,172203,128,0,172360:0:0:0:0:
192,191,172360,1,0,0:0:0:0:
448,192,172360,128,0,172517:0:0:0:0:
64,192,172517,1,0,0:0:0:0:
192,192,172674,1,0,0:0:0:0:
64,192,172674,1,8,0:0:0:0:
320,192,172727,1,0,0:0:0:0:
192,192,172779,1,0,0:0:0:0:
320,192,172831,1,0,0:0:0:0:
192,192,172884,1,0,0:0:0:0:
320,192,172936,1,0,0:0:0:0:
64,192,172988,1,0,0:0:0:0:
448,192,172988,1,0,0:0:0:0:
448,192,173146,1,0,0:0:0:0:
64,192,173303,1,0,0:0:0:0:
192,192,173303,1,8,0:0:0:0:
320,192,173303,1,0,0:0:0:0:
320,192,173460,1,0,0:0:0:0:
448,192,173460,1,0,0:0:0:0:
192,192,173617,1,0,0:0:0:0:
448,192,173617,1,4,0:0:0:0:
64,192,173617,128,0,173774:0:0:0:0:
320,192,173774,128,0,173931:0:0:0:0:
448,192,173931,1,0,0:0:0:0:
64,192,173931,128,0,174088:0:0:0:0:
192,192,173931,1,8,0:0:0:0:
320,192,174088,128,0,174245:0:0:0:0:
192,192,174245,128,0,174402:0:0:0:0:
448,192,174245,128,0,174402:0:0:0:0:
320,192,174402,128,0,174559:0:0:0:0:
448,192,174559,128,0,174716:0:0:0:0:
192,192,174559,128,0,174716:0:0:0:0:
64,192,174559,1,8,0:0:0:0:
64,192,174716,128,0,174873:0:0:0:0:
320,192,174716,128,0,174873:0:0:0:0:
192,192,174873,128,0,175030:0:0:0:0:
448,192,174873,1,0,0:0:0:0:
320,192,175030,1,0,0:0:0:0:
192,192,175187,1,0,0:0:0:0:
64,192,175187,1,0,0:0:0:0:
448,192,175187,1,8,0:0:0:0:
192,192,175344,1,0,0:0:0:0:
64,192,175423,1,0,0:0:0:0:
320,192,175502,1,0,0:0:0:0:
448,192,175502,1,0,0:0:0:0:
448,192,175659,1,0,0:0:0:0:
64,192,175816,1,0,0:0:0:0:
320,192,175816,1,0,0:0:0:0:
192,192,175816,1,8,0:0:0:0:
64,192,175973,1,0,0:0:0:0:
192,192,176130,1,0,0:0:0:0:
320,192,176130,1,4,0:0:0:0:
192,192,176287,1,0,0:0:0:0:
448,192,176444,1,8,0:0:0:0:
64,192,176444,1,0,0:0:0:0:
320,192,176444,1,0,0:0:0:0:
320,192,176601,1,0,0:0:0:0:
448,192,176680,1,0,0:0:0:0:
64,192,176758,1,0,0:0:0:0:
192,192,176758,1,0,0:0:0:0:
448,192,176915,128,0,177072:0:0:0:0:
64,192,176915,1,0,0:0:0:0:
192,192,177072,1,0,0:0:0:0:
320,192,177072,128,0,177229:0:0:0:0:
64,192,177072,1,8,0:0:0:0:
192,192,177229,128,0,177386:0:0:0:0:
320,192,177386,1,0,0:0:0:0:
64,192,177386,128,0,177543:0:0:0:0:
320,192,177543,1,0,0:0:0:0:
64,192,177700,128,0,177858:0:0:0:0:
448,192,177700,1,0,0:0:0:0:
192,192,177700,1,8,0:0:0:0:
448,192,177858,1,0,0:0:0:0:
320,192,177936,1,0,0:0:0:0:
448,192,178015,128,0,178172:0:0:0:0:
192,192,178015,1,0,0:0:0:0:
192,192,178172,1,0,0:0:0:0:
64,192,178329,1,0,0:0:0:0:
448,192,178329,128,0,178486:0:0:0:0:
320,192,178329,1,8,0:0:0:0:
64,192,178486,1,0,0:0:0:0:
320,192,178643,1,4,0:0:0:0:
448,192,178643,128,0,178800:0:0:0:0:
192,191,178800,128,0,178957:0:0:0:0:
448,192,178957,128,0,179114:0:0:0:0:
320,192,178957,1,0,0:0:0:0:
64,191,178957,1,8,0:0:0:0:
192,191,179114,128,0,179271:0:0:0:0:
320,192,179271,128,0,179428:0:0:0:0:
64,191,179271,128,0,179428:0:0:0:0:
192,191,179428,128,0,179585:0:0:0:0:
64,191,179585,128,0,179742:0:0:0:0:
448,192,179585,1,8,0:0:0:0:
320,192,179585,128,0,179742:0:0:0:0:
448,192,179742,128,0,179899:0:0:0:0:
192,191,179742,128,0,179899:0:0:0:0:
320,192,179899,128,0,180056:0:0:0:0:
64,191,179899,1,4,0:0:0:0:
192,191,180056,1,0,0:0:0:0:
320,192,180214,1,0,0:0:0:0:
448,192,180214,1,0,0:0:0:0:
64,191,180214,1,8,0:0:0:0:
320,192,180371,1,0,0:0:0:0:
448,192,180449,1,0,0:0:0:0:
192,191,180528,1,0,0:0:0:0:
64,191,180528,1,0,0:0:0:0:
64,191,180685,1,0,0:0:0:0:
192,191,180842,1,0,0:0:0:0:
320,192,180842,1,8,0:0:0:0:
448,192,180842,1,0,0:0:0:0:
448,192,180999,1,0,0:0:0:0:
192,191,181156,1,0,0:0:0:0:
320,192,181156,1,0,0:0:0:0:
64,192,181156,1,4,0:0:0:0:
320,192,181313,1,0,0:0:0:0:
448,192,181313,1,0,0:0:0:0:
64,191,181470,1,8,0:0:0:0:
192,191,181470,1,0,0:0:0:0:
448,192,181470,1,0,0:0:0:0:
320,192,181627,1,0,0:0:0:0:
192,192,181627,1,0,0:0:0:0:
320,192,181784,1,0,0:0:0:0:
448,192,181784,1,4,0:0:0:0:
64,192,181784,1,0,0:0:0:0:
192,192,181941,1,0,0:0:0:0:
64,192,181941,1,0,0:0:0:0:
320,192,182098,128,0,182255:0:0:0:0:
192,192,182098,1,0,0:0:0:0:
448,191,182098,1,8,0:0:0:0:
192,192,182255,128,0,182412:0:0:0:0:
448,191,182255,1,0,0:0:0:0:
320,192,182412,1,4,0:0:0:0:
64,192,182412,128,0,182570:0:0:0:0:
448,191,182570,1,0,0:0:0:0:
320,192,182570,1,0,0:0:0:0:
64,192,182727,1,8,0:0:0:0:
192,192,182727,1,0,0:0:0:0:
320,192,182779,1,0,0:0:0:0:
192,192,182831,1,0,0:0:0:0:
320,192,182884,1,0,0:0:0:0:
192,192,182936,1,0,0:0:0:0:
320,192,182988,1,0,0:0:0:0:
448,192,183041,1,0,0:0:0:0:
64,192,183041,1,4,0:0:0:0:
448,192,183198,1,0,0:0:0:0:
192,192,183198,1,0,0:0:0:0:
64,192,183355,1,8,0:0:0:0:
320,192,183355,1,0,0:0:0:0:
192,192,183355,1,0,0:0:0:0:
448,192,183512,1,0,0:0:0:0:
320,192,183512,1,0,0:0:0:0:
64,192,183669,1,0,0:0:0:0:
448,192,183748,1,0,0:0:0:0:
64,192,183826,1,0,0:0:0:0:
448,192,183905,1,0,0:0:0:0:
64,192,183983,1,0,0:0:0:0:
448,192,184062,1,0,0:0:0:0:
64,192,184140,1,0,0:0:0:0:
448,192,184219,1,0,0:0:0:0:
192,192,184297,1,0,0:0:0:0:
64,192,184297,1,0,0:0:0:0:
320,192,184376,1,0,0:0:0:0:
448,192,184376,1,0,0:0:0:0:
192,192,184454,1,0,0:0:0:0:
64,192,184454,1,0,0:0:0:0:
320,192,184533,1,0,0:0:0:0:
448,192,184533,1,0,0:0:0:0:
64,192,184611,1,0,0:0:0:0:
192,192,184631,1,0,0:0:0:0:
320,192,184651,1,0,0:0:0:0:
448,191,184670,1,0,0:0:0:0:
64,192,184690,1,0,0:0:0:0:
192,192,184710,1,0,0:0:0:0:
448,191,184769,1,0,0:0:0:0:
320,192,184788,1,0,0:0:0:0:
192,192,184808,1,0,0:0:0:0:
64,192,184827,1,0,0:0:0:0:
448,191,184847,1,0,0:0:0:0:
320,192,184867,1,0,0:0:0:0:
64,192,184926,1,0,0:0:0:0:
64,192,185083,1,0,0:0:0:0:
448,192,185240,1,0,0:0:0:0:
448,192,185397,1,0,0:0:0:0:
192,192,185554,1,0,0:0:0:0:
192,192,185711,1,0,0:0:0:0:
320,192,185868,1,0,0:0:0:0:
448,192,185868,1,8,0:0:0:0:
320,192,186025,1,0,0:0:0:0:
64,192,186182,128,0,187439:0:0:0:0:
448,192,186182,128,0,187439:0:0:0:0:
320,192,187282,128,0,187439:0:0:0:0:
192,192,187439,128,0,188695:0:0:0:0:
64,192,188695,128,0,189952:0:0:0:0:
448,192,188695,128,0,189638:0:0:0:0:
320,192,189638,128,0,189795:0:0:0:0:
192,192,189795,128,0,189952:0:0:0:0:
320,192,189952,128,0,191208:0:0:0:0:
448,192,189952,128,0,191208:0:0:0:0:
64,192,191208,128,0,193721:0:0:0:0:
192,192,191208,128,0,192465:0:0:0:0:
448,192,192465,128,0,193721:0:0:0:0:
192,192,193093,128,0,193721:0:0:0:0:
320,192,193721,128,0,194978:0:0:0:0:
64,192,194507,128,0,194664:0:0:0:0:
192,192,194664,128,0,194821:0:0:0:0:
64,192,194821,128,0,194978:0:0:0:0:
192,192,194978,128,0,196234:0:0:0:0:
448,192,195292,128,0,195606:0:0:0:0:
320,192,195606,128,0,196234:0:0:0:0:
64,192,196234,128,0,197491:0:0:0:0:
448,192,196234,128,0,197491:0:0:0:0:
320,192,197491,128,0,198747:0:0:0:0:
192,192,198747,128,0,199376:0:0:0:0:
448,192,198747,128,0,200004:0:0:0:0:
192,192,199533,128,0,199690:0:0:0:0:
64,192,199690,128,0,199847:0:0:0:0:
192,192,199847,128,0,200004:0:0:0:0:
320,192,200004,128,0,201261:0:0:0:0:
64,192,200632,128,0,201261:0:0:0:0:
192,192,201261,128,0,202517:0:0:0:0:
448,192,201889,128,0,202517:0:0:0:0:
64,192,202517,128,0,203774:0:0:0:0:
320,192,203145,128,0,203774:0:0:0:0:
448,192,203774,128,0,205030:0:0:0:0:
192,192,203774,128,0,204402:0:0:0:0:
192,192,204559,128,0,204716:0:0:0:0:
64,192,204716,128,0,204873:0:0:0:0:
192,192,204873,128,0,205030:0:0:0:0:
320,192,205030,128,0,206208:0:0:0:0:
448,192,205344,128,0,206208:0:0:0:0:
192,192,205658,128,0,206208:0:0:0:0:
64,192,205973,128,0,206208:0:0:0:0:
64,192,206287,1,4,0:0:0:0:
192,192,206287,1,0,0:0:0:0:
320,192,206287,1,0,0:0:0:70:soft-hitnormal.wav
448,192,206287,1,0,0:0:0:0:
192,192,206444,1,0,0:0:0:0:
320,192,206601,1,0,0:0:0:70:soft-hitnormal.wav
192,192,206758,1,0,0:0:0:0:
448,192,206836,1,0,0:0:0:0:
320,192,206915,1,0,0:0:0:70:soft-hitnormal.wav
64,192,207072,1,0,0:0:0:0:
320,192,207229,1,0,0:0:0:70:soft-hitnormal.wav
64,192,207386,1,0,0:0:0:0:
320,192,207543,1,0,0:0:0:70:soft-hitnormal.wav
64,192,207700,1,0,0:0:0:0:
320,192,207857,1,0,0:0:0:70:soft-hitnormal.wav
64,192,208014,1,0,0:0:0:0:
320,192,208093,1,0,0:0:0:0:
192,192,208172,1,0,0:0:0:70:soft-hitnormal.wav
448,192,208329,1,0,0:0:0:0:
192,192,208486,1,0,0:0:0:70:soft-hitnormal.wav
448,192,208643,1,0,0:0:0:0:
192,192,208800,1,0,0:0:0:70:soft-hitnormal.wav
448,192,208957,1,0,0:0:0:0:
192,192,209114,1,0,0:0:0:70:soft-hitnormal.wav
448,192,209271,1,0,0:0:0:0:
192,192,209350,1,0,0:0:0:0:
64,192,209428,1,0,0:0:0:70:soft-hitnormal.wav
320,192,209585,1,0,0:0:0:0:
64,192,209742,1,0,0:0:0:70:soft-hitnormal.wav
320,192,209899,1,0,0:0:0:0:
64,192,210056,1,0,0:0:0:70:soft-hitnormal.wav
320,192,210213,1,0,0:0:0:0:
64,192,210370,1,0,0:0:0:70:soft-hitnormal.wav
320,192,210528,1,0,0:0:0:0:
64,192,210606,1,0,0:0:0:0:
448,192,210685,1,0,0:0:0:70:soft-hitnormal.wav
192,192,210842,1,0,0:0:0:0:
448,192,210999,1,0,0:0:0:70:soft-hitnormal.wav
192,192,211156,1,0,0:0:0:0:
448,192,211313,1,0,0:0:0:70:soft-hitnormal.wav
192,192,211470,1,0,0:0:0:0:
448,192,211627,1,0,0:0:0:70:soft-hitnormal.wav
192,192,211784,1,0,0:0:0:0:
448,192,211863,1,0,0:0:0:0:
320,192,211941,1,0,0:0:0:70:soft-hitnormal.wav
64,192,212098,1,0,0:0:0:0:
320,192,212255,1,0,0:0:0:70:soft-hitnormal.wav
192,192,212308,1,0,0:0:0:0:
320,192,212360,1,0,0:0:0:0:
64,192,212412,1,0,0:0:0:0:
320,192,212569,1,0,0:0:0:70:soft-hitnormal.wav
64,192,212726,1,0,0:0:0:0:
320,192,212884,1,0,0:0:0:70:soft-hitnormal.wav
64,192,213041,1,0,0:0:0:0:
320,192,213119,1,0,0:0:0:0:
192,192,213198,1,0,0:0:0:70:soft-hitnormal.wav
448,192,213355,1,0,0:0:0:0:
192,192,213512,1,0,0:0:0:70:soft-hitnormal.wav
320,192,213564,1,0,0:0:0:0:
192,192,213617,1,0,0:0:0:0:
448,192,213669,1,0,0:0:0:0:
192,192,213826,1,0,0:0:0:70:soft-hitnormal.wav
448,192,213983,1,0,0:0:0:0:
192,192,214140,1,0,0:0:0:70:soft-hitnormal.wav
448,192,214297,1,0,0:0:0:0:
192,192,214376,1,0,0:0:0:0:
64,192,214454,1,0,0:0:0:70:soft-hitnormal.wav
320,192,214611,1,0,0:0:0:0:
64,192,214768,1,0,0:0:0:70:soft-hitnormal.wav
192,192,214821,1,0,0:0:0:0:
448,192,214873,1,0,0:0:0:0:
320,192,214925,1,0,0:0:0:0:
64,192,215082,1,0,0:0:0:70:soft-hitnormal.wav
320,192,215240,1,0,0:0:0:0:
64,192,215397,1,0,0:0:0:70:soft-hitnormal.wav
320,192,215554,1,0,0:0:0:0:
64,192,215632,1,0,0:0:0:0:
448,192,215711,1,0,0:0:0:70:soft-hitnormal.wav
192,192,215868,1,0,0:0:0:0:
448,192,216025,1,0,0:0:0:70:soft-hitnormal.wav
320,192,216182,1,0,0:0:0:0:
192,192,216339,1,0,0:0:0:0:
64,192,216339,1,4,0:0:0:0:
448,192,216339,1,0,0:0:0:0:
320,192,216496,1,0,0:0:0:0:
448,192,216496,1,0,0:0:0:0:
192,192,216653,1,0,0:0:0:0:
320,192,216653,1,0,0:0:0:0:
192,192,216810,1,0,0:0:0:0:
64,192,216810,1,0,0:0:0:0:
320,192,216889,1,0,0:0:0:0:
320,192,216967,1,0,0:0:0:0:
448,192,216967,1,0,0:0:0:0:
192,192,217124,1,0,0:0:0:0:
64,192,217124,1,0,0:0:0:0:
192,192,217281,1,0,0:0:0:0:
320,192,217281,1,0,0:0:0:0:
320,192,217438,1,0,0:0:0:0:
448,192,217438,1,0,0:0:0:0:
64,192,217596,1,0,0:0:0:0:
448,192,217596,1,0,0:0:0:0:
192,192,217753,1,0,0:0:0:0:
64,192,217753,1,0,0:0:0:0:
192,192,217910,1,0,0:0:0:0:
448,192,217910,1,0,0:0:0:0:
320,192,218067,1,0,0:0:0:0:
448,192,218067,1,0,0:0:0:0:
192,192,218145,1,0,0:0:0:0:
64,192,218224,1,0,0:0:0:0:
192,192,218224,1,0,0:0:0:0:
64,192,218381,1,0,0:0:0:0:
320,192,218381,1,0,0:0:0:0:
320,192,218538,1,0,0:0:0:0:
448,192,218538,1,0,0:0:0:0:
448,192,218695,1,0,0:0:0:0:
64,192,218695,1,0,0:0:0:0:
192,192,218852,1,4,0:0:0:0:
64,192,218852,1,0,0:0:0:0:
320,192,218852,1,0,0:0:0:0:
448,192,219009,1,0,0:0:0:0:
320,192,219009,1,0,0:0:0:0:
64,192,219166,1,0,0:0:0:0:
192,192,219166,1,0,0:0:0:0:
448,192,219323,1,0,0:0:0:0:
64,192,219323,1,0,0:0:0:0:
320,192,219402,1,0,0:0:0:0:
192,192,219480,1,0,0:0:0:0:
320,192,219480,1,0,0:0:0:0:
192,192,219637,1,0,0:0:0:0:
448,192,219637,1,0,0:0:0:0:
320,192,219795,1,0,0:0:0:0:
448,192,219795,1,0,0:0:0:0:
64,192,219952,1,0,0:0:0:0:
448,192,219952,1,0,0:0:0:0:
192,192,220109,1,0,0:0:0:0:
320,192,220109,1,0,0:0:0:0:
64,192,220266,1,0,0:0:0:0:
192,192,220266,1,0,0:0:0:0:
320,192,220423,1,0,0:0:0:0:
448,192,220423,1,0,0:0:0:0:
64,192,220580,1,0,0:0:0:0:
448,192,220580,1,0,0:0:0:0:
192,192,220658,1,0,0:0:0:0:
192,192,220737,1,0,0:0:0:0:
320,192,220737,1,0,0:0:0:0:
320,192,220894,1,0,0:0:0:0:
448,192,220894,1,0,0:0:0:0:
192,192,221051,1,0,0:0:0:0:
64,192,221051,1,0,0:0:0:0:
64,192,221208,1,0,0:0:0:0:
448,192,221208,1,0,0:0:0:0:
320,192,221365,1,0,0:0:0:0:
192,192,221444,1,0,0:0:0:0:
320,192,221522,1,0,0:0:0:0:
192,192,221601,1,0,0:0:0:0:
320,192,221679,1,0,0:0:0:0:
192,192,221758,1,0,0:0:0:0:
320,192,221836,1,0,0:0:0:0:
192,192,221915,1,0,0:0:0:0:
320,192,221993,1,0,0:0:0:0:
192,192,222072,1,0,0:0:0:0:
320,192,222151,1,0,0:0:0:0:
192,192,222229,1,0,0:0:0:0:
320,192,222308,1,0,0:0:0:0:
192,192,222386,1,0,0:0:0:0:
320,192,222465,1,0,0:0:0:0:
192,192,222543,1,0,0:0:0:0:
448,192,222622,1,0,0:0:0:0:
64,192,222700,1,0,0:0:0:0:
448,192,222779,1,0,0:0:0:0:
64,192,222857,1,0,0:0:0:0:
448,192,222936,1,0,0:0:0:0:
64,192,223014,1,0,0:0:0:0:
448,192,223093,1,0,0:0:0:0:
64,192,223171,1,0,0:0:0:0:
448,192,223250,1,0,0:0:0:0:
64,192,223329,1,0,0:0:0:0:
448,192,223407,1,0,0:0:0:0:
64,192,223486,1,0,0:0:0:0:
448,192,223564,1,0,0:0:0:0:
64,192,223643,1,0,0:0:0:0:
448,192,223721,1,0,0:0:0:0:
64,192,223800,1,0,0:0:0:0:
320,192,223878,1,0,0:0:0:0:
448,192,223878,1,0,0:0:0:0:
192,192,223957,1,0,0:0:0:0:
64,192,223957,1,0,0:0:0:0:
320,192,224035,1,0,0:0:0:0:
448,192,224035,1,0,0:0:0:0:
192,192,224114,1,0,0:0:0:0:
64,192,224114,1,0,0:0:0:0:
320,192,224192,1,0,0:0:0:0:
448,192,224192,1,0,0:0:0:0:
192,192,224271,1,0,0:0:0:0:
64,192,224271,1,0,0:0:0:0:
320,192,224349,1,0,0:0:0:0:
448,192,224349,1,0,0:0:0:0:
192,192,224428,1,0,0:0:0:0:
64,192,224428,1,0,0:0:0:0:
320,192,224507,1,0,0:0:0:0:
448,192,224507,1,0,0:0:0:0:
192,192,224585,1,0,0:0:0:0:
64,192,224585,1,0,0:0:0:0:
320,192,224664,1,0,0:0:0:0:
448,192,224664,1,0,0:0:0:0:
192,192,224742,1,0,0:0:0:0:
64,192,224742,1,0,0:0:0:0:
448,192,224821,1,0,0:0:0:0:
320,192,224840,1,0,0:0:0:0:
192,191,224860,1,0,0:0:0:0:
64,192,224880,1,0,0:0:0:0:
448,192,224899,1,0,0:0:0:0:
320,192,224919,1,0,0:0:0:0:
64,192,224978,1,0,0:0:0:0:
192,191,224997,1,0,0:0:0:0:
320,192,225017,1,0,0:0:0:0:
448,192,225037,1,0,0:0:0:0:
64,192,225056,1,0,0:0:0:0:
192,191,225076,1,0,0:0:0:0:
448,192,225135,1,0,0:0:0:0:
320,192,225135,1,0,0:0:0:0:
64,192,225292,1,0,0:0:0:0:
448,192,225449,1,0,0:0:0:0:
64,192,225606,1,0,0:0:0:0:
320,192,225763,1,0,0:0:0:0:
64,192,225920,1,0,0:0:0:0:
192,192,226077,1,0,0:0:0:0:
320,192,226077,1,4,0:0:0:0:
64,192,226234,1,0,0:0:0:0:
64,192,226391,1,0,0:0:0:0:
192,192,226391,1,0,0:0:0:0:
448,192,226391,1,0,0:0:0:0:
320,192,226548,1,0,0:0:0:0:
192,192,226705,1,8,0:0:0:0:
64,192,226705,128,0,226863:0:0:0:0:
448,192,226705,1,0,0:0:0:0:
192,192,226863,128,0,227020:0:0:0:0:
448,192,226863,1,0,0:0:0:0:
320,192,227020,128,0,227177:0:0:0:0:
64,192,227020,1,0,0:0:0:0:
448,192,227177,1,0,0:0:0:0:
192,192,227334,128,0,227491:0:0:0:0:
64,192,227334,1,8,0:0:0:0:
448,192,227334,1,0,0:0:0:0:
320,192,227491,128,0,227648:0:0:0:0:
64,192,227491,1,0,0:0:0:0:
448,192,227648,128,0,227805:0:0:0:0:
192,192,227648,1,0,0:0:0:0:
64,192,227805,1,0,0:0:0:0:
192,192,227962,1,0,0:0:0:0:
64,192,227962,1,0,0:0:0:0:
448,192,227962,1,8,0:0:0:0:
192,192,228119,1,0,0:0:0:0:
320,192,228276,1,0,0:0:0:0:
448,192,228276,1,0,0:0:0:0:
320,192,228433,1,0,0:0:0:0:
192,192,228590,1,0,0:0:0:0:
64,192,228590,1,8,0:0:0:0:
448,192,228590,1,0,0:0:0:0:
448,192,228747,1,0,0:0:0:0:
192,192,228904,1,0,0:0:0:0:
64,192,228904,1,0,0:0:0:0:
320,192,229061,1,0,0:0:0:0:
192,192,229219,128,0,229376:0:0:0:0:
64,192,229219,1,8,0:0:0:0:
448,192,229219,1,0,0:0:0:0:
320,192,229376,128,0,229533:0:0:0:0:
64,192,229376,1,0,0:0:0:0:
448,192,229533,128,0,229690:0:0:0:0:
192,192,229533,1,0,0:0:0:0:
64,192,229690,1,0,0:0:0:0:
64,192,229847,128,0,230004:0:0:0:0:
320,192,229847,1,0,0:0:0:0:
448,192,229847,1,8,0:0:0:0:
192,192,230004,128,0,230161:0:0:0:0:
448,192,230004,1,0,0:0:0:0:
320,192,230161,128,0,230318:0:0:0:0:
64,192,230161,1,0,0:0:0:0:
448,192,230318,1,0,0:0:0:0:
192,192,230475,1,0,0:0:0:0:
64,192,230475,1,8,0:0:0:0:
448,192,230475,1,0,0:0:0:0:
64,192,230632,1,0,0:0:0:0:
192,192,230789,1,0,0:0:0:0:
320,192,230789,1,0,0:0:0:0:
192,192,230946,1,0,0:0:0:0:
64,192,231103,1,0,0:0:0:0:
320,192,231103,1,0,0:0:0:0:
448,192,231103,1,8,0:0:0:0:
448,192,231260,1,8,0:0:0:0:
320,192,231260,1,0,0:0:0:0:
192,192,231417,1,0,0:0:0:0:
64,192,231417,1,0,0:0:0:0:
320,192,231575,1,0,0:0:0:0:
192,192,231732,1,0,0:0:0:0:
64,192,231732,1,8,0:0:0:0:
448,192,231732,1,0,0:0:0:0:
320,192,231889,128,0,232046:0:0:0:0:
192,192,232046,128,0,232203:0:0:0:0:
64,192,232046,1,0,0:0:0:0:
448,192,232203,1,0,0:0:0:0:
64,192,232360,1,8,0:0:0:0:
192,192,232360,1,0,0:0:0:0:
320,192,232360,1,0,0:0:0:0:
448,192,232412,1,0,0:0:0:0:
320,192,232465,1,0,0:0:0:0:
192,192,232517,1,0,0:0:0:0:
320,192,232674,1,0,0:0:0:0:
448,192,232674,1,0,0:0:0:0:
192,192,232831,1,0,0:0:0:0:
64,192,232988,1,0,0:0:0:0:
320,192,232988,1,0,0:0:0:0:
448,192,232988,1,8,0:0:0:0:
192,192,233145,128,0,233302:0:0:0:0:
320,192,233302,128,0,233459:0:0:0:0:
448,192,233302,1,0,0:0:0:0:
64,192,233459,1,0,0:0:0:0:
192,192,233616,1,0,0:0:0:0:
320,192,233616,1,0,0:0:0:0:
448,192,233616,1,8,0:0:0:0:
64,192,233669,1,0,0:0:0:0:
192,192,233721,1,0,0:0:0:0:
320,192,233773,1,0,0:0:0:0:
192,192,233931,1,0,0:0:0:0:
64,192,233931,1,0,0:0:0:0:
320,192,234088,1,0,0:0:0:0:
192,192,234245,1,0,0:0:0:0:
64,192,234245,1,8,0:0:0:0:
448,192,234245,1,0,0:0:0:0:
320,192,234402,128,0,234559:0:0:0:0:
192,192,234559,128,0,234716:0:0:0:0:
64,192,234559,1,0,0:0:0:0:
448,192,234716,1,0,0:0:0:0:
320,192,234873,1,0,0:0:0:0:
192,192,234873,1,0,0:0:0:0:
64,192,234873,1,8,0:0:0:0:
448,192,234925,1,0,0:0:0:0:
320,192,234978,1,0,0:0:0:0:
192,192,235030,1,0,0:0:0:0:
64,192,235187,128,0,235344:0:0:0:0:
320,192,235187,1,0,0:0:0:0:
448,192,235187,1,0,0:0:0:0:
192,192,235344,1,0,0:0:0:0:
64,192,235501,128,0,235658:0:0:0:0:
320,192,235501,1,0,0:0:0:0:
448,192,235501,1,8,0:0:0:0:
192,192,235658,1,0,0:0:0:0:
448,192,235815,128,0,235972:0:0:0:0:
192,192,235815,1,0,0:0:0:0:
64,192,235815,1,8,0:0:0:0:
320,192,235972,1,0,0:0:0:0:
448,192,236129,128,0,236287:0:0:0:0:
192,192,236129,1,0,0:0:0:0:
64,192,236129,1,8,0:0:0:0:
320,192,236287,1,0,0:0:0:0:
192,192,236365,1,0,0:0:0:0:
64,192,236444,1,0,0:0:0:0:
320,192,236444,1,0,0:0:0:0:
448,192,236444,1,4,0:0:0:0:
192,192,236601,1,0,0:0:0:0:
64,192,236758,1,8,0:0:0:0:
448,192,236758,128,0,236915:0:0:0:0:
320,192,236758,1,0,0:0:0:0:
320,192,236915,128,0,237072:0:0:0:0:
64,192,236915,1,0,0:0:0:0:
192,192,237072,128,0,237229:0:0:0:0:
448,192,237072,1,0,0:0:0:0:
64,192,237229,1,0,0:0:0:0:
320,192,237386,128,0,237543:0:0:0:0:
64,192,237386,1,0,0:0:0:0:
448,192,237386,1,8,0:0:0:0:
192,192,237543,128,0,237700:0:0:0:0:
448,192,237543,1,0,0:0:0:0:
64,192,237700,128,0,237857:0:0:0:0:
320,192,237700,1,0,0:0:0:0:
448,192,237857,1,0,0:0:0:0:
320,192,238014,1,0,0:0:0:0:
64,192,238014,1,8,0:0:0:0:
448,192,238014,1,0,0:0:0:0:
320,192,238171,1,0,0:0:0:0:
192,192,238328,1,0,0:0:0:0:
64,192,238328,1,0,0:0:0:0:
192,192,238486,1,0,0:0:0:0:
448,192,238643,1,8,0:0:0:0:
64,192,238643,1,0,0:0:0:0:
320,192,238643,1,0,0:0:0:0:
64,192,238800,1,0,0:0:0:0:
320,192,238957,1,0,0:0:0:0:
448,192,238957,1,0,0:0:0:0:
192,192,239114,1,0,0:0:0:0:
64,192,239271,1,0,0:0:0:0:
448,192,239271,1,8,0:0:0:0:
320,192,239271,128,0,239428:0:0:0:0:
192,192,239428,128,0,239585:0:0:0:0:
448,192,239428,1,0,0:0:0:0:
320,192,239585,1,0,0:0:0:0:
64,192,239585,128,0,239742:0:0:0:0:
448,192,239742,1,0,0:0:0:0:
64,192,239899,1,8,0:0:0:0:
448,192,239899,128,0,240056:0:0:0:0:
192,192,239899,1,0,0:0:0:0:
320,192,240056,128,0,240213:0:0:0:0:
64,192,240056,1,0,0:0:0:0:
448,192,240213,1,0,0:0:0:0:
192,192,240213,128,0,240370:0:0:0:0:
64,192,240370,1,0,0:0:0:0:
320,192,240527,1,0,0:0:0:0:
448,192,240527,1,8,0:0:0:0:
64,192,240527,1,0,0:0:0:0:
448,192,240684,1,0,0:0:0:0:
320,192,240842,1,0,0:0:0:0:
192,192,240842,1,0,0:0:0:0:
320,192,240999,1,0,0:0:0:0:
448,192,241156,1,0,0:0:0:0:
64,192,241156,1,8,0:0:0:0:
192,192,241156,1,0,0:0:0:0:
64,192,241313,1,8,0:0:0:0:
192,192,241313,1,0,0:0:0:0:
320,192,241470,1,0,0:0:0:0:
448,192,241470,1,0,0:0:0:0:
192,192,241627,1,0,0:0:0:0:
448,192,241784,1,8,0:0:0:0:
64,192,241784,1,0,0:0:0:0:
320,192,241784,1,0,0:0:0:0:
192,192,241941,128,0,242098:0:0:0:0:
448,192,242098,1,0,0:0:0:0:
320,192,242098,128,0,242255:0:0:0:0:
64,192,242255,1,0,0:0:0:0:
448,192,242412,1,8,0:0:0:0:
320,192,242412,1,0,0:0:0:0:
192,192,242412,1,0,0:0:0:0:
64,192,242465,1,0,0:0:0:0:
192,192,242517,1,0,0:0:0:0:
320,192,242569,1,0,0:0:0:0:
64,192,242726,1,0,0:0:0:0:
192,192,242726,1,0,0:0:0:0:
320,192,242883,1,0,0:0:0:0:
448,192,243040,1,0,0:0:0:0:
192,192,243040,1,0,0:0:0:0:
64,192,243040,1,8,0:0:0:0:
320,192,243198,128,0,243355:0:0:0:0:
64,192,243355,1,0,0:0:0:0:
192,192,243355,128,0,243512:0:0:0:0:
448,192,243512,1,0,0:0:0:0:
64,192,243669,1,8,0:0:0:0:
192,192,243669,1,0,0:0:0:0:
320,192,243669,1,0,0:0:0:0:
448,192,243721,1,0,0:0:0:0:
64,192,243773,1,0,0:0:0:0:
192,192,243826,1,0,0:0:0:0:
320,192,243983,1,0,0:0:0:0:
448,192,243983,1,0,0:0:0:0:
192,192,244140,1,0,0:0:0:0:
64,192,244297,128,0,244454:0:0:0:0:
320,192,244297,1,0,0:0:0:0:
448,192,244297,1,8,0:0:0:0:
192,192,244454,128,0,244611:0:0:0:0:
320,192,244611,128,0,244768:0:0:0:0:
64,192,244611,1,0,0:0:0:0:
192,192,244768,128,0,244925:0:0:0:0:
320,192,244925,128,0,245082:0:0:0:0:
64,192,244925,1,0,0:0:0:0:
448,192,244925,1,8,0:0:0:0:
448,192,245082,128,0,245239:0:0:0:0:
64,192,245239,1,0,0:0:0:0:
192,192,245239,1,12,0:0:0:0:
192,192,245554,1,8,0:0:0:0:
320,192,245868,1,8,0:0:0:0:
320,192,246182,1,8,0:0:0:0:
192,192,246496,1,0,0:0:0:0:
64,192,246496,1,4,0:0:0:0:
448,192,246496,1,0,0:0:0:0:
320,192,246653,1,0,0:0:0:0:
192,192,246810,1,8,0:0:0:0:
64,192,246810,128,0,246967:0:0:0:0:
448,192,246810,1,0,0:0:0:0:
448,192,246967,1,0,0:0:0:0:
192,192,246967,128,0,247124:0:0:0:0:
320,192,247124,128,0,247281:0:0:0:0:
64,192,247124,1,0,0:0:0:0:
448,192,247281,1,0,0:0:0:0:
192,192,247438,128,0,247595:0:0:0:0:
64,192,247438,1,8,0:0:0:0:
448,192,247438,1,0,0:0:0:0:
320,192,247595,128,0,247752:0:0:0:0:
64,192,247595,1,0,0:0:0:0:
192,192,247752,1,0,0:0:0:0:
448,192,247752,128,0,247910:0:0:0:0:
64,192,247910,1,0,0:0:0:0:
192,192,248067,1,0,0:0:0:0:
64,192,248067,1,0,0:0:0:0:
448,192,248067,1,8,0:0:0:0:
192,192,248224,1,0,0:0:0:0:
64,192,248302,1,0,0:0:0:0:
320,192,248381,1,0,0:0:0:0:
448,192,248381,1,0,0:0:0:0:
320,192,248538,1,0,0:0:0:0:
448,192,248695,1,0,0:0:0:0:
64,192,248695,1,8,0:0:0:0:
192,192,248695,1,0,0:0:0:0:
448,192,248852,1,0,0:0:0:0:
64,192,249009,1,0,0:0:0:0:
192,192,249009,1,0,0:0:0:0:
320,192,249166,1,0,0:0:0:0:
192,192,249323,128,0,249480:0:0:0:0:
64,192,249323,1,0,0:0:0:0:
448,192,249323,1,8,0:0:0:0:
64,192,249480,1,0,0:0:0:0:
320,192,249480,128,0,249637:0:0:0:0:
448,192,249637,128,0,249794:0:0:0:0:
192,192,249637,1,0,0:0:0:0:
64,192,249794,1,0,0:0:0:0:
448,192,249951,1,0,0:0:0:0:
320,192,249951,1,8,0:0:0:0:
64,192,249951,128,0,250108:0:0:0:0:
448,192,250108,1,0,0:0:0:0:
192,192,250108,128,0,250266:0:0:0:0:
320,192,250266,128,0,250423:0:0:0:0:
64,192,250266,1,0,0:0:0:0:
448,192,250423,1,0,0:0:0:0:
448,192,250580,1,0,0:0:0:0:
64,192,250580,1,0,0:0:0:0:
192,192,250580,1,8,0:0:0:0:
64,192,250737,1,0,0:0:0:0:
448,192,250815,1,0,0:0:0:0:
320,192,250894,1,0,0:0:0:0:
192,192,250894,1,0,0:0:0:0:
192,192,251051,1,0,0:0:0:0:
448,192,251208,1,8,0:0:0:0:
320,192,251208,1,0,0:0:0:0:
64,192,251208,1,0,0:0:0:0:
448,192,251365,1,8,0:0:0:0:
320,192,251365,1,0,0:0:0:0:
64,192,251522,1,0,0:0:0:0:
192,192,251522,1,0,0:0:0:0:
320,192,251679,1,0,0:0:0:0:
448,192,251836,1,0,0:0:0:0:
64,192,251836,1,8,0:0:0:0:
192,192,251836,1,0,0:0:0:0:
320,192,251993,128,0,252150:0:0:0:0:
448,192,252072,1,0,0:0:0:0:
64,192,252150,1,0,0:0:0:0:
192,192,252150,128,0,252307:0:0:0:0:
448,192,252307,1,0,0:0:0:0:
64,192,252464,1,8,0:0:0:0:
320,192,252464,1,0,0:0:0:0:
192,192,252464,1,0,0:0:0:0:
448,192,252517,1,0,0:0:0:0:
320,192,252569,1,0,0:0:0:0:
192,192,252622,1,0,0:0:0:0:
320,192,252779,1,0,0:0:0:0:
448,192,252779,1,0,0:0:0:0:
192,192,252936,1,0,0:0:0:0:
64,192,253093,1,0,0:0:0:0:
448,192,253093,1,8,0:0:0:0:
320,192,253093,1,0,0:0:0:0:
192,192,253250,128,0,253407:0:0:0:0:
64,192,253328,1,0,0:0:0:0:
448,192,253407,1,0,0:0:0:0:
320,192,253407,128,0,253564:0:0:0:0:
64,192,253564,1,0,0:0:0:0:
448,192,253721,1,8,0:0:0:0:
192,192,253721,1,0,0:0:0:0:
320,192,253721,1,0,0:0:0:0:
64,192,253773,1,0,0:0:0:0:
192,192,253826,1,0,0:0:0:0:
320,192,253878,1,0,0:0:0:0:
64,192,254035,1,0,0:0:0:0:
192,192,254035,1,0,0:0:0:0:
320,192,254192,1,0,0:0:0:0:
64,192,254349,1,8,0:0:0:0:
448,192,254349,1,0,0:0:0:0:
192,192,254349,1,0,0:0:0:0:
320,192,254506,128,0,254663:0:0:0:0:
448,192,254585,1,0,0:0:0:0:
64,192,254663,1,0,0:0:0:0:
192,192,254663,128,0,254820:0:0:0:0:
448,192,254820,1,0,0:0:0:0:
192,192,254978,1,0,0:0:0:0:
64,192,254978,1,8,0:0:0:0:
320,192,254978,1,0,0:0:0:0:
448,192,255030,1,0,0:0:0:0:
320,192,255082,1,0,0:0:0:0:
192,192,255135,1,0,0:0:0:0:
448,192,255292,1,0,0:0:0:0:
64,192,255292,128,0,255449:0:0:0:0:
320,192,255292,1,0,0:0:0:0:
192,192,255449,1,0,0:0:0:0:
448,192,255606,1,8,0:0:0:0:
64,192,255606,128,0,255763:0:0:0:0:
320,192,255606,1,0,0:0:0:0:
192,192,255763,1,0,0:0:0:0:
448,192,255920,128,0,256077:0:0:0:0:
192,192,255920,1,0,0:0:0:0:
64,192,255920,1,8,0:0:0:0:
320,192,256077,1,0,0:0:0:0:
64,192,256234,1,8,0:0:0:0:
192,192,256234,1,0,0:0:0:0:
448,192,256234,128,0,256391:0:0:0:0:
320,192,256391,1,0,0:0:0:0:
192,192,256470,1,0,0:0:0:0:
64,192,256548,1,0,0:0:0:0:
448,192,256548,1,4,0:0:0:0:
320,192,256548,1,0,0:0:0:0:
192,192,256705,1,0,0:0:0:0:
448,192,256862,128,0,257019:0:0:0:0:
320,192,256862,1,0,0:0:0:0:
64,192,256862,1,8,0:0:0:0:
64,192,257019,1,0,0:0:0:0:
320,192,257019,128,0,257177:0:0:0:0:
192,192,257177,128,0,257334:0:0:0:0:
448,192,257177,1,0,0:0:0:0:
64,192,257334,1,0,0:0:0:0:
320,192,257491,128,0,257648:0:0:0:0:
64,192,257491,1,8,0:0:0:0:
448,192,257491,1,0,0:0:0:0:
448,192,257648,1,0,0:0:0:0:
192,192,257648,128,0,257805:0:0:0:0:
320,192,257805,1,0,0:0:0:0:
64,192,257805,128,0,257962:0:0:0:0:
448,192,257962,1,0,0:0:0:0:
448,192,258119,1,0,0:0:0:0:
64,192,258119,1,8,0:0:0:0:
320,192,258119,1,0,0:0:0:0:
320,192,258276,1,0,0:0:0:0:
448,192,258355,1,0,0:0:0:0:
192,192,258433,1,0,0:0:0:0:
64,192,258433,1,0,0:0:0:0:
192,192,258590,1,0,0:0:0:0:
64,192,258747,1,0,0:0:0:0:
448,192,258747,1,8,0:0:0:0:
320,192,258747,1,0,0:0:0:0:
64,192,258904,1,0,0:0:0:0:
320,192,259061,1,0,0:0:0:0:
448,192,259061,1,0,0:0:0:0:
192,192,259218,1,0,0:0:0:0:
64,192,259375,1,0,0:0:0:0:
320,192,259375,128,0,259533:0:0:0:0:
448,192,259375,1,8,0:0:0:0:
192,192,259533,128,0,259690:0:0:0:0:
448,192,259533,1,0,0:0:0:0:
64,192,259690,128,0,259847:0:0:0:0:
320,192,259690,1,0,0:0:0:0:
448,192,259847,1,0,0:0:0:0:
64,192,260004,1,8,0:0:0:0:
192,192,260004,1,0,0:0:0:0:
448,192,260004,128,0,260161:0:0:0:0:
64,192,260161,1,0,0:0:0:0:
320,192,260161,128,0,260318:0:0:0:0:
448,192,260318,1,0,0:0:0:0:
192,192,260318,128,0,260475:0:0:0:0:
64,192,260475,1,0,0:0:0:0:
448,192,260632,1,8,0:0:0:0:
320,192,260632,1,0,0:0:0:0:
64,192,260632,1,0,0:0:0:0:
448,192,260789,1,0,0:0:0:0:
64,192,260868,1,0,0:0:0:0:
192,192,260946,1,0,0:0:0:0:
320,192,260946,1,0,0:0:0:0:
320,192,261103,1,0,0:0:0:0:
64,192,261260,1,8,0:0:0:0:
192,192,261260,1,0,0:0:0:0:
448,192,261260,1,0,0:0:0:0:
64,192,261417,1,8,0:0:0:0:
192,192,261417,1,0,0:0:0:0:
448,192,261574,1,4,0:0:0:0:
320,192,261574,1,0,0:0:0:0:
64,192,261574,1,0,0:0:0:0:
192,192,261731,1,0,0:0:0:0:
448,192,261889,1,8,0:0:0:0:
320,192,261889,1,0,0:0:0:0:
64,192,261889,1,0,0:0:0:0:
192,192,262046,128,0,262203:0:0:0:0:
64,192,262124,1,0,0:0:0:0:
448,192,262203,1,0,0:0:0:0:
320,192,262203,128,0,262360:0:0:0:0:
64,192,262360,1,0,0:0:0:0:
320,192,262517,1,0,0:0:0:0:
448,192,262517,1,8,0:0:0:0:
192,192,262517,1,0,0:0:0:0:
64,192,262569,1,0,0:0:0:0:
192,192,262622,1,0,0:0:0:0:
320,192,262674,1,0,0:0:0:0:
64,192,262831,1,4,0:0:0:0:
192,192,262831,1,0,0:0:0:0:
320,192,262988,1,0,0:0:0:0:
64,192,263145,1,8,0:0:0:0:
448,192,263145,1,0,0:0:0:0:
192,192,263145,1,0,0:0:0:0:
320,192,263302,128,0,263459:0:0:0:0:
448,192,263381,1,0,0:0:0:0:
64,192,263459,1,0,0:0:0:0:
192,192,263459,128,0,263616:0:0:0:0:
448,192,263616,1,0,0:0:0:0:
320,192,263773,1,0,0:0:0:0:
64,192,263773,1,8,0:0:0:0:
192,192,263773,1,0,0:0:0:0:
448,192,263826,1,0,0:0:0:0:
64,192,263878,1,0,0:0:0:0:
192,192,263930,1,0,0:0:0:0:
320,192,264087,1,0,0:0:0:0:
448,192,264087,1,4,0:0:0:0:
64,192,264087,1,0,0:0:0:0:
192,192,264245,1,0,0:0:0:0:
64,192,264402,128,0,264559:0:0:0:0:
320,192,264402,1,0,0:0:0:0:
448,192,264402,1,8,0:0:0:0:
192,192,264559,128,0,264716:0:0:0:0:
320,192,264716,128,0,264873:0:0:0:0:
64,192,264716,1,0,0:0:0:0:
448,192,264716,1,4,0:0:0:0:
192,192,264873,128,0,265030:0:0:0:0:
320,192,265030,128,0,265187:0:0:0:0:
64,192,265030,1,8,0:0:0:0:
448,192,265030,1,0,0:0:0:0:
448,192,265187,128,0,265344:0:0:0:0:
64,192,265344,1,12,0:0:0:0:
192,192,265344,1,0,0:0:0:0:
64,192,265658,1,8,0:0:0:0:
448,192,265972,1,8,0:0:0:0:
448,192,266286,1,8,0:0:0:0:
320,192,266601,1,0,0:0:0:0:
64,192,266601,1,0,0:0:0:0:
448,192,266601,1,4,0:0:0:0:
192,192,266758,1,0,0:0:0:0:
64,192,266915,128,0,267072:0:0:0:0:
448,192,266915,1,8,0:0:0:0:
320,192,266915,1,0,0:0:0:0:
192,192,267072,128,0,267229:0:0:0:0:
448,192,267072,1,0,0:0:0:0:
320,192,267229,128,0,267386:0:0:0:0:
64,192,267229,1,0,0:0:0:0:
192,192,267386,128,0,267543:0:0:0:0:
448,192,267386,128,0,267543:0:0:0:0:
320,192,267543,128,0,267700:0:0:0:0:
64,192,267543,1,8,0:0:0:0:
192,192,267700,128,0,267857:0:0:0:0:
448,192,267700,1,0,0:0:0:0:
64,192,267857,128,0,268014:0:0:0:0:
320,192,267857,1,0,0:0:0:0:
448,192,268014,1,0,0:0:0:0:
64,192,268171,128,0,268328:0:0:0:0:
320,192,268171,1,0,0:0:0:0:
192,192,268171,1,8,0:0:0:0:
448,192,268328,1,0,0:0:0:0:
320,192,268407,1,0,0:0:0:0:
448,192,268485,128,0,268642:0:0:0:0:
192,192,268485,1,0,0:0:0:0:
64,192,268642,1,0,0:0:0:0:
448,192,268799,128,0,268957:0:0:0:0:
320,192,268799,1,8,0:0:0:0:
192,192,268799,1,0,0:0:0:0:
64,192,268957,1,0,0:0:0:0:
64,192,269114,1,0,0:0:0:0:
448,192,269114,1,0,0:0:0:0:
192,192,269114,1,0,0:0:0:0:
320,192,269271,1,0,0:0:0:0:
448,192,269428,128,0,269585:0:0:0:0:
64,192,269428,1,8,0:0:0:0:
192,192,269428,1,0,0:0:0:0:
320,192,269585,128,0,269742:0:0:0:0:
64,192,269585,1,0,0:0:0:0:
192,192,269742,128,0,269899:0:0:0:0:
448,192,269742,1,0,0:0:0:0:
64,192,269899,128,0,270056:0:0:0:0:
320,192,269899,128,0,270056:0:0:0:0:
192,192,270056,128,0,270213:0:0:0:0:
448,192,270056,1,8,0:0:0:0:
320,192,270213,128,0,270370:0:0:0:0:
64,192,270213,1,0,0:0:0:0:
448,192,270370,128,0,270527:0:0:0:0:
192,192,270370,1,0,0:0:0:0:
64,192,270527,1,0,0:0:0:0:
448,192,270684,128,0,270841:0:0:0:0:
192,192,270684,1,8,0:0:0:0:
320,192,270684,1,0,0:0:0:0:
64,192,270841,1,0,0:0:0:0:
192,192,270920,1,0,0:0:0:0:
64,192,270998,128,0,271155:0:0:0:0:
320,192,270998,1,0,0:0:0:0:
448,192,271155,1,0,0:0:0:0:
64,192,271313,128,0,271470:0:0:0:0:
192,192,271313,1,0,0:0:0:0:
320,192,271313,1,8,0:0:0:0:
448,192,271470,1,0,0:0:0:0:
448,192,271627,1,0,0:0:0:0:
320,192,271627,1,0,0:0:0:0:
64,192,271627,1,0,0:0:0:0:
192,192,271784,1,0,0:0:0:0:
64,192,271941,1,0,0:0:0:0:
320,192,271941,1,0,0:0:0:0:
448,192,271941,1,8,0:0:0:0:
192,192,272098,1,0,0:0:0:0:
320,192,272176,1,0,0:0:0:0:
192,192,272255,1,0,0:0:0:0:
448,192,272255,1,0,0:0:0:0:
320,192,272412,1,0,0:0:0:0:
192,192,272569,1,0,0:0:0:0:
64,192,272569,1,8,0:0:0:0:
448,192,272569,1,0,0:0:0:0:
320,192,272621,1,0,0:0:0:0:
192,192,272674,1,0,0:0:0:0:
64,192,272726,1,0,0:0:0:0:
192,192,272883,1,0,0:0:0:0:
448,192,272883,1,0,0:0:0:0:
320,192,273040,1,0,0:0:0:0:
448,192,273197,1,8,0:0:0:0:
64,192,273197,1,0,0:0:0:0:
192,192,273197,1,0,0:0:0:0:
320,192,273354,1,0,0:0:0:0:
192,192,273433,1,0,0:0:0:0:
320,192,273511,1,0,0:0:0:0:
64,192,273511,1,0,0:0:0:0:
192,192,273669,1,0,0:0:0:0:
64,192,273826,1,0,0:0:0:0:
320,192,273826,1,0,0:0:0:0:
448,192,273826,1,8,0:0:0:0:
192,192,273878,1,0,0:0:0:0:
320,192,273930,1,0,0:0:0:0:
448,192,273983,1,0,0:0:0:0:
320,192,274140,1,0,0:0:0:0:
64,192,274140,1,0,0:0:0:0:
192,192,274297,1,0,0:0:0:0:
64,192,274454,1,8,0:0:0:0:
192,192,274454,1,0,0:0:0:0:
448,192,274454,1,0,0:0:0:0:
320,192,274611,1,0,0:0:0:0:
192,192,274690,1,0,0:0:0:0:
320,192,274768,1,0,0:0:0:0:
448,192,274768,1,0,0:0:0:0:
192,192,274925,1,0,0:0:0:0:
192,192,275082,1,0,0:0:0:0:
64,192,275082,1,8,0:0:0:0:
448,192,275082,1,0,0:0:0:0:
320,192,275135,1,0,0:0:0:0:
192,192,275187,1,0,0:0:0:0:
448,192,275239,1,0,0:0:0:0:
192,192,275396,128,0,275553:0:0:0:0:
64,192,275396,1,0,0:0:0:0:
320,192,275553,1,0,0:0:0:0:
448,192,275710,128,0,275868:0:0:0:0:
320,192,275710,1,0,0:0:0:0:
64,192,275710,1,8,0:0:0:0:
192,192,275868,1,0,0:0:0:0:
320,192,275946,1,0,0:0:0:0:
64,192,276025,128,0,276182:0:0:0:0:
192,192,276025,1,0,0:0:0:0:
320,192,276182,1,0,0:0:0:0:
320,192,276339,128,0,276496:0:0:0:0:
448,192,276339,1,8,0:0:0:0:
64,192,276339,1,0,0:0:0:0:
192,192,276496,1,0,0:0:0:0:
64,192,276496,1,0,0:0:0:0:
448,192,276574,1,0,0:0:0:0:
64,192,276653,1,4,0:0:0:0:
192,192,276653,1,0,0:0:0:0:
320,192,276810,1,0,0:0:0:0:
192,192,276967,1,0,0:0:0:0:
64,191,276967,1,8,0:0:0:0:
448,191,276967,128,0,277124:0:0:0:0:
64,191,277124,1,0,0:0:0:0:
320,191,277124,128,0,277281:0:0:0:0:
192,192,277281,128,0,277438:0:0:0:0:
448,191,277281,1,0,0:0:0:0:
64,191,277438,128,0,277595:0:0:0:0:
320,191,277438,128,0,277595:0:0:0:0:
192,192,277595,128,0,277752:0:0:0:0:
448,191,277595,1,8,0:0:0:0:
320,191,277752,128,0,277909:0:0:0:0:
64,191,277752,1,0,0:0:0:0:
192,192,277909,1,0,0:0:0:0:
448,191,277909,128,0,278066:0:0:0:0:
64,191,278066,1,0,0:0:0:0:
448,191,278224,128,0,278381:0:0:0:0:
192,192,278224,1,0,0:0:0:0:
320,191,278224,1,8,0:0:0:0:
64,191,278381,1,0,0:0:0:0:
192,192,278459,1,0,0:0:0:0:
64,191,278538,128,0,278695:0:0:0:0:
320,191,278538,1,0,0:0:0:0:
448,191,278695,1,0,0:0:0:0:
192,192,278852,1,8,0:0:0:0:
320,191,278852,1,0,0:0:0:0:
64,191,278852,128,0,279009:0:0:0:0:
448,191,279009,1,0,0:0:0:0:
64,191,279166,1,0,0:0:0:0:
448,191,279166,1,4,0:0:0:0:
320,191,279166,1,0,0:0:0:0:
192,192,279323,1,0,0:0:0:0:
320,191,279480,1,0,0:0:0:0:
64,191,279480,128,0,279637:0:0:0:0:
448,191,279480,1,8,0:0:0:0:
448,191,279637,1,0,0:0:0:0:
192,192,279637,128,0,279794:0:0:0:0:
320,191,279794,128,0,279951:0:0:0:0:
64,191,279794,1,0,0:0:0:0:
192,192,279951,128,0,280108:0:0:0:0:
448,191,279951,128,0,280108:0:0:0:0:
64,191,280108,1,8,0:0:0:0:
320,191,280108,128,0,280265:0:0:0:0:
448,191,280265,1,0,0:0:0:0:
192,192,280265,128,0,280422:0:0:0:0:
64,191,280422,128,0,280580:0:0:0:0:
320,191,280422,1,0,0:0:0:0:
448,191,280580,1,0,0:0:0:0:
320,191,280737,1,8,0:0:0:0:
64,191,280737,128,0,280894:0:0:0:0:
192,192,280737,1,0,0:0:0:0:
448,191,280894,1,0,0:0:0:0:
320,191,280972,1,0,0:0:0:0:
448,191,281051,128,0,281208:0:0:0:0:
192,192,281051,1,0,0:0:0:0:
64,191,281208,1,0,0:0:0:0:
448,191,281365,128,0,281522:0:0:0:0:
192,192,281365,1,8,0:0:0:0:
320,192,281365,128,0,281522:0:0:0:0:
64,191,281522,1,0,0:0:0:0:
64,191,281679,1,4,0:0:0:0:
448,191,281679,1,0,0:0:0:0:
192,192,281679,1,0,0:0:0:0:
320,191,281836,1,0,0:0:0:0:
192,192,281993,1,0,0:0:0:0:
448,191,281993,1,0,0:0:0:0:
64,191,281993,1,8,0:0:0:0:
320,191,282150,1,0,0:0:0:0:
192,192,282229,1,0,0:0:0:0:
320,191,282307,1,0,0:0:0:0:
64,191,282307,1,0,0:0:0:0:
192,192,282464,1,0,0:0:0:0:
320,191,282621,1,0,0:0:0:0:
64,191,282621,1,0,0:0:0:0:
448,191,282621,1,8,0:0:0:0:
192,192,282674,1,0,0:0:0:0:
320,192,282726,1,0,0:0:0:0:
448,192,282778,1,0,0:0:0:0:
320,191,282936,1,0,0:0:0:0:
64,192,282936,128,0,283093:0:0:0:0:
448,192,282936,1,4,0:0:0:0:
192,192,283093,1,0,0:0:0:0:
448,191,283250,1,0,0:0:0:0:
320,191,283250,1,0,0:0:0:0:
64,191,283250,1,8,0:0:0:0:
192,192,283407,1,0,0:0:0:0:
320,191,283485,1,0,0:0:0:0:
448,192,283564,128,0,283721:0:0:0:0:
192,192,283564,1,0,0:0:0:0:
320,191,283721,1,0,0:0:0:0:
448,191,283878,1,0,0:0:0:0:
192,192,283878,1,0,0:0:0:0:
64,191,283878,1,8,0:0:0:0:
320,192,283930,1,0,0:0:0:0:
192,192,283983,1,0,0:0:0:0:
448,192,284035,1,0,0:0:0:0:
192,192,284192,1,0,0:0:0:0:
448,192,284192,128,0,284349:0:0:0:0:
64,192,284192,1,4,0:0:0:0:
320,191,284349,1,0,0:0:0:0:
320,191,284506,1,0,0:0:0:0:
448,191,284506,1,8,0:0:0:0:
64,191,284506,1,0,0:0:0:0:
192,192,284663,128,0,284820:0:0:0:0:
320,192,284820,128,0,284977:0:0:0:0:
64,192,284820,1,4,0:0:0:0:
448,192,284977,128,0,285134:0:0:0:0:
192,192,285134,128,0,285292:0:0:0:0:
64,192,285134,1,4,0:0:0:0:
320,192,285134,1,0,0:0:0:0:
448,192,285292,128,0,285449:0:0:0:0:
64,192,285449,128,4,285606:0:0:0:0:
320,192,285449,128,0,285606:0:0:0:0:
192,192,285763,128,0,285920:0:0:0:0:
64,192,286077,128,0,286234:0:0:0:0:
320,192,286077,128,0,286234:0:0:0:0:
192,192,286391,128,0,286548:0:0:0:0:
448,192,286391,128,0,286548:0:0:0:0:
320,192,286391,128,4,286705:0:0:0:0:
64,192,286391,128,4,286705:0:0:0:0:
192,192,286705,1,0,0:0:0:0:
448,192,286705,1,0,0:0:0:0:
448,192,286862,128,0,287019:0:0:0:0:
320,192,286941,1,0,0:0:0:0:
64,192,287019,1,8,0:0:0:0:
192,192,287019,1,0,0:0:0:0:
448,192,287176,128,0,287333:0:0:0:0:
320,192,287255,1,0,0:0:0:0:
192,192,287333,1,0,0:0:0:0:
64,192,287333,1,8,0:0:0:0:
448,192,287490,128,0,287648:0:0:0:0:
320,192,287569,1,0,0:0:0:0:
64,192,287648,1,8,0:0:0:0:
192,192,287648,1,0,0:0:0:0:
448,192,287805,128,0,287962:0:0:0:0:
320,192,287883,1,0,0:0:0:0:
192,192,287962,1,0,0:0:0:0:
64,192,287962,1,8,0:0:0:0:
64,192,288119,128,0,288276:0:0:0:0:
192,192,288197,1,0,0:0:0:0:
320,192,288276,1,0,0:0:0:0:
448,192,288276,1,8,0:0:0:0:
64,192,288433,128,0,288590:0:0:0:0:
192,192,288511,1,0,0:0:0:0:
320,192,288590,1,0,0:0:0:0:
448,192,288590,1,8,0:0:0:0:
64,192,288747,128,0,288904:0:0:0:0:
192,192,288826,1,0,0:0:0:0:
320,192,288904,1,0,0:0:0:0:
448,192,288904,1,8,0:0:0:0:
64,192,289061,128,0,289218:0:0:0:0:
192,192,289140,1,0,0:0:0:0:
320,192,289218,1,0,0:0:0:0:
448,192,289218,1,12,0:0:0:0:
320,192,289375,128,0,289532:0:0:0:0:
448,192,289454,1,0,0:0:0:0:
192,192,289532,1,0,0:0:0:0:
64,192,289532,1,8,0:0:0:0:
320,192,289689,128,0,289846:0:0:0:0:
448,192,289768,1,0,0:0:0:0:
192,192,289846,1,0,0:0:0:0:
64,192,289846,1,8,0:0:0:0:
320,192,290004,128,0,290161:0:0:0:0:
448,192,290082,1,0,0:0:0:0:
192,192,290161,1,0,0:0:0:0:
64,192,290161,1,8,0:0:0:0:
320,192,290318,128,0,290475:0:0:0:0:
448,192,290396,1,0,0:0:0:0:
192,192,290475,1,0,0:0:0:0:
64,192,290475,1,8,0:0:0:0:
192,192,290632,128,0,290789:0:0:0:0:
64,192,290710,1,0,0:0:0:0:
320,192,290789,1,0,0:0:0:0:
448,192,290789,1,8,0:0:0:0:
192,192,290946,128,0,291103:0:0:0:0:
64,192,291024,1,0,0:0:0:0:
320,192,291103,1,0,0:0:0:0:
448,192,291103,1,8,0:0:0:0:
192,192,291260,128,0,291417:0:0:0:0:
64,192,291339,1,0,0:0:0:0:
320,192,291417,1,0,0:0:0:0:
448,192,291417,1,8,0:0:0:0:
192,192,291574,128,0,291731:0:0:0:0:
64,192,291653,1,0,0:0:0:0:
320,192,291731,1,0,0:0:0:0:
448,192,291731,1,12,0:0:0:0:
64,191,291888,128,0,292045:0:0:0:0:
192,191,291967,1,0,0:0:0:0:
448,192,292045,1,8,0:0:0:0:
320,191,292045,1,0,0:0:0:0:
64,191,292203,128,0,292360:0:0:0:0:
192,191,292281,1,0,0:0:0:0:
320,191,292360,1,0,0:0:0:0:
448,192,292360,1,8,0:0:0:0:
64,191,292517,128,0,292674:0:0:0:0:
192,191,292595,1,0,0:0:0:0:
448,192,292674,1,8,0:0:0:0:
320,191,292674,1,0,0:0:0:0:
64,191,292831,128,0,292988:0:0:0:0:
192,191,292909,1,0,0:0:0:0:
448,192,292988,1,8,0:0:0:0:
320,191,292988,1,0,0:0:0:0:
448,192,293145,128,0,293302:0:0:0:0:
320,191,293223,1,0,0:0:0:0:
64,191,293302,1,8,0:0:0:0:
192,191,293302,1,0,0:0:0:0:
448,192,293459,128,0,293616:0:0:0:0:
320,191,293538,1,0,0:0:0:0:
64,191,293616,1,8,0:0:0:0:
192,191,293616,1,0,0:0:0:0:
448,192,293773,128,0,293930:0:0:0:0:
320,191,293852,1,0,0:0:0:0:
192,191,293930,1,0,0:0:0:0:
64,191,293930,1,8,0:0:0:0:
448,192,294087,128,0,294244:0:0:0:0:
320,191,294166,1,0,0:0:0:0:
192,191,294244,1,0,0:0:0:0:
64,191,294244,1,12,0:0:0:0:
192,191,294401,128,0,294559:0:0:0:0:
64,191,294480,1,0,0:0:0:0:
448,192,294559,1,8,0:0:0:0:
320,191,294559,1,0,0:0:0:0:
192,191,294716,128,0,294873:0:0:0:0:
64,191,294794,1,0,0:0:0:0:
320,191,294873,1,0,0:0:0:0:
448,192,294873,1,8,0:0:0:0:
192,191,295030,128,0,295187:0:0:0:0:
64,191,295108,1,0,0:0:0:0:
448,192,295187,1,8,0:0:0:0:
320,191,295187,1,0,0:0:0:0:
192,191,295344,128,0,295501:0:0:0:0:
64,191,295422,1,0,0:0:0:0:
448,192,295501,1,8,0:0:0:0:
320,191,295501,1,0,0:0:0:0:
320,191,295658,128,0,295815:0:0:0:0:
448,192,295737,1,0,0:0:0:0:
192,191,295815,1,0,0:0:0:0:
64,191,295815,1,8,0:0:0:0:
320,191,295972,128,0,296129:0:0:0:0:
448,192,296051,1,0,0:0:0:0:
192,191,296129,1,0,0:0:0:0:
64,191,296129,1,8,0:0:0:0:
320,191,296286,128,0,296443:0:0:0:0:
448,192,296365,1,0,0:0:0:0:
192,191,296443,1,0,0:0:0:0:
64,191,296443,1,8,0:0:0:0:
320,191,296600,128,0,296757:0:0:0:0:
448,192,296679,1,0,0:0:0:0:
192,191,296757,1,0,0:0:0:0:
64,191,296757,1,12,0:0:0:0:
192,192,296915,1,0,0:0:0:0:
320,192,296915,1,0,0:0:0:0:
320,192,297072,1,0,0:0:0:0:
448,192,297072,1,0,0:0:0:0:
64,192,297229,1,0,0:0:0:0:
448,192,297229,1,0,0:0:0:0:
320,192,297307,1,0,0:0:0:0:
64,192,297386,1,0,0:0:0:0:
192,192,297386,1,0,0:0:0:0:
192,192,297543,1,0,0:0:0:0:
320,192,297543,1,0,0:0:0:0:
320,192,297700,1,0,0:0:0:0:
448,192,297700,1,0,0:0:0:0:
64,192,297857,1,0,0:0:0:0:
448,192,297857,1,0,0:0:0:0:
320,192,298014,1,0,0:0:0:0:
448,192,298014,1,4,0:0:0:0:
64,192,298014,1,0,0:0:0:0:
192,192,298171,1,0,0:0:0:0:
320,192,298171,1,0,0:0:0:0:
64,192,298328,1,0,0:0:0:0:
192,192,298328,1,0,0:0:0:0:
64,192,298485,1,0,0:0:0:0:
448,192,298485,1,0,0:0:0:0:
192,192,298564,1,0,0:0:0:0:
320,192,298642,1,0,0:0:0:0:
448,192,298642,1,0,0:0:0:0:
192,192,298799,1,0,0:0:0:0:
320,192,298799,1,0,0:0:0:0:
64,192,298956,1,0,0:0:0:0:
192,192,298956,1,0,0:0:0:0:
64,192,299113,1,0,0:0:0:0:
448,192,299113,1,0,0:0:0:0:
64,192,299271,1,4,0:0:0:0:
192,192,299271,1,0,0:0:0:0:
448,192,299271,1,0,0:0:0:0:
192,192,299428,1,0,0:0:0:0:
320,192,299428,1,0,0:0:0:0:
320,192,299585,1,0,0:0:0:0:
448,192,299585,1,0,0:0:0:0:
64,192,299742,1,0,0:0:0:0:
448,192,299742,1,0,0:0:0:0:
320,192,299820,1,0,0:0:0:0:
64,192,299899,1,0,0:0:0:0:
320,192,299899,1,0,0:0:0:0:
192,192,300056,1,0,0:0:0:0:
320,192,300056,1,0,0:0:0:0:
320,192,300213,1,0,0:0:0:0:
448,192,300213,1,0,0:0:0:0:
64,192,300370,1,0,0:0:0:0:
448,192,300370,1,0,0:0:0:0:
64,192,300527,1,0,0:0:0:0:
448,192,300527,1,4,0:0:0:0:
320,192,300527,1,0,0:0:0:0:
320,192,300684,1,0,0:0:0:0:
192,192,300684,1,0,0:0:0:0:
192,192,300841,1,0,0:0:0:0:
64,192,300841,1,0,0:0:0:0:
64,192,300998,1,0,0:0:0:0:
448,192,300998,1,0,0:0:0:0:
192,192,301077,1,0,0:0:0:0:
448,192,301155,1,0,0:0:0:0:
192,192,301155,1,0,0:0:0:0:
192,192,301312,1,0,0:0:0:0:
320,192,301312,1,0,0:0:0:0:
192,192,301469,1,0,0:0:0:0:
64,192,301469,1,0,0:0:0:0:
64,192,301627,1,0,0:0:0:0:
448,192,301627,1,0,0:0:0:0:
320,192,301784,1,0,0:0:0:0:
192,192,301862,1,0,0:0:0:0:
320,192,301941,1,0,0:0:0:0:
192,192,302019,1,0,0:0:0:0:
320,192,302098,1,0,0:0:0:0:
192,192,302176,1,0,0:0:0:0:
320,192,302255,1,0,0:0:0:0:
192,192,302333,1,0,0:0:0:0:
320,192,302412,1,0,0:0:0:0:
192,192,302490,1,0,0:0:0:0:
320,192,302569,1,0,0:0:0:0:
192,192,302647,1,0,0:0:0:0:
320,192,302726,1,0,0:0:0:0:
192,192,302805,1,0,0:0:0:0:
320,192,302883,1,0,0:0:0:0:
192,192,302962,1,0,0:0:0:0:
448,192,303040,1,0,0:0:0:0:
64,192,303119,1,0,0:0:0:0:
448,192,303197,1,0,0:0:0:0:
64,192,303276,1,0,0:0:0:0:
448,192,303354,1,0,0:0:0:0:
64,192,303433,1,0,0:0:0:0:
448,192,303511,1,0,0:0:0:0:
64,192,303590,1,0,0:0:0:0:
448,192,303668,1,0,0:0:0:0:
64,192,303747,1,0,0:0:0:0:
448,192,303825,1,0,0:0:0:0:
64,192,303904,1,0,0:0:0:0:
448,192,303983,1,0,0:0:0:0:
64,192,304061,1,0,0:0:0:0:
448,192,304140,1,0,0:0:0:0:
64,192,304218,1,0,0:0:0:0:
448,192,304297,1,0,0:0:0:0:
320,192,304297,1,0,0:0:0:0:
192,192,304375,1,0,0:0:0:0:
64,192,304375,1,0,0:0:0:0:
320,192,304454,1,0,0:0:0:0:
448,192,304454,1,0,0:0:0:0:
64,192,304532,1,0,0:0:0:0:
192,192,304532,1,0,0:0:0:0:
320,192,304611,1,0,0:0:0:0:
448,192,304611,1,0,0:0:0:0:
192,192,304689,1,0,0:0:0:0:
64,192,304689,1,0,0:0:0:0:
320,192,304768,1,0,0:0:0:0:
448,192,304768,1,0,0:0:0:0:
192,192,304846,1,0,0:0:0:0:
64,192,304846,1,0,0:0:0:0:
448,192,304925,1,0,0:0:0:0:
320,192,304925,1,0,0:0:0:0:
192,192,305003,1,0,0:0:0:0:
64,192,305003,1,0,0:0:0:0:
320,192,305082,1,0,0:0:0:0:
448,192,305082,1,0,0:0:0:0:
64,192,305161,1,0,0:0:0:0:
192,192,305161,1,0,0:0:0:0:
448,192,305239,1,0,0:0:0:0:
320,192,305259,1,0,0:0:0:0:
192,191,305278,1,0,0:0:0:0:
64,192,305298,1,0,0:0:0:0:
448,192,305318,1,0,0:0:0:0:
320,192,305337,1,0,0:0:0:0:
64,192,305396,1,0,0:0:0:0:
192,191,305416,1,0,0:0:0:0:
320,192,305435,1,0,0:0:0:0:
448,192,305455,1,0,0:0:0:0:
64,192,305475,1,0,0:0:0:0:
192,191,305494,1,0,0:0:0:0:
448,192,305553,1,0,0:0:0:0:
64,192,305632,1,0,0:0:0:0:
192,192,305710,1,0,0:0:0:0:
320,192,305789,1,0,0:0:0:0:
448,192,305867,1,0,0:0:0:0:
320,192,306024,1,0,0:0:0:0:
448,192,306181,1,0,0:0:0:0:
448,192,306339,1,0,0:0:0:0:
320,192,306496,1,0,0:0:0:0:
64,192,306496,1,8,0:0:0:0:
192,192,306653,1,0,0:0:0:0:
64,192,306810,1,0,0:0:0:0:
448,192,306810,1,4,0:0:0:0:
320,192,306810,1,0,0:0:0:0:
192,192,306967,1,0,0:0:0:0:
320,192,307045,1,0,0:0:0:0:
192,192,307124,1,0,0:0:0:0:
64,192,307124,1,8,0:0:0:0:
448,192,307202,1,0,0:0:0:0:
320,192,307281,1,0,0:0:0:0:
192,192,307359,1,0,0:0:0:0:
320,192,307438,1,0,0:0:0:0:
448,192,307438,1,0,0:0:0:0:
64,192,307595,1,0,0:0:0:0:
448,192,307674,1,0,0:0:0:0:
192,192,307752,1,8,0:0:0:0:
64,192,307752,1,0,0:0:0:0:
320,192,307831,1,0,0:0:0:0:
448,192,307909,1,0,0:0:0:0:
64,192,307988,1,0,0:0:0:0:
448,192,308066,1,0,0:0:0:0:
320,192,308066,1,0,0:0:0:0:
192,192,308223,1,0,0:0:0:0:
448,192,308302,1,0,0:0:0:0:
320,192,308380,1,0,0:0:0:0:
64,192,308380,1,8,0:0:0:0:
192,192,308459,1,0,0:0:0:0:
320,192,308537,1,0,0:0:0:0:
64,192,308616,1,0,0:0:0:0:
192,192,308695,1,0,0:0:0:0:
448,192,308695,1,0,0:0:0:0:
320,192,308852,1,0,0:0:0:0:
64,192,308930,1,0,0:0:0:0:
448,192,309009,1,8,0:0:0:0:
192,192,309009,1,0,0:0:0:0:
320,192,309087,1,0,0:0:0:0:
192,192,309166,1,0,0:0:0:0:
448,192,309244,1,0,0:0:0:0:
320,192,309323,1,0,0:0:0:0:
64,192,309323,1,0,0:0:0:0:
320,192,309480,1,0,0:0:0:0:
192,191,309558,1,0,0:0:0:0:
448,192,309637,1,8,0:0:0:0:
320,192,309637,1,0,0:0:0:0:
64,191,309715,1,0,0:0:0:0:
192,191,309794,1,0,0:0:0:0:
320,192,309873,1,0,0:0:0:0:
64,191,309951,1,0,0:0:0:0:
192,191,309951,1,0,0:0:0:0:
448,192,310108,1,0,0:0:0:0:
64,191,310187,1,0,0:0:0:0:
320,192,310265,1,8,0:0:0:0:
448,192,310265,1,0,0:0:0:0:
192,191,310344,1,0,0:0:0:0:
64,191,310422,1,0,0:0:0:0:
448,192,310501,1,0,0:0:0:0:
192,191,310579,1,0,0:0:0:0:
64,191,310579,1,0,0:0:0:0:
320,192,310736,1,0,0:0:0:0:
64,191,310815,1,0,0:0:0:0:
448,192,310894,1,8,0:0:0:0:
192,191,310894,1,0,0:0:0:0:
320,192,310972,1,0,0:0:0:0:
192,191,311051,1,0,0:0:0:0:
448,192,311129,1,0,0:0:0:0:
64,191,311208,1,0,0:0:0:0:
320,192,311208,1,0,0:0:0:0:
192,191,311365,1,0,0:0:0:0:
448,192,311443,1,0,0:0:0:0:
64,191,311522,1,8,0:0:0:0:
320,192,311522,1,0,0:0:0:0:
192,191,311600,1,0,0:0:0:0:
320,192,311679,1,8,0:0:0:0:
448,192,311679,1,0,0:0:0:0:
64,191,311757,1,0,0:0:0:0:
192,191,311836,1,0,0:0:0:0:
448,192,311836,1,0,0:0:0:0:
64,192,311993,1,0,0:0:0:0:
192,192,312072,1,0,0:0:0:0:
448,192,312150,1,8,0:0:0:0:
320,192,312150,1,0,0:0:0:0:
64,192,312229,1,0,0:0:0:0:
448,192,312307,1,0,0:0:0:0:
320,192,312386,1,0,0:0:0:0:
64,192,312464,1,0,0:0:0:0:
192,192,312464,1,0,0:0:0:0:
448,192,312621,1,0,0:0:0:0:
192,192,312700,1,0,0:0:0:0:
64,192,312778,1,0,0:0:0:0:
320,192,312778,1,8,0:0:0:0:
192,192,312857,1,0,0:0:0:0:
64,192,312935,1,0,0:0:0:0:
320,192,313014,1,0,0:0:0:0:
448,192,313092,1,0,0:0:0:0:
192,192,313092,1,0,0:0:0:0:
448,192,313250,1,0,0:0:0:0:
192,192,313328,1,0,0:0:0:0:
64,192,313407,1,8,0:0:0:0:
448,192,313407,1,0,0:0:0:0:
320,192,313485,1,0,0:0:0:0:
192,192,313564,1,0,0:0:0:0:
64,192,313642,1,0,0:0:0:0:
448,192,313721,1,0,0:0:0:0:
192,192,313721,1,0,0:0:0:0:
192,192,313878,1,0,0:0:0:0:
320,192,313956,1,0,0:0:0:0:
64,192,314035,1,0,0:0:0:0:
448,192,314035,1,8,0:0:0:0:
192,192,314113,1,0,0:0:0:0:
320,192,314192,1,0,0:0:0:0:
448,192,314270,1,0,0:0:0:0:
64,192,314349,1,0,0:0:0:0:
320,192,314349,1,0,0:0:0:0:
320,192,314506,1,0,0:0:0:0:
448,192,314585,1,0,0:0:0:0:
64,192,314663,1,8,0:0:0:0:
192,192,314663,1,0,0:0:0:0:
320,192,314742,1,0,0:0:0:0:
192,192,314820,1,0,0:0:0:0:
64,192,314899,1,0,0:0:0:0:
320,192,314977,1,0,0:0:0:0:
448,192,314977,1,0,0:0:0:0:
448,192,315134,1,0,0:0:0:0:
320,192,315213,1,0,0:0:0:0:
192,192,315291,1,0,0:0:0:0:
64,192,315291,1,8,0:0:0:0:
320,192,315370,1,0,0:0:0:0:
64,192,315448,1,0,0:0:0:0:
192,192,315527,1,0,0:0:0:0:
320,192,315606,1,0,0:0:0:0:
448,192,315606,1,4,0:0:0:0:
192,192,316548,128,0,316862:0:0:0:0:
448,192,316548,128,12,316862:0:0:0:0:
64,192,316862,1,0,0:0:0:0:
320,192,316862,1,0,0:0:0:0:
192,192,317019,1,0,0:0:0:0:
320,192,317098,1,0,0:0:0:0:
64,192,317176,1,8,0:0:0:0:
192,192,317176,1,0,0:0:0:0:
448,192,317255,1,0,0:0:0:0:
320,192,317333,1,0,0:0:0:0:
192,192,317412,1,0,0:0:0:0:
448,192,317490,1,0,0:0:0:0:
320,192,317490,1,0,0:0:0:0:
64,192,317647,1,0,0:0:0:0:
448,192,317726,1,0,0:0:0:0:
64,192,317804,1,0,0:0:0:0:
192,192,317804,1,8,0:0:0:0:
320,192,317883,1,0,0:0:0:0:
448,192,317962,1,0,0:0:0:0:
64,192,318040,1,0,0:0:0:0:
320,192,318119,1,0,0:0:0:0:
448,192,318119,1,0,0:0:0:0:
192,192,318276,1,0,0:0:0:0:
448,192,318354,1,0,0:0:0:0:
64,192,318433,1,8,0:0:0:0:
320,192,318433,1,0,0:0:0:0:
192,192,318511,1,0,0:0:0:0:
320,192,318590,1,0,0:0:0:0:
64,192,318668,1,0,0:0:0:0:
448,192,318747,1,0,0:0:0:0:
192,192,318747,1,0,0:0:0:0:
320,192,318904,1,0,0:0:0:0:
64,192,318982,1,0,0:0:0:0:
192,192,319061,1,0,0:0:0:0:
448,192,319061,1,8,0:0:0:0:
320,192,319140,1,0,0:0:0:0:
192,192,319218,1,0,0:0:0:0:
448,192,319297,1,0,0:0:0:0:
64,192,319375,1,0,0:0:0:0:
320,192,319375,1,0,0:0:0:0:
320,192,319532,1,0,0:0:0:0:
192,191,319611,1,0,0:0:0:0:
320,192,319689,1,0,0:0:0:0:
448,192,319689,1,8,0:0:0:0:
64,191,319768,1,0,0:0:0:0:
192,191,319846,1,0,0:0:0:0:
320,192,319925,1,0,0:0:0:0:
192,191,320003,1,0,0:0:0:0:
64,191,320003,1,0,0:0:0:0:
448,192,320160,1,0,0:0:0:0:
64,191,320239,1,0,0:0:0:0:
448,192,320318,1,0,0:0:0:0:
320,192,320318,1,8,0:0:0:0:
192,191,320396,1,0,0:0:0:0:
64,191,320475,1,0,0:0:0:0:
448,192,320553,1,0,0:0:0:0:
64,191,320632,1,0,0:0:0:0:
192,191,320632,1,0,0:0:0:0:
320,192,320789,1,0,0:0:0:0:
64,191,320867,1,0,0:0:0:0:
192,191,320946,1,0,0:0:0:0:
448,192,320946,1,8,0:0:0:0:
320,192,321024,1,0,0:0:0:0:
192,191,321103,1,0,0:0:0:0:
448,192,321181,1,0,0:0:0:0:
320,192,321260,1,0,0:0:0:0:
64,191,321260,1,0,0:0:0:0:
192,191,321417,1,0,0:0:0:0:
448,192,321496,1,0,0:0:0:0:
320,192,321574,1,0,0:0:0:0:
64,191,321574,1,8,0:0:0:0:
192,191,321653,1,0,0:0:0:0:
448,192,321731,1,0,0:0:0:0:
320,192,321731,1,8,0:0:0:0:
64,191,321810,1,0,0:0:0:0:
448,192,321888,1,0,0:0:0:0:
192,191,321888,1,0,0:0:0:0:
320,192,321967,1,0,0:0:0:0:
64,192,322045,1,0,0:0:0:0:
192,192,322124,1,0,0:0:0:0:
320,192,322202,1,0,0:0:0:0:
448,192,322202,1,8,0:0:0:0:
64,192,322281,1,0,0:0:0:0:
448,192,322359,1,0,0:0:0:0:
320,192,322438,1,0,0:0:0:0:
192,192,322516,1,0,0:0:0:0:
64,192,322516,1,0,0:0:0:0:
320,192,322595,1,0,0:0:0:0:
448,192,322674,1,0,0:0:0:0:
192,192,322752,1,0,0:0:0:0:
320,192,322831,1,8,0:0:0:0:
64,192,322831,1,0,0:0:0:0:
192,192,322909,1,0,0:0:0:0:
64,192,322988,1,0,0:0:0:0:
320,192,323066,1,0,0:0:0:0:
192,192,323145,1,0,0:0:0:0:
448,192,323145,1,0,0:0:0:0:
320,192,323223,1,0,0:0:0:0:
448,192,323302,1,0,0:0:0:0:
192,192,323380,1,0,0:0:0:0:
448,192,323459,1,0,0:0:0:0:
64,192,323459,1,8,0:0:0:0:
320,192,323537,1,0,0:0:0:0:
192,192,323616,1,0,0:0:0:0:
64,192,323694,1,0,0:0:0:0:
192,192,323773,1,0,0:0:0:0:
448,192,323773,1,0,0:0:0:0:
320,192,323852,1,0,0:0:0:0:
192,192,323930,1,0,0:0:0:0:
320,192,324009,1,0,0:0:0:0:
448,192,324087,1,8,0:0:0:0:
64,192,324087,1,0,0:0:0:0:
192,192,324166,1,0,0:0:0:0:
320,192,324244,1,0,0:0:0:0:
448,192,324323,1,0,0:0:0:0:
320,192,324401,1,0,0:0:0:0:
64,192,324401,1,0,0:0:0:0:
192,192,324480,1,0,0:0:0:0:
320,192,324558,1,0,0:0:0:0:
448,192,324637,1,0,0:0:0:0:
192,192,324715,1,0,0:0:0:0:
64,192,324715,1,8,0:0:0:0:
320,192,324794,1,0,0:0:0:0:
192,192,324872,1,0,0:0:0:0:
64,192,324951,1,0,0:0:0:0:
448,192,325030,1,8,0:0:0:0:
320,192,325030,1,0,0:0:0:0:
192,192,325108,1,0,0:0:0:0:
448,192,325187,1,0,0:0:0:0:
320,192,325265,1,0,0:0:0:0:
64,192,325344,1,8,0:0:0:0:
192,192,325344,1,0,0:0:0:0:
320,192,325422,1,0,0:0:0:0:
64,192,325501,1,0,0:0:0:0:
192,192,325579,1,0,0:0:0:0:
448,192,325658,1,8,0:0:0:0:
320,192,325658,1,0,0:0:0:0:
448,192,325972,1,8,0:0:0:0:
448,192,326286,1,8,0:0:0:0:
64,192,326522,1,8,0:0:0:0:
448,192,326600,1,8,0:0:0:0:
64,192,326679,1,8,0:0:0:0:
448,192,326757,1,8,0:0:0:0:
64,192,326836,1,8,0:0:0:0:
320,192,326914,1,0,0:0:0:0:
448,192,326914,128,0,327071:0:0:0:0:
320,192,327071,128,0,327228:0:0:0:0:
192,192,327228,128,0,327386:0:0:0:0:
448,192,327228,1,8,0:0:0:0:
64,192,327386,128,0,327543:0:0:0:0:
448,192,327543,128,0,327700:0:0:0:0:
192,192,327543,1,0,0:0:0:0:
320,192,327700,128,0,327857:0:0:0:0:
192,192,327857,128,0,328014:0:0:0:0:
448,192,327857,1,8,0:0:0:0:
64,192,328014,128,0,328171:0:0:0:0:
448,192,328171,128,0,328328:0:0:0:0:
192,192,328171,1,0,0:0:0:0:
320,192,328328,128,0,328485:0:0:0:0:
192,192,328485,128,0,328642:0:0:0:0:
448,192,328485,1,8,0:0:0:0:
64,192,328642,128,0,328799:0:0:0:0:
448,192,328799,128,0,328956:0:0:0:0:
192,192,328799,1,0,0:0:0:0:
320,192,328956,128,0,329113:0:0:0:0:
192,192,329113,128,0,329270:0:0:0:0:
448,192,329113,1,8,0:0:0:0:
64,192,329270,128,0,329427:0:0:0:0:
192,192,329427,128,0,329585:0:0:0:0:
448,192,329427,1,0,0:0:0:0:
320,192,329585,128,0,329742:0:0:0:0:
448,192,329742,128,0,329899:0:0:0:0:
192,192,329742,1,8,0:0:0:0:
320,192,329899,128,0,330056:0:0:0:0:
64,192,330056,128,0,330213:0:0:0:0:
448,192,330056,1,0,0:0:0:0:
192,192,330213,128,0,330370:0:0:0:0:
320,192,330370,128,0,330527:0:0:0:0:
64,192,330370,1,8,0:0:0:0:
448,192,330527,128,0,330684:0:0:0:0:
64,192,330684,128,0,330841:0:0:0:0:
320,192,330684,1,0,0:0:0:0:
192,192,330841,128,0,330998:0:0:0:0:
320,192,330998,128,0,331155:0:0:0:0:
64,192,330998,1,8,0:0:0:0:
448,192,331155,128,0,331312:0:0:0:0:
64,192,331312,128,0,331469:0:0:0:0:
320,192,331312,1,0,0:0:0:0:
192,192,331469,128,0,331626:0:0:0:0:
320,192,331626,128,0,331783:0:0:0:0:
64,192,331626,1,8,0:0:0:0:
448,192,331783,128,0,331941:0:0:0:0:
192,192,331783,1,8,0:0:0:0:
192,192,331941,128,0,332098:0:0:0:0:
64,192,331941,1,0,0:0:0:0:
320,192,332098,128,0,332255:0:0:0:0:
192,192,332255,128,0,332412:0:0:0:0:
64,192,332255,1,8,0:0:0:0:
320,192,332412,128,0,332569:0:0:0:0:
64,192,332569,128,0,332726:0:0:0:0:
192,192,332569,1,0,0:0:0:0:
448,192,332726,128,0,332883:0:0:0:0:
64,192,332883,128,0,333040:0:0:0:0:
192,192,332883,1,8,0:0:0:0:
448,192,333040,128,0,333197:0:0:0:0:
64,192,333197,128,0,333354:0:0:0:0:
192,192,333197,1,0,0:0:0:0:
320,192,333354,128,0,333511:0:0:0:0:
64,192,333511,128,0,333668:0:0:0:0:
192,192,333511,1,8,0:0:0:0:
320,192,333668,128,0,333825:0:0:0:0:
192,192,333825,128,0,333982:0:0:0:0:
64,192,333825,1,0,0:0:0:0:
448,192,333982,128,0,334139:0:0:0:0:
192,192,334139,128,0,334297:0:0:0:0:
64,192,334139,1,8,0:0:0:0:
448,192,334297,128,0,334454:0:0:0:0:
320,192,334454,128,0,334611:0:0:0:0:
192,192,334454,1,0,0:0:0:0:
64,192,334611,128,0,334768:0:0:0:0:
448,192,334768,128,0,334925:0:0:0:0:
320,192,334768,1,8,0:0:0:0:
64,192,334925,128,0,335082:0:0:0:0:
320,192,335082,128,0,335239:0:0:0:0:
448,192,335082,1,0,0:0:0:0:
192,192,335239,128,0,335396:0:0:0:0:
448,192,335396,128,0,335553:0:0:0:0:
320,192,335396,1,8,0:0:0:0:
64,192,335553,128,0,335710:0:0:0:0:
320,192,335710,128,0,335867:0:0:0:0:
448,192,335710,1,0,0:0:0:0:
192,192,335867,128,0,336024:0:0:0:0:
448,192,336024,128,0,336181:0:0:0:0:
320,192,336024,1,8,0:0:0:0:
64,192,336181,128,0,336338:0:0:0:0:
320,192,336338,128,0,336495:0:0:0:0:
448,192,336338,1,0,0:0:0:0:
192,192,336495,128,0,336653:0:0:0:0:
448,192,336653,128,0,336810:0:0:0:0:
320,192,336653,1,8,0:0:0:0:
64,192,336810,128,0,336967:0:0:0:0:
192,192,336810,1,8,0:0:0:0:
320,192,336888,1,8,0:0:0:0:
448,192,336967,1,4,0:0:0:0:
192,192,336967,1,8,0:0:0:0:
64,192,337124,1,0,0:0:0:0:
320,192,337281,1,0,0:0:0:0:
448,192,337281,1,8,0:0:0:0:
64,192,337438,1,0,0:0:0:0:
192,192,337595,1,0,0:0:0:0:
448,192,337595,1,8,0:0:0:0:
64,192,337752,1,0,0:0:0:0:
320,192,337909,1,0,0:0:0:0:
448,192,337909,1,8,0:0:0:0:
64,192,338066,1,0,0:0:0:0:
192,192,338223,1,0,0:0:0:0:
448,192,338223,1,8,0:0:0:0:
64,192,338380,1,0,0:0:0:0:
320,192,338537,1,0,0:0:0:0:
448,192,338537,1,8,0:0:0:0:
64,192,338694,1,0,0:0:0:0:
192,192,338851,1,0,0:0:0:0:
448,192,338851,1,8,0:0:0:0:
64,192,339009,1,0,0:0:0:0:
320,192,339166,1,0,0:0:0:0:
448,192,339166,1,8,0:0:0:0:
64,192,339323,1,0,0:0:0:0:
192,192,339480,1,0,0:0:0:0:
64,192,339480,1,8,0:0:0:0:
448,192,339480,1,4,0:0:0:0:
448,192,339637,1,0,0:0:0:0:
320,192,339794,1,0,0:0:0:0:
64,192,339794,1,8,0:0:0:0:
448,192,339951,1,0,0:0:0:0:
192,192,340108,1,0,0:0:0:0:
64,192,340108,1,8,0:0:0:0:
448,192,340265,1,0,0:0:0:0:
64,192,340422,1,8,0:0:0:0:
320,192,340422,1,0,0:0:0:0:
448,192,340579,1,0,0:0:0:0:
192,192,340736,1,0,0:0:0:0:
64,192,340736,1,8,0:0:0:0:
448,192,340893,1,0,0:0:0:0:
320,192,341050,1,0,0:0:0:0:
64,192,341050,1,8,0:0:0:0:
448,192,341207,1,0,0:0:0:0:
192,192,341365,1,0,0:0:0:0:
64,192,341365,1,8,0:0:0:0:
448,192,341522,1,0,0:0:0:0:
64,192,341679,1,8,0:0:0:0:
320,192,341679,1,0,0:0:0:0:
448,192,341836,1,0,0:0:0:0:
64,192,341993,1,8,0:0:0:0:
192,192,341993,1,0,0:0:0:0:
448,192,341993,1,4,0:0:0:0:
320,192,342150,1,0,0:0:0:0:
192,192,342150,1,0,0:0:0:0:
320,192,342307,1,0,0:0:0:0:
448,192,342307,1,0,0:0:0:0:
64,192,342464,1,0,0:0:0:0:
448,192,342464,1,0,0:0:0:0:
64,192,342621,1,0,0:0:0:0:
192,192,342621,1,0,0:0:0:0:
192,192,342778,1,0,0:0:0:0:
320,192,342778,1,0,0:0:0:0:
320,192,342935,1,0,0:0:0:0:
448,192,342935,1,0,0:0:0:0:
64,192,343092,1,0,0:0:0:0:
448,192,343092,1,0,0:0:0:0:
320,192,343249,1,0,0:0:0:0:
448,192,343249,1,4,0:0:0:0:
64,192,343249,1,0,0:0:0:0:
192,192,343406,1,0,0:0:0:0:
320,192,343406,1,0,0:0:0:0:
192,192,343563,1,0,0:0:0:0:
64,192,343563,1,0,0:0:0:0:
64,192,343721,1,0,0:0:0:0:
448,192,343721,1,0,0:0:0:0:
320,192,343878,1,0,0:0:0:0:
448,192,343878,1,0,0:0:0:0:
320,192,344035,1,0,0:0:0:0:
192,192,344035,1,0,0:0:0:0:
192,192,344192,1,0,0:0:0:0:
64,192,344192,1,0,0:0:0:0:
64,192,344349,1,0,0:0:0:0:
448,192,344349,1,0,0:0:0:0:
320,192,344506,1,0,0:0:0:0:
192,192,344584,1,0,0:0:0:0:
320,192,344663,1,0,0:0:0:0:
192,192,344741,1,0,0:0:0:0:
320,192,344820,1,0,0:0:0:0:
192,192,344899,1,0,0:0:0:0:
320,192,344977,1,0,0:0:0:0:
192,192,345056,1,0,0:0:0:0:
448,192,345134,1,0,0:0:0:0:
64,192,345213,1,0,0:0:0:0:
448,192,345291,1,0,0:0:0:0:
64,192,345370,1,0,0:0:0:0:
448,192,345448,1,0,0:0:0:0:
64,192,345527,1,0,0:0:0:0:
448,192,345605,1,0,0:0:0:0:
64,192,345684,1,0,0:0:0:0:
448,192,345762,1,0,0:0:0:0:
320,192,346705,128,8,347019:0:0:0:0:
192,192,346705,128,0,347019:0:0:0:0:
448,192,347019,128,4,352045:0:0:0:0:
64,192,347019,128,0,352045:0:0:0:0:
