osu file format v14

[General]
AudioFilename: exh.mp3
AudioLeadIn: 0
PreviewTime: 61480
Countdown: 0
SampleSet: None
StackLeniency: 0.7
Mode: 3
LetterboxInBreaks: 0
SpecialStyle: 0
WidescreenStoryboard: 0

[Editor]
DistanceSpacing: 0.8
BeatDivisor: 4
GridSize: 4
TimelineZoom: 1.4

[Metadata]
Title:LegenD.
TitleUnicode:LegenD.
Artist:Yooh
ArtistUnicode:Yooh
Creator:_FrEsH_ChICkEn_
Version:ADVANCED
Source:SOUND VOLTEX III GRAVITY WARS
Tags:The 4th KAC sdvx Konami Arcade Championship 嬬武器烈風刀 Kuo Kyoka
BeatmapID:668854
BeatmapSetID:298006

[Difficulty]
HPDrainRate:7.8
CircleSize:4
OverallDifficulty:7.8
ApproachRate:5
SliderMultiplier:1.4
SliderTickRate:1

[Events]
//Background and Video events
0,0,"legend.png",0,0
//Break Periods
//Storyboard Layer 0 (Background)
//Storyboard Layer 1 (Fail)
//Storyboard Layer 2 (Pass)
//Storyboard Layer 3 (Foreground)
//Storyboard Sound Samples

[TimingPoints]
900,292.682926829268,4,3,1,40,1,0
900,-100,4,3,1,20,0,0
5290,-100,4,3,1,40,0,0
5510,-100,4,3,1,20,0,0
9095,-100,4,3,1,40,0,0
60607,291.26213592233,4,3,1,40,1,0
61772,-100,4,3,1,40,0,1
80412,-100,4,3,1,40,0,0
99053,-100,4,3,1,40,0,1
115364,-100,4,3,1,40,0,0

[HitObjects]
448,192,607,5,2,0:0:0:0:
320,192,607,1,0,0:0:0:0:
192,192,753,1,2,0:0:0:0:
64,192,753,1,0,0:0:0:0:
320,192,900,128,0,1339:0:0:0:0:
448,192,1339,128,0,1778:0:0:0:0:
192,192,1778,128,0,2070:0:0:0:0:
64,192,2070,128,0,2509:0:0:0:0:
192,192,2509,128,0,2948:0:0:0:0:
320,192,2948,128,0,3241:0:0:0:0:
192,192,3241,128,0,3680:0:0:0:0:
320,192,3680,128,0,4119:0:0:0:0:
448,192,4119,128,0,4412:0:0:0:0:
320,192,4412,128,0,4851:0:0:0:0:
192,192,4851,128,0,5290:0:0:0:0:
448,192,5290,1,2,0:0:0:0:
320,192,5290,1,0,0:0:0:0:
64,192,5436,1,2,0:0:0:0:
192,192,5436,1,0,0:0:0:0:
448,192,5582,1,0,0:0:0:0:
320,192,5729,1,0,0:0:0:0:
192,192,5875,1,0,0:0:0:0:
64,192,6021,1,0,0:0:0:0:
192,192,6168,128,0,6460:0:0:0:0:
320,192,6460,128,0,6753:0:0:0:0:
64,192,6753,1,0,0:0:0:0:
192,192,6899,1,0,0:0:0:0:
320,192,7046,1,0,0:0:0:0:
448,192,7192,1,0,0:0:0:0:
320,192,7339,128,0,7631:0:0:0:0:
192,192,7631,128,0,7924:0:0:0:0:
448,192,7924,1,0,0:0:0:0:
64,192,8070,1,0,0:0:0:0:
448,192,8217,1,0,0:0:0:0:
64,192,8363,1,0,0:0:0:0:
192,192,8509,128,0,8802:0:0:0:0:
320,192,8802,128,0,9095:0:0:0:0:
192,192,9095,1,2,0:0:0:0:
64,192,9095,1,0,0:0:0:0:
448,192,9241,1,2,0:0:0:0:
320,192,9241,1,0,0:0:0:0:
192,192,9387,1,0,0:0:0:0:
64,192,9387,1,2,0:0:0:0:
320,192,9534,1,2,0:0:0:0:
448,192,9680,1,0,0:0:0:0:
64,192,9680,1,2,0:0:0:0:
192,192,9753,1,0,0:0:0:0:
320,192,9826,1,0,0:0:0:0:
64,192,9973,1,2,0:0:0:0:
448,192,9973,1,0,0:0:0:0:
192,192,10046,1,0,0:0:0:0:
320,192,10119,1,0,0:0:0:0:
448,192,10192,1,0,0:0:0:0:
64,192,10265,1,0,0:0:0:0:
192,192,10265,1,0,0:0:0:0:
320,192,10412,1,0,0:0:0:0:
448,192,10558,1,0,0:0:0:0:
64,192,10558,1,0,0:0:0:0:
192,192,10704,1,0,0:0:0:0:
320,192,10851,1,0,0:0:0:0:
448,192,10851,1,0,0:0:0:0:
192,192,10997,1,0,0:0:0:0:
64,192,11143,1,0,0:0:0:0:
448,192,11143,1,0,0:0:0:0:
320,192,11290,1,0,0:0:0:0:
192,192,11436,1,0,0:0:0:0:
448,192,11436,1,0,0:0:0:0:
320,192,11582,1,0,0:0:0:0:
64,192,11729,1,0,0:0:0:0:
192,192,11729,1,0,0:0:0:0:
448,192,11875,1,0,0:0:0:0:
64,192,12021,1,0,0:0:0:0:
320,192,12021,1,0,0:0:0:0:
192,192,12168,1,0,0:0:0:0:
320,192,12314,1,0,0:0:0:0:
448,192,12314,1,0,0:0:0:0:
192,192,12460,1,0,0:0:0:0:
320,192,12534,1,0,0:0:0:0:
448,192,12607,1,0,0:0:0:0:
64,192,12607,1,0,0:0:0:0:
192,192,12753,1,0,0:0:0:0:
320,192,12899,1,0,0:0:0:0:
448,192,12899,1,0,0:0:0:0:
192,192,13046,1,0,0:0:0:0:
64,192,13192,1,0,0:0:0:0:
320,192,13192,1,0,0:0:0:0:
448,192,13339,1,0,0:0:0:0:
192,192,13485,1,0,0:0:0:0:
64,192,13485,1,0,0:0:0:0:
320,192,13631,1,0,0:0:0:0:
448,192,13778,1,0,0:0:0:0:
192,192,13778,1,0,0:0:0:0:
320,192,13924,1,0,0:0:0:0:
64,192,14070,1,0,0:0:0:0:
448,192,14070,1,0,0:0:0:0:
192,192,14217,1,0,0:0:0:0:
448,192,14363,1,0,0:0:0:0:
64,192,14363,1,0,0:0:0:0:
320,192,14436,1,0,0:0:0:0:
192,192,14509,1,0,0:0:0:0:
64,192,14656,1,0,0:0:0:0:
448,192,14656,1,0,0:0:0:0:
192,192,14729,1,0,0:0:0:0:
320,192,14802,1,0,0:0:0:0:
448,192,14875,1,0,0:0:0:0:
64,192,14948,1,0,0:0:0:0:
320,192,14948,1,0,0:0:0:0:
448,192,15095,1,0,0:0:0:0:
192,192,15095,1,0,0:0:0:0:
64,192,15241,1,8,0:0:0:0:
448,192,15241,1,0,0:0:0:0:
320,192,15387,1,0,0:0:0:0:
192,192,15460,1,0,0:0:0:0:
448,192,15534,1,0,0:0:0:0:
64,192,15534,1,0,0:0:0:0:
320,192,15680,1,0,0:0:0:0:
448,192,15680,1,0,0:0:0:0:
192,192,15826,1,8,0:0:0:0:
64,192,15826,1,0,0:0:0:0:
320,192,15973,1,0,0:0:0:0:
192,192,16046,1,0,0:0:0:0:
320,192,16119,1,0,0:0:0:0:
448,192,16119,1,0,0:0:0:0:
64,192,16265,1,0,0:0:0:0:
192,192,16339,1,0,0:0:0:0:
320,192,16412,1,0,0:0:0:0:
448,192,16412,1,0,0:0:0:0:
64,192,16558,1,0,0:0:0:0:
192,192,16558,1,0,0:0:0:0:
320,192,16704,1,0,0:0:0:0:
64,192,16778,1,0,0:0:0:0:
448,192,16851,1,0,0:0:0:0:
192,192,16924,1,0,0:0:0:0:
320,192,16997,1,0,0:0:0:0:
64,192,17070,1,0,0:0:0:0:
448,192,17143,1,0,0:0:0:0:
192,192,17217,1,0,0:0:0:0:
320,192,17290,1,0,0:0:0:0:
192,192,17436,1,0,0:0:0:0:
320,192,17582,1,0,0:0:0:0:
192,192,17729,1,0,0:0:0:0:
448,192,17875,1,0,0:0:0:0:
64,192,18021,1,0,0:0:0:0:
448,192,18168,1,0,0:0:0:0:
64,192,18314,1,0,0:0:0:0:
448,192,18460,1,0,0:0:0:0:
320,192,18607,1,0,0:0:0:0:
64,192,18753,1,0,0:0:0:0:
192,192,18899,1,0,0:0:0:0:
320,192,19046,1,0,0:0:0:0:
448,192,19192,1,0,0:0:0:0:
320,192,19339,1,0,0:0:0:0:
192,192,19485,1,0,0:0:0:0:
448,192,19631,1,0,0:0:0:0:
64,192,19631,1,8,0:0:0:0:
192,192,19778,1,0,0:0:0:0:
320,192,19924,1,0,0:0:0:0:
64,192,19924,1,0,0:0:0:0:
192,192,20070,1,0,0:0:0:0:
448,192,20217,1,0,0:0:0:0:
320,192,20217,1,0,0:0:0:0:
192,192,20363,1,0,0:0:0:0:
64,192,20509,1,0,0:0:0:0:
448,192,20509,1,0,0:0:0:0:
320,192,20656,1,0,0:0:0:0:
192,192,20802,1,0,0:0:0:0:
448,192,20802,1,0,0:0:0:0:
320,192,20948,1,0,0:0:0:0:
192,192,21095,1,0,0:0:0:0:
64,192,21095,1,0,0:0:0:0:
320,192,21241,1,0,0:0:0:0:
448,192,21387,1,0,0:0:0:0:
64,192,21387,1,0,0:0:0:0:
192,192,21534,1,0,0:0:0:0:
448,192,21680,1,0,0:0:0:0:
64,192,21680,1,0,0:0:0:0:
320,192,21826,1,0,0:0:0:0:
448,192,21973,1,0,0:0:0:0:
192,192,21973,1,0,0:0:0:0:
64,192,22119,1,0,0:0:0:0:
320,192,22265,1,0,0:0:0:0:
192,192,22265,1,0,0:0:0:0:
448,192,22412,1,0,0:0:0:0:
320,192,22558,1,0,0:0:0:0:
64,192,22558,1,0,0:0:0:0:
192,192,22704,1,0,0:0:0:0:
448,192,22851,1,0,0:0:0:0:
64,192,22851,1,0,0:0:0:0:
192,192,22997,1,0,0:0:0:0:
320,192,23143,1,0,0:0:0:0:
448,192,23143,1,0,0:0:0:0:
64,192,23290,1,0,0:0:0:0:
192,192,23436,1,0,0:0:0:0:
320,192,23436,1,0,0:0:0:0:
448,192,23582,1,0,0:0:0:0:
192,192,23729,1,0,0:0:0:0:
64,192,23729,1,0,0:0:0:0:
320,192,23875,1,0,0:0:0:0:
64,192,24021,1,0,0:0:0:0:
192,192,24168,1,0,0:0:0:0:
448,192,24314,1,0,0:0:0:0:
320,192,24314,1,0,0:0:0:0:
64,192,24460,1,0,0:0:0:0:
448,192,24607,1,0,0:0:0:0:
192,192,24607,1,0,0:0:0:0:
320,192,24753,1,0,0:0:0:0:
64,192,24899,1,0,0:0:0:0:
192,192,24899,1,0,0:0:0:0:
448,192,25046,1,0,0:0:0:0:
320,192,25192,1,0,0:0:0:0:
64,192,25192,1,0,0:0:0:0:
192,192,25339,1,0,0:0:0:0:
448,192,25339,1,0,0:0:0:0:
320,192,25485,1,0,0:0:0:0:
64,192,25485,1,0,0:0:0:0:
192,192,25631,1,0,0:0:0:0:
64,192,25778,1,0,0:0:0:0:
448,192,25778,1,0,0:0:0:0:
320,192,25924,1,0,0:0:0:0:
64,192,26070,1,0,0:0:0:0:
192,192,26070,1,0,0:0:0:0:
448,192,26217,1,0,0:0:0:0:
320,192,26363,1,0,0:0:0:0:
192,192,26363,1,0,0:0:0:0:
64,192,26509,1,0,0:0:0:0:
192,192,26656,1,0,0:0:0:0:
192,192,26802,1,0,0:0:0:0:
320,192,26948,1,0,0:0:0:0:
448,192,26948,1,8,0:0:0:0:
64,192,27241,1,0,0:0:0:0:
64,192,27387,1,0,0:0:0:0:
320,192,27534,1,0,0:0:0:0:
448,192,27534,1,8,0:0:0:0:
448,192,27826,128,0,28021:0:0:0:0:
320,192,28021,1,0,0:0:0:0:
192,192,28119,128,0,28314:0:0:0:0:
64,192,28314,1,0,0:0:0:0:
448,192,28412,1,0,0:0:0:0:
320,192,28509,1,0,0:0:0:0:
192,192,28607,1,0,0:0:0:0:
448,192,28704,128,0,28997:0:0:0:0:
64,192,28997,1,0,0:0:0:0:
320,192,28997,1,0,0:0:0:0:
192,192,29143,1,0,0:0:0:0:
448,192,29290,1,0,0:0:0:0:
64,192,29290,1,0,0:0:0:0:
192,192,29436,1,0,0:0:0:0:
320,192,29582,1,0,0:0:0:0:
448,192,29582,1,0,0:0:0:0:
64,192,29729,1,0,0:0:0:0:
192,192,29875,1,0,0:0:0:0:
448,192,29875,1,0,0:0:0:0:
320,192,30021,1,0,0:0:0:0:
192,192,30168,1,0,0:0:0:0:
64,192,30168,1,0,0:0:0:0:
448,192,30314,1,0,0:0:0:0:
320,192,30460,1,0,0:0:0:0:
64,192,30460,1,0,0:0:0:0:
192,192,30607,1,0,0:0:0:0:
320,192,30753,1,0,0:0:0:0:
448,192,30753,1,0,0:0:0:0:
64,192,30899,1,0,0:0:0:0:
448,192,31046,1,0,0:0:0:0:
192,192,31046,1,0,0:0:0:0:
320,192,31192,1,0,0:0:0:0:
64,192,31339,1,0,0:0:0:0:
448,192,31339,1,0,0:0:0:0:
192,192,31485,1,0,0:0:0:0:
320,192,31631,1,0,0:0:0:0:
448,192,31631,1,0,0:0:0:0:
320,192,31778,1,0,0:0:0:0:
64,192,31924,1,0,0:0:0:0:
192,192,31924,1,0,0:0:0:0:
64,192,32070,1,0,0:0:0:0:
192,192,32217,1,0,0:0:0:0:
448,192,32217,1,0,0:0:0:0:
320,192,32363,1,0,0:0:0:0:
192,192,32509,1,0,0:0:0:0:
64,192,32509,1,0,0:0:0:0:
448,192,32656,1,0,0:0:0:0:
64,192,32802,1,0,0:0:0:0:
320,192,32802,1,0,0:0:0:0:
192,192,32948,1,0,0:0:0:0:
320,192,33095,1,0,0:0:0:0:
448,192,33095,1,0,0:0:0:0:
192,192,33241,1,0,0:0:0:0:
64,192,33387,1,0,0:0:0:0:
448,192,33460,1,0,0:0:0:0:
192,192,33534,1,0,0:0:0:0:
320,192,33607,1,0,0:0:0:0:
64,192,33680,1,0,0:0:0:0:
448,192,33680,1,0,0:0:0:0:
320,192,33826,1,0,0:0:0:0:
448,192,33973,1,0,0:0:0:0:
192,192,33973,1,0,0:0:0:0:
320,192,34119,1,0,0:0:0:0:
64,192,34265,1,0,0:0:0:0:
320,192,34265,1,0,0:0:0:0:
192,192,34412,1,0,0:0:0:0:
320,192,34558,1,0,0:0:0:0:
64,192,34558,1,0,0:0:0:0:
448,192,34704,1,0,0:0:0:0:
192,192,34704,1,0,0:0:0:0:
320,192,34851,1,0,0:0:0:0:
64,192,34851,1,0,0:0:0:0:
448,192,34997,1,0,0:0:0:0:
192,192,35143,1,0,0:0:0:0:
64,192,35143,1,0,0:0:0:0:
448,192,35290,1,0,0:0:0:0:
320,192,35290,1,0,0:0:0:0:
192,192,35436,1,0,0:0:0:0:
64,192,35436,1,0,0:0:0:0:
320,192,35582,1,0,0:0:0:0:
192,192,35656,1,0,0:0:0:0:
448,192,35729,1,0,0:0:0:0:
64,192,35729,1,0,0:0:0:0:
192,192,35875,1,0,0:0:0:0:
64,192,36021,1,0,0:0:0:0:
320,192,36168,1,0,0:0:0:0:
448,192,36314,1,8,0:0:0:0:
64,192,36314,1,0,0:0:0:0:
320,192,36387,1,0,0:0:0:0:
192,192,36460,1,0,0:0:0:0:
64,192,36534,1,0,0:0:0:0:
448,192,36607,1,0,0:0:0:0:
192,192,36753,1,0,0:0:0:0:
448,192,36899,1,0,0:0:0:0:
64,192,36899,1,8,0:0:0:0:
192,192,36973,1,0,0:0:0:0:
320,192,37046,1,0,0:0:0:0:
448,192,37119,1,0,0:0:0:0:
192,192,37192,128,0,37339:0:0:0:0:
320,192,37339,128,0,37485:0:0:0:0:
192,192,37485,128,0,37631:0:0:0:0:
320,192,37631,128,0,37778:0:0:0:0:
64,192,37778,128,8,37924:0:0:0:0:
192,192,37778,1,0,0:0:0:0:
448,192,37924,128,0,38070:0:0:0:0:
64,192,38070,128,8,38217:0:0:0:0:
192,192,38070,1,0,0:0:0:0:
448,192,38217,128,0,38363:0:0:0:0:
64,192,38363,1,0,0:0:0:0:
192,192,38363,1,0,0:0:0:0:
320,192,38509,1,0,0:0:0:0:
448,192,38656,1,0,0:0:0:0:
192,192,38656,1,0,0:0:0:0:
64,192,38802,1,0,0:0:0:0:
320,192,38948,1,0,0:0:0:0:
448,192,38948,1,0,0:0:0:0:
192,192,39095,1,0,0:0:0:0:
448,192,39168,1,0,0:0:0:0:
192,192,39241,1,0,0:0:0:0:
64,192,39241,1,0,0:0:0:0:
320,192,39387,1,0,0:0:0:0:
448,192,39534,1,0,0:0:0:0:
64,192,39534,1,0,0:0:0:0:
192,192,39680,1,0,0:0:0:0:
64,192,39826,1,0,0:0:0:0:
448,192,39826,1,0,0:0:0:0:
192,192,39899,1,0,0:0:0:0:
320,192,39973,1,0,0:0:0:0:
448,192,40046,1,0,0:0:0:0:
192,192,40119,1,0,0:0:0:0:
192,192,40265,1,0,0:0:0:0:
320,192,40412,1,0,0:0:0:0:
64,192,40558,1,0,0:0:0:0:
320,192,40704,1,0,0:0:0:0:
448,192,40704,1,0,0:0:0:0:
192,192,40851,1,0,0:0:0:0:
448,192,40997,1,0,0:0:0:0:
64,192,40997,1,0,0:0:0:0:
320,192,41143,1,0,0:0:0:0:
192,192,41290,1,0,0:0:0:0:
448,192,41290,1,0,0:0:0:0:
320,192,41436,1,0,0:0:0:0:
192,192,41509,1,0,0:0:0:0:
64,192,41582,1,0,0:0:0:0:
320,192,41729,1,0,0:0:0:0:
448,192,41875,128,0,42460:0:0:0:0:
320,192,42168,1,0,0:0:0:0:
64,192,42241,1,0,0:0:0:0:
320,192,42314,1,0,0:0:0:0:
64,192,42387,1,0,0:0:0:0:
192,192,42460,128,2,43046:0:0:0:0:
320,192,42460,128,0,43046:0:0:0:0:
448,192,43046,1,0,0:0:0:0:
64,192,43046,1,0,0:0:0:0:
448,192,43192,1,0,0:0:0:0:
192,192,43339,1,0,0:0:0:0:
320,192,43339,1,0,0:0:0:0:
448,192,43485,1,0,0:0:0:0:
64,192,43631,1,0,0:0:0:0:
320,192,43631,1,0,0:0:0:0:
192,192,43778,1,0,0:0:0:0:
320,192,43851,1,0,0:0:0:0:
448,192,43924,1,0,0:0:0:0:
64,192,43924,1,0,0:0:0:0:
448,192,44070,1,0,0:0:0:0:
64,192,44070,1,0,0:0:0:0:
320,192,44217,1,0,0:0:0:0:
448,192,44217,1,0,0:0:0:0:
192,192,44363,128,0,44509:0:0:0:0:
64,192,44363,128,0,44509:0:0:0:0:
448,192,44509,1,0,0:0:0:0:
320,192,44582,1,0,0:0:0:0:
448,192,44656,1,0,0:0:0:0:
192,192,44729,1,0,0:0:0:0:
64,192,44802,1,0,0:0:0:0:
320,192,44948,1,0,0:0:0:0:
192,192,45095,1,0,0:0:0:0:
320,192,45168,1,0,0:0:0:0:
448,192,45241,1,0,0:0:0:0:
320,192,45387,1,0,0:0:0:0:
64,192,45387,1,8,0:0:0:0:
192,192,45534,1,0,0:0:0:0:
448,192,45680,1,0,0:0:0:0:
320,192,45680,1,0,0:0:0:0:
64,192,45826,1,0,0:0:0:0:
448,192,45973,1,0,0:0:0:0:
192,192,45973,1,8,0:0:0:0:
320,192,46119,1,0,0:0:0:0:
448,192,46192,1,0,0:0:0:0:
192,192,46265,1,0,0:0:0:0:
64,192,46265,1,0,0:0:0:0:
64,192,46412,1,0,0:0:0:0:
320,192,46558,1,8,0:0:0:0:
448,192,46558,1,0,0:0:0:0:
192,192,46778,1,0,0:0:0:0:
64,192,46778,1,8,0:0:0:0:
192,192,46997,1,8,0:0:0:0:
448,192,46997,1,0,0:0:0:0:
320,192,47217,1,0,0:0:0:0:
64,192,47217,1,0,0:0:0:0:
448,192,47436,1,0,0:0:0:0:
320,192,47509,1,0,0:0:0:0:
192,192,47582,1,0,0:0:0:0:
64,192,47656,1,0,0:0:0:0:
448,192,47729,1,0,0:0:0:0:
448,192,47875,1,0,0:0:0:0:
320,192,48021,1,0,0:0:0:0:
64,192,48021,1,0,0:0:0:0:
192,192,48168,1,0,0:0:0:0:
320,192,48314,1,0,0:0:0:0:
448,192,48314,1,0,0:0:0:0:
192,192,48460,1,0,0:0:0:0:
448,192,48534,1,0,0:0:0:0:
192,192,48607,1,0,0:0:0:0:
64,192,48607,1,0,0:0:0:0:
320,192,48753,1,0,0:0:0:0:
64,192,48899,1,0,0:0:0:0:
448,192,48899,1,0,0:0:0:0:
320,192,49046,1,0,0:0:0:0:
448,192,49192,1,0,0:0:0:0:
64,192,49192,1,0,0:0:0:0:
192,192,49265,1,0,0:0:0:0:
320,192,49339,1,0,0:0:0:0:
64,192,49412,1,0,0:0:0:0:
448,192,49485,1,0,0:0:0:0:
192,192,49485,1,0,0:0:0:0:
320,192,49631,1,0,0:0:0:0:
64,192,49778,1,8,0:0:0:0:
448,192,49778,1,0,0:0:0:0:
192,192,49924,1,0,0:0:0:0:
64,192,50070,1,0,0:0:0:0:
320,192,50070,1,0,0:0:0:0:
448,192,50217,1,0,0:0:0:0:
192,192,50363,1,0,0:0:0:0:
64,192,50363,1,0,0:0:0:0:
320,192,50509,1,0,0:0:0:0:
64,192,50656,1,0,0:0:0:0:
448,192,50656,1,0,0:0:0:0:
192,192,50802,1,0,0:0:0:0:
320,192,50875,1,0,0:0:0:0:
448,192,50948,1,0,0:0:0:0:
64,192,50948,1,0,0:0:0:0:
192,192,51095,1,0,0:0:0:0:
320,192,51241,1,0,0:0:0:0:
64,192,51241,1,0,0:0:0:0:
448,192,51387,1,0,0:0:0:0:
320,192,51534,1,0,0:0:0:0:
192,192,51534,1,0,0:0:0:0:
64,192,51680,1,0,0:0:0:0:
448,192,51826,1,0,0:0:0:0:
320,192,51826,1,0,0:0:0:0:
192,192,51973,1,0,0:0:0:0:
320,192,52119,1,0,0:0:0:0:
64,192,52119,1,0,0:0:0:0:
192,192,52265,1,0,0:0:0:0:
448,192,52412,128,0,52704:0:0:0:0:
192,192,52509,1,0,0:0:0:0:
320,192,52607,1,0,0:0:0:0:
192,192,52704,1,0,0:0:0:0:
64,192,52704,1,8,0:0:0:0:
320,192,52851,1,0,0:0:0:0:
448,192,52997,1,0,0:0:0:0:
64,192,52997,1,0,0:0:0:0:
192,192,53143,1,0,0:0:0:0:
320,192,53290,1,0,0:0:0:0:
64,192,53290,1,0,0:0:0:0:
192,192,53436,1,0,0:0:0:0:
192,192,53582,1,0,0:0:0:0:
448,192,53582,1,0,0:0:0:0:
320,192,53729,1,0,0:0:0:0:
448,192,53875,1,0,0:0:0:0:
64,192,53875,1,0,0:0:0:0:
320,192,53948,1,0,0:0:0:0:
192,192,54021,1,0,0:0:0:0:
64,192,54095,1,0,0:0:0:0:
320,192,54168,1,0,0:0:0:0:
192,192,54314,1,0,0:0:0:0:
320,192,54460,1,0,0:0:0:0:
448,192,54607,1,0,0:0:0:0:
192,192,54753,1,0,0:0:0:0:
64,192,54753,1,8,0:0:0:0:
320,192,54899,1,0,0:0:0:0:
64,192,55046,1,8,0:0:0:0:
192,192,55046,1,0,0:0:0:0:
320,192,55192,1,0,0:0:0:0:
320,192,55339,1,0,0:0:0:0:
448,192,55339,1,8,0:0:0:0:
192,192,55485,1,0,0:0:0:0:
320,192,55631,1,0,0:0:0:0:
448,192,55631,1,8,0:0:0:0:
192,192,55778,1,0,0:0:0:0:
448,192,55924,1,0,0:0:0:0:
64,192,55924,1,8,0:0:0:0:
320,192,56070,1,0,0:0:0:0:
448,192,56217,1,0,0:0:0:0:
64,192,56217,1,8,0:0:0:0:
192,192,56363,1,0,0:0:0:0:
192,192,56509,1,8,0:0:0:0:
320,192,56509,1,0,0:0:0:0:
64,192,56656,1,0,0:0:0:0:
192,192,56802,1,8,0:0:0:0:
320,192,56802,1,0,0:0:0:0:
448,192,56948,1,0,0:0:0:0:
64,192,57095,128,0,59143:0:0:0:0:
192,192,57095,1,0,0:0:0:0:
448,192,57973,1,0,0:0:0:0:
448,192,58265,1,0,0:0:0:0:
448,192,58558,1,0,0:0:0:0:
448,192,58851,1,0,0:0:0:0:
448,192,59143,1,0,0:0:0:0:
320,192,59217,1,0,0:0:0:0:
192,192,59290,1,0,0:0:0:0:
64,192,59363,1,0,0:0:0:0:
448,192,59436,1,0,0:0:0:0:
320,192,59509,1,0,0:0:0:0:
192,192,59582,1,0,0:0:0:0:
64,192,59656,1,0,0:0:0:0:
448,192,59729,1,0,0:0:0:0:
320,192,59802,1,0,0:0:0:0:
192,192,59875,1,0,0:0:0:0:
64,192,59948,1,0,0:0:0:0:
448,192,60021,1,0,0:0:0:0:
320,192,60095,1,0,0:0:0:0:
192,192,60168,1,0,0:0:0:0:
64,192,60241,1,0,0:0:0:0:
448,192,60314,1,0,0:0:0:0:
320,192,60387,1,0,0:0:0:0:
192,192,60460,1,0,0:0:0:0:
64,192,60534,1,0,0:0:0:0:
192,192,60607,1,0,0:0:0:0:
320,192,60679,1,0,0:0:0:0:
64,192,60752,1,0,0:0:0:0:
448,192,60825,1,0,0:0:0:0:
192,192,60898,1,0,0:0:0:0:
320,192,60971,1,0,0:0:0:0:
64,192,61043,1,0,0:0:0:0:
448,192,61116,1,0,0:0:0:0:
192,192,61189,1,0,0:0:0:0:
320,192,61262,1,0,0:0:0:0:
64,192,61335,1,0,0:0:0:0:
448,192,61407,1,0,0:0:0:0:
320,192,61480,1,8,0:0:0:0:
192,192,61480,1,2,0:0:0:0:
448,192,61626,1,0,0:0:0:0:
320,192,61699,1,0,0:0:0:0:
192,192,61772,1,0,0:0:0:0:
64,192,61772,1,0,0:0:0:0:
320,192,61917,1,0,0:0:0:0:
64,192,62063,1,0,0:0:0:0:
448,192,62063,1,0,0:0:0:0:
320,192,62208,1,0,0:0:0:0:
448,192,62354,128,0,62645:0:0:0:0:
192,192,62354,1,0,0:0:0:0:
192,192,62645,1,0,0:0:0:0:
320,192,62645,1,0,0:0:0:0:
64,192,62791,1,0,0:0:0:0:
448,192,62937,1,0,0:0:0:0:
192,192,62937,1,0,0:0:0:0:
320,192,63082,1,0,0:0:0:0:
64,192,63228,1,0,0:0:0:0:
448,192,63228,1,0,0:0:0:0:
320,192,63373,1,0,0:0:0:0:
448,192,63519,1,0,0:0:0:0:
64,192,63519,1,0,0:0:0:0:
320,192,63592,1,0,0:0:0:0:
192,192,63665,1,0,0:0:0:0:
64,192,63738,1,0,0:0:0:0:
320,192,63810,1,0,0:0:0:0:
448,192,63810,1,0,0:0:0:0:
192,192,63956,1,0,0:0:0:0:
64,192,64102,128,0,64247:0:0:0:0:
448,192,64102,1,0,0:0:0:0:
192,192,64247,1,0,0:0:0:0:
448,192,64393,128,0,64539:0:0:0:0:
64,192,64393,1,0,0:0:0:0:
320,192,64539,1,0,0:0:0:0:
64,192,64684,1,0,0:0:0:0:
448,192,64684,1,0,0:0:0:0:
192,192,64830,1,0,0:0:0:0:
320,192,64975,1,0,0:0:0:0:
64,192,64975,1,0,0:0:0:0:
448,192,65121,1,0,0:0:0:0:
192,192,65267,1,0,0:0:0:0:
64,192,65267,1,0,0:0:0:0:
320,192,65558,1,0,0:0:0:0:
448,192,65558,1,0,0:0:0:0:
320,192,65849,1,0,0:0:0:0:
192,192,65849,1,0,0:0:0:0:
192,192,66140,1,0,0:0:0:0:
64,192,66140,1,0,0:0:0:0:
448,192,66286,1,0,0:0:0:0:
320,192,66432,1,0,0:0:0:0:
192,192,66505,1,0,0:0:0:0:
320,192,66577,1,0,0:0:0:0:
192,192,66650,1,0,0:0:0:0:
320,192,66723,1,0,0:0:0:0:
64,192,66869,1,0,0:0:0:0:
192,192,67014,1,0,0:0:0:0:
448,192,67014,1,0,0:0:0:0:
320,192,67160,1,0,0:0:0:0:
64,192,67160,1,0,0:0:0:0:
192,192,67306,1,0,0:0:0:0:
448,192,67306,1,0,0:0:0:0:
320,192,67451,1,0,0:0:0:0:
64,192,67451,1,0,0:0:0:0:
192,192,67597,1,0,0:0:0:0:
320,192,67670,1,0,0:0:0:0:
192,192,67742,1,0,0:0:0:0:
320,192,67815,1,0,0:0:0:0:
192,192,67888,1,0,0:0:0:0:
448,192,68034,1,0,0:0:0:0:
64,192,68179,1,0,0:0:0:0:
320,192,68179,1,0,0:0:0:0:
192,192,68325,1,0,0:0:0:0:
448,192,68325,1,0,0:0:0:0:
320,192,68471,1,0,0:0:0:0:
64,192,68471,1,0,0:0:0:0:
192,192,68616,1,0,0:0:0:0:
448,192,68616,1,0,0:0:0:0:
64,192,68762,1,8,0:0:0:0:
320,192,68762,1,0,0:0:0:0:
320,192,68980,1,0,0:0:0:0:
192,192,69053,1,0,0:0:0:0:
64,192,69053,1,0,0:0:0:0:
448,192,69199,1,0,0:0:0:0:
320,192,69344,1,0,0:0:0:0:
64,192,69344,1,8,0:0:0:0:
448,192,69563,1,0,0:0:0:0:
192,192,69636,1,0,0:0:0:0:
320,192,69636,1,0,0:0:0:0:
192,192,69781,1,0,0:0:0:0:
448,192,69927,1,8,0:0:0:0:
64,192,69927,1,0,0:0:0:0:
320,192,70145,1,0,0:0:0:0:
192,192,70218,1,0,0:0:0:0:
448,192,70218,1,0,0:0:0:0:
64,192,70364,1,0,0:0:0:0:
448,192,70509,1,0,0:0:0:0:
320,192,70582,1,0,0:0:0:0:
192,192,70655,1,0,0:0:0:0:
64,192,70728,1,0,0:0:0:0:
448,192,70801,1,0,0:0:0:0:
320,192,70873,1,0,0:0:0:0:
192,192,70946,1,0,0:0:0:0:
64,192,71019,1,0,0:0:0:0:
448,192,71092,1,0,0:0:0:0:
192,192,71092,1,0,0:0:0:0:
320,192,71238,1,0,0:0:0:0:
192,192,71383,1,0,0:0:0:0:
64,192,71383,1,0,0:0:0:0:
320,192,71529,1,0,0:0:0:0:
64,192,71674,128,0,71966:0:0:0:0:
448,192,71674,1,0,0:0:0:0:
192,192,71966,1,0,0:0:0:0:
448,192,71966,1,0,0:0:0:0:
320,192,72111,1,0,0:0:0:0:
448,192,72257,1,0,0:0:0:0:
64,192,72257,1,0,0:0:0:0:
192,192,72403,1,0,0:0:0:0:
64,192,72548,1,0,0:0:0:0:
320,192,72548,1,0,0:0:0:0:
192,192,72694,1,0,0:0:0:0:
448,192,72840,1,0,0:0:0:0:
64,192,72840,1,0,0:0:0:0:
320,192,72912,1,0,0:0:0:0:
192,192,72985,1,0,0:0:0:0:
64,192,73058,1,0,0:0:0:0:
320,192,73131,1,0,0:0:0:0:
448,192,73131,1,0,0:0:0:0:
320,192,73276,1,0,0:0:0:0:
448,192,73422,128,0,73568:0:0:0:0:
64,192,73422,1,0,0:0:0:0:
320,192,73568,1,0,0:0:0:0:
64,192,73713,128,0,73859:0:0:0:0:
448,192,73713,1,0,0:0:0:0:
192,192,73859,1,0,0:0:0:0:
448,192,74005,1,0,0:0:0:0:
64,192,74005,1,0,0:0:0:0:
192,192,74150,1,0,0:0:0:0:
320,192,74296,1,0,0:0:0:0:
448,192,74296,1,0,0:0:0:0:
64,192,74441,1,0,0:0:0:0:
192,192,74587,1,0,0:0:0:0:
448,192,74587,1,0,0:0:0:0:
192,192,74878,1,0,0:0:0:0:
320,192,74878,1,0,0:0:0:0:
320,192,75170,1,0,0:0:0:0:
64,192,75170,1,0,0:0:0:0:
448,192,75461,1,0,0:0:0:0:
64,192,75461,1,0,0:0:0:0:
320,192,75607,1,0,0:0:0:0:
192,192,75752,1,0,0:0:0:0:
320,192,75825,1,0,0:0:0:0:
192,192,75898,1,0,0:0:0:0:
320,192,75971,1,0,0:0:0:0:
192,192,76043,1,0,0:0:0:0:
64,192,76189,1,0,0:0:0:0:
320,192,76335,1,0,0:0:0:0:
448,192,76335,1,0,0:0:0:0:
192,192,76480,1,0,0:0:0:0:
64,192,76480,1,0,0:0:0:0:
320,192,76626,1,0,0:0:0:0:
448,192,76626,1,0,0:0:0:0:
192,192,76772,1,0,0:0:0:0:
64,192,76772,1,0,0:0:0:0:
320,192,76917,1,0,0:0:0:0:
192,192,76990,1,0,0:0:0:0:
320,192,77063,1,0,0:0:0:0:
192,192,77136,1,0,0:0:0:0:
320,192,77208,1,0,0:0:0:0:
448,192,77354,1,0,0:0:0:0:
192,192,77500,1,0,0:0:0:0:
64,192,77500,1,0,0:0:0:0:
320,192,77645,1,0,0:0:0:0:
448,192,77645,1,0,0:0:0:0:
192,192,77791,1,0,0:0:0:0:
64,192,77791,1,0,0:0:0:0:
320,192,77937,1,0,0:0:0:0:
448,192,77937,1,0,0:0:0:0:
64,192,78082,128,8,78665:0:0:0:0:
192,192,78082,1,0,0:0:0:0:
448,192,78301,1,0,0:0:0:0:
320,192,78519,1,0,0:0:0:0:
448,192,78665,128,8,79247:0:0:0:0:
192,192,78665,1,0,0:0:0:0:
320,192,78883,1,0,0:0:0:0:
192,192,79102,1,0,0:0:0:0:
320,192,79247,1,0,0:0:0:0:
64,192,79247,1,8,0:0:0:0:
192,192,79393,1,0,0:0:0:0:
448,192,79539,1,0,0:0:0:0:
192,192,79539,1,8,0:0:0:0:
320,192,79684,1,0,0:0:0:0:
320,192,79830,1,8,0:0:0:0:
64,192,79830,1,0,0:0:0:0:
192,192,79975,1,0,0:0:0:0:
448,192,80121,1,0,0:0:0:0:
192,192,80121,1,0,0:0:0:0:
448,192,80412,1,0,0:0:0:0:
320,192,80485,1,0,0:0:0:0:
192,192,80558,1,0,0:0:0:0:
64,192,80631,1,0,0:0:0:0:
448,192,80704,1,0,0:0:0:0:
320,192,80776,1,0,0:0:0:0:
192,192,80849,1,0,0:0:0:0:
64,192,80922,1,0,0:0:0:0:
448,192,80995,128,0,81577:0:0:0:0:
320,192,81213,128,0,81577:0:0:0:0:
192,192,81432,128,0,81577:0:0:0:0:
64,192,81577,128,0,82160:0:0:0:0:
192,192,81796,128,0,82160:0:0:0:0:
320,192,82014,128,0,82160:0:0:0:0:
448,192,82160,1,0,0:0:0:0:
320,192,82306,1,0,0:0:0:0:
448,192,82451,1,0,0:0:0:0:
320,192,82597,1,0,0:0:0:0:
64,192,82742,1,0,0:0:0:0:
192,192,82815,1,0,0:0:0:0:
320,192,82888,1,0,0:0:0:0:
448,192,82961,1,0,0:0:0:0:
64,192,83034,1,0,0:0:0:0:
192,192,83107,1,0,0:0:0:0:
320,192,83179,1,0,0:0:0:0:
448,192,83252,1,0,0:0:0:0:
64,192,83325,128,0,83907:0:0:0:0:
192,192,83543,128,0,83907:0:0:0:0:
320,192,83762,128,0,83907:0:0:0:0:
448,192,83907,1,0,0:0:0:0:
448,192,84199,1,0,0:0:0:0:
320,192,84199,1,8,0:0:0:0:
192,192,84199,1,0,0:0:0:0:
320,192,84490,1,0,0:0:0:0:
64,192,84490,1,0,0:0:0:0:
192,192,84781,1,8,0:0:0:0:
320,192,84781,1,0,0:0:0:0:
448,192,84781,1,0,0:0:0:0:
64,192,85073,1,0,0:0:0:0:
448,192,85145,1,0,0:0:0:0:
64,192,85218,1,0,0:0:0:0:
448,192,85291,1,0,0:0:0:0:
320,192,85364,1,0,0:0:0:0:
192,192,85437,1,0,0:0:0:0:
320,192,85509,1,0,0:0:0:0:
192,192,85582,1,0,0:0:0:0:
448,192,85655,128,0,86238:0:0:0:0:
320,192,85873,128,0,86238:0:0:0:0:
192,192,86092,128,0,86238:0:0:0:0:
64,192,86238,128,0,86820:0:0:0:0:
192,192,86456,128,0,86820:0:0:0:0:
320,192,86674,128,0,86820:0:0:0:0:
448,192,86820,128,0,87403:0:0:0:0:
320,192,87039,128,0,87403:0:0:0:0:
192,192,87257,128,0,87403:0:0:0:0:
64,192,87403,1,0,0:0:0:0:
192,192,87621,1,0,0:0:0:0:
448,192,87840,1,0,0:0:0:0:
64,192,87985,1,0,0:0:0:0:
320,192,87985,1,0,0:0:0:0:
192,192,88204,1,0,0:0:0:0:
64,192,88422,1,0,0:0:0:0:
448,192,88568,1,0,0:0:0:0:
320,192,88640,1,0,0:0:0:0:
192,192,88713,1,0,0:0:0:0:
64,192,88786,1,0,0:0:0:0:
192,192,88859,1,0,0:0:0:0:
448,192,88859,1,0,0:0:0:0:
320,192,89005,128,0,89150:0:0:0:0:
64,192,89150,1,0,0:0:0:0:
448,192,89296,1,0,0:0:0:0:
192,192,89441,1,0,0:0:0:0:
320,192,89514,1,0,0:0:0:0:
64,192,89587,1,0,0:0:0:0:
448,192,89660,1,0,0:0:0:0:
64,192,89733,128,8,90170:0:0:0:0:
192,192,89733,1,0,0:0:0:0:
320,192,89878,1,0,0:0:0:0:
448,192,90024,1,0,0:0:0:0:
192,192,90170,128,8,90606:0:0:0:0:
320,192,90170,1,0,0:0:0:0:
448,192,90315,1,0,0:0:0:0:
320,192,90461,1,0,0:0:0:0:
64,192,90606,128,8,91043:0:0:0:0:
448,192,90606,1,0,0:0:0:0:
320,192,90752,1,0,0:0:0:0:
192,192,90898,1,0,0:0:0:0:
192,192,91043,128,8,91480:0:0:0:0:
320,192,91043,1,0,0:0:0:0:
448,192,91189,1,0,0:0:0:0:
320,192,91335,1,0,0:0:0:0:
448,192,91480,1,0,0:0:0:0:
192,192,91626,1,0,0:0:0:0:
320,192,91772,1,0,0:0:0:0:
64,192,91917,1,0,0:0:0:0:
448,192,92063,128,8,92500:0:0:0:0:
320,192,92063,1,0,0:0:0:0:
192,192,92208,1,0,0:0:0:0:
64,192,92354,1,0,0:0:0:0:
320,192,92500,128,8,92937:0:0:0:0:
192,192,92500,1,0,0:0:0:0:
64,192,92645,1,0,0:0:0:0:
192,192,92791,1,0,0:0:0:0:
448,192,92937,128,8,93373:0:0:0:0:
64,192,92937,1,0,0:0:0:0:
192,192,93082,1,0,0:0:0:0:
320,192,93228,1,0,0:0:0:0:
320,192,93373,128,8,93810:0:0:0:0:
192,192,93373,1,0,0:0:0:0:
64,192,93519,1,0,0:0:0:0:
192,192,93665,1,0,0:0:0:0:
64,192,93810,1,0,0:0:0:0:
192,192,93883,1,0,0:0:0:0:
320,192,93956,1,0,0:0:0:0:
448,192,94029,1,0,0:0:0:0:
64,192,94102,1,0,0:0:0:0:
320,192,94247,1,0,0:0:0:0:
448,192,94393,1,0,0:0:0:0:
192,192,94393,1,0,0:0:0:0:
64,192,94393,1,0,0:0:0:0:
320,192,94539,1,0,0:0:0:0:
448,192,94684,1,0,0:0:0:0:
192,192,94684,1,0,0:0:0:0:
64,192,94684,1,0,0:0:0:0:
320,192,94830,1,0,0:0:0:0:
192,192,94975,1,0,0:0:0:0:
320,192,94975,1,0,0:0:0:0:
448,192,94975,1,0,0:0:0:0:
64,192,95121,1,0,0:0:0:0:
192,192,95267,1,0,0:0:0:0:
320,192,95267,1,0,0:0:0:0:
448,192,95267,1,0,0:0:0:0:
64,192,95412,1,0,0:0:0:0:
320,192,95558,1,0,0:0:0:0:
192,192,95558,1,0,0:0:0:0:
64,192,95558,1,0,0:0:0:0:
448,192,95704,1,0,0:0:0:0:
320,192,95849,1,0,0:0:0:0:
192,192,95849,1,0,0:0:0:0:
64,192,95849,1,0,0:0:0:0:
448,192,95995,1,0,0:0:0:0:
448,192,96140,1,0,0:0:0:0:
320,192,96140,1,0,0:0:0:0:
192,192,96140,1,0,0:0:0:0:
64,192,96286,1,0,0:0:0:0:
192,192,96432,1,0,0:0:0:0:
320,192,96432,1,0,0:0:0:0:
448,192,96432,1,0,0:0:0:0:
320,192,96577,1,0,0:0:0:0:
64,192,96723,1,0,0:0:0:0:
448,192,96723,1,0,0:0:0:0:
192,192,96796,1,0,0:0:0:0:
64,192,96869,1,0,0:0:0:0:
320,192,96869,1,0,0:0:0:0:
192,192,96941,1,0,0:0:0:0:
64,192,97014,1,0,0:0:0:0:
448,192,97014,1,0,0:0:0:0:
320,192,97087,1,0,0:0:0:0:
192,192,97160,1,0,0:0:0:0:
448,192,97160,1,0,0:0:0:0:
320,192,97233,1,0,0:0:0:0:
448,192,97306,1,0,0:0:0:0:
192,192,97378,1,0,0:0:0:0:
448,192,97451,1,0,0:0:0:0:
192,192,97524,1,0,0:0:0:0:
320,192,97597,1,0,0:0:0:0:
64,192,97670,1,0,0:0:0:0:
320,192,97742,1,0,0:0:0:0:
64,192,97815,1,0,0:0:0:0:
320,192,97888,128,0,98471:0:0:0:0:
192,192,98471,128,0,99053:0:0:0:0:
64,192,98762,128,0,99053:0:0:0:0:
320,192,99053,1,2,0:0:0:0:
448,192,99053,1,8,0:0:0:0:
448,192,99344,1,0,0:0:0:0:
192,192,99344,1,2,0:0:0:0:
192,192,99490,1,8,0:0:0:0:
448,192,99490,1,0,0:0:0:0:
64,192,99781,1,0,0:0:0:0:
320,192,99781,1,2,0:0:0:0:
320,192,99927,1,8,0:0:0:0:
64,192,99927,1,0,0:0:0:0:
448,192,100218,1,0,0:0:0:0:
192,192,100218,1,2,0:0:0:0:
320,192,100291,1,0,0:0:0:0:
64,192,100291,1,0,0:0:0:0:
192,192,100364,1,8,0:0:0:0:
448,192,100364,1,0,0:0:0:0:
64,192,100655,1,0,0:0:0:0:
320,192,100655,1,2,0:0:0:0:
192,192,100728,1,0,0:0:0:0:
448,192,100728,1,0,0:0:0:0:
320,192,100801,1,0,0:0:0:0:
64,192,100801,1,0,0:0:0:0:
192,192,100946,1,0,0:0:0:0:
448,192,100946,1,0,0:0:0:0:
64,192,101019,1,0,0:0:0:0:
320,192,101019,1,0,0:0:0:0:
192,192,101092,1,2,0:0:0:0:
448,192,101092,1,0,0:0:0:0:
320,192,101238,1,2,0:0:0:0:
192,192,101238,1,0,0:0:0:0:
64,192,101383,1,0,0:0:0:0:
448,192,101383,1,0,0:0:0:0:
192,192,101456,1,0,0:0:0:0:
320,192,101529,1,0,0:0:0:0:
448,192,101602,1,0,0:0:0:0:
320,192,101674,1,0,0:0:0:0:
192,192,101747,1,0,0:0:0:0:
64,192,101820,1,0,0:0:0:0:
192,192,101893,1,0,0:0:0:0:
448,192,101966,1,0,0:0:0:0:
320,192,102111,1,0,0:0:0:0:
192,192,102257,1,0,0:0:0:0:
64,192,102403,1,0,0:0:0:0:
192,192,102548,1,8,0:0:0:0:
320,192,102548,1,0,0:0:0:0:
448,192,102840,1,0,0:0:0:0:
192,192,102840,1,8,0:0:0:0:
320,192,103131,1,0,0:0:0:0:
64,192,103131,1,8,0:0:0:0:
192,192,103422,1,8,0:0:0:0:
320,192,103422,1,0,0:0:0:0:
448,192,103713,128,0,104296:0:0:0:0:
64,192,103713,1,0,0:0:0:0:
192,192,103786,1,0,0:0:0:0:
64,192,103859,1,0,0:0:0:0:
192,192,103932,1,0,0:0:0:0:
64,192,104005,1,0,0:0:0:0:
320,192,104150,1,0,0:0:0:0:
64,192,104296,1,0,0:0:0:0:
192,192,104296,1,8,0:0:0:0:
320,192,104441,1,0,0:0:0:0:
448,192,104441,1,8,0:0:0:0:
192,192,104587,1,8,0:0:0:0:
64,192,104587,1,0,0:0:0:0:
320,192,104733,1,0,0:0:0:0:
448,192,104733,1,8,0:0:0:0:
64,192,104878,128,0,105461:0:0:0:0:
448,192,104878,1,0,0:0:0:0:
320,192,104951,1,0,0:0:0:0:
448,192,105024,1,0,0:0:0:0:
320,192,105097,1,0,0:0:0:0:
448,192,105170,1,0,0:0:0:0:
192,192,105315,1,0,0:0:0:0:
320,192,105461,1,0,0:0:0:0:
448,192,105461,1,8,0:0:0:0:
192,192,105606,1,0,0:0:0:0:
64,192,105606,1,8,0:0:0:0:
320,192,105752,1,0,0:0:0:0:
448,192,105752,1,8,0:0:0:0:
192,192,105898,1,0,0:0:0:0:
64,192,105898,1,8,0:0:0:0:
320,192,106043,1,0,0:0:0:0:
192,192,106116,1,0,0:0:0:0:
320,192,106189,1,0,0:0:0:0:
192,192,106262,1,0,0:0:0:0:
64,192,106335,128,0,106626:0:0:0:0:
448,192,106335,1,0,0:0:0:0:
320,192,106480,1,0,0:0:0:0:
192,192,106626,1,0,0:0:0:0:
320,192,106844,1,0,0:0:0:0:
448,192,107063,1,0,0:0:0:0:
64,192,107208,1,0,0:0:0:0:
320,192,107208,1,0,0:0:0:0:
448,192,107427,1,0,0:0:0:0:
64,192,107500,1,0,0:0:0:0:
320,192,107500,1,0,0:0:0:0:
448,192,107645,1,0,0:0:0:0:
64,192,107645,1,0,0:0:0:0:
192,192,107718,1,0,0:0:0:0:
448,192,107791,1,8,0:0:0:0:
320,192,107791,1,0,0:0:0:0:
192,192,107937,1,0,0:0:0:0:
320,192,108082,1,0,0:0:0:0:
64,192,108228,1,0,0:0:0:0:
192,192,108373,1,8,0:0:0:0:
448,192,108373,1,0,0:0:0:0:
320,192,108519,1,0,0:0:0:0:
64,192,108665,1,0,0:0:0:0:
192,192,108810,1,8,0:0:0:0:
448,192,108810,1,0,0:0:0:0:
320,192,108956,1,0,0:0:0:0:
192,192,109102,1,0,0:0:0:0:
320,192,109247,1,8,0:0:0:0:
64,192,109247,1,0,0:0:0:0:
192,192,109393,1,0,0:0:0:0:
448,192,109539,1,0,0:0:0:0:
320,192,109684,1,8,0:0:0:0:
64,192,109684,1,0,0:0:0:0:
320,192,109830,1,0,0:0:0:0:
192,192,109975,1,0,0:0:0:0:
448,192,110121,1,0,0:0:0:0:
64,192,110121,1,0,0:0:0:0:
320,192,110267,1,0,0:0:0:0:
192,192,110412,1,0,0:0:0:0:
64,192,110558,1,0,0:0:0:0:
448,192,110704,1,8,0:0:0:0:
320,192,110776,1,0,0:0:0:0:
192,192,110849,1,0,0:0:0:0:
64,192,110922,1,0,0:0:0:0:
320,192,110995,1,8,0:0:0:0:
448,192,110995,1,0,0:0:0:0:
64,192,111140,1,0,0:0:0:0:
192,192,111140,1,0,0:0:0:0:
320,192,111286,1,0,0:0:0:0:
192,192,111432,1,0,0:0:0:0:
64,192,111577,1,8,0:0:0:0:
192,192,111650,1,0,0:0:0:0:
320,192,111723,1,0,0:0:0:0:
448,192,111796,1,0,0:0:0:0:
64,192,111869,1,0,0:0:0:0:
192,192,111869,1,0,0:0:0:0:
448,192,112014,1,8,0:0:0:0:
320,192,112014,1,0,0:0:0:0:
192,192,112160,1,0,0:0:0:0:
320,192,112306,1,0,0:0:0:0:
64,192,112451,1,0,0:0:0:0:
448,192,112597,1,0,0:0:0:0:
320,192,112742,1,0,0:0:0:0:
192,192,112888,1,0,0:0:0:0:
448,192,113034,1,0,0:0:0:0:
64,192,113034,1,0,0:0:0:0:
448,192,113179,1,0,0:0:0:0:
320,192,113325,1,0,0:0:0:0:
64,192,113325,1,0,0:0:0:0:
320,192,113471,1,0,0:0:0:0:
192,192,113616,1,0,0:0:0:0:
448,192,113616,1,0,0:0:0:0:
192,192,113762,1,0,0:0:0:0:
64,192,113907,1,0,0:0:0:0:
448,192,113907,1,0,0:0:0:0:
64,192,114053,1,0,0:0:0:0:
448,192,114199,1,0,0:0:0:0:
192,192,114199,1,0,0:0:0:0:
320,192,114344,1,0,0:0:0:0:
192,192,114490,1,0,0:0:0:0:
64,192,114636,1,0,0:0:0:0:
192,192,114781,1,0,0:0:0:0:
320,192,114854,1,0,0:0:0:0:
192,192,114927,1,0,0:0:0:0:
320,192,115000,1,0,0:0:0:0:
192,192,115073,1,0,0:0:0:0:
64,192,115073,1,0,0:0:0:0:
320,192,115145,1,0,0:0:0:0:
448,192,115145,1,0,0:0:0:0:
64,192,115218,1,0,0:0:0:0:
192,192,115218,1,0,0:0:0:0:
448,192,115291,1,0,0:0:0:0:
320,192,115291,1,0,0:0:0:0:
64,192,115364,1,0,0:0:0:0:
192,192,115364,1,8,0:0:0:0:
448,192,115946,1,0,0:0:0:0:
320,192,115946,1,0,0:0:0:0:
192,192,115946,1,8,0:0:0:0:
64,192,116529,1,0,0:0:0:0:
320,192,116529,1,0,0:0:0:0:
192,192,117111,1,8,0:0:0:0:
320,192,117111,1,0,0:0:0:0:
448,192,117111,1,0,0:0:0:0:
448,192,117694,128,0,120024:0:0:0:0:
64,192,117694,1,0,0:0:0:0:
