osu file format v14

[General]
AudioFilename: [SDVX III ] LegenD. [NOFX].mp3
AudioLeadIn: 0
PreviewTime: -1
Countdown: 1
SampleSet: Soft
StackLeniency: 0.7
Mode: 0
LetterboxInBreaks: 1
WidescreenStoryboard: 0

[Editor]
Bookmarks: 17195,19902,57658,61756
DistanceSpacing: 0.8
BeatDivisor: 4
GridSize: 4
TimelineZoom: 2.1

[Metadata]
Title:LegenD
TitleUnicode:LegenD
Artist:Yooh
ArtistUnicode:Yooh
Creator:Love Me Again
Version:Insane
Source:
Tags:
BeatmapID:720174
BeatmapSetID:324098

[Difficulty]
HPDrainRate:7
CircleSize:4
OverallDifficulty:8
ApproachRate:9
SliderMultiplier:1.6
SliderTickRate:1

[Events]
//Background and Video events
0,0,"beatmania.600.1158036.jpg",0,0
//Break Periods
//Storyboard Layer 0 (Background)
//Storyboard Layer 1 (Fail)
//Storyboard Layer 2 (Pass)
//Storyboard Layer 3 (Foreground)
//Storyboard Sound Samples

[TimingPoints]
878,292.682926829268,4,2,0,100,1,0
5560,-200,4,2,0,100,0,0
7170,-100,4,2,0,100,0,0
10097,-76.9230769230769,4,2,0,100,0,0

[HitObjects]
256,192,877,12,0,2048,0:0:0:0:
212,120,2195,6,0,L|128:156,2,80,2|0|2,0:0|0:0|0:0,0:0:0:0:
324,180,2634,2,0,L|352:256,2,80
120,240,3073,1,0,0:0:0:0:
208,316,3219,1,0,0:0:0:0:
224,212,3365,1,2,0:0:0:0:
260,208,3438,1,0,0:0:0:0:
288,224,3512,1,0,0:0:0:0:
252,120,3658,2,0,P|220:84|176:80,2,80,2|0|8,0:0|0:0|0:0,0:0:0:0:
408,220,4097,1,0,0:0:0:0:
112,64,4243,5,0,0:0:0:0:
124,208,4390,1,0,0:0:0:0:
256,116,4536,1,0,0:0:0:0:
360,304,4682,2,0,L|280:248,2,80
208,180,5121,5,0,0:0:0:0:
348,72,5268,1,2,0:0:0:0:
372,60,5341,1,0,0:0:0:0:
404,60,5414,1,8,0:0:0:0:
208,312,5560,2,0,L|244:288,2,40,2|0|2,0:0|0:0|0:0,0:0:0:0:
168,320,5926,1,0,0:0:0:0:
136,292,5999,2,0,P|124:264|116:256,2,40
252,144,6438,2,0,L|212:128,2,40
264,152,6804,1,0,0:0:0:0:
276,164,6877,5,0,0:0:0:0:
284,180,6951,1,0,0:0:0:0:
292,196,7024,1,0,0:0:0:0:
292,212,7097,1,0,0:0:0:0:
288,232,7170,2,0,L|384:176,2,80
120,160,7609,2,0,L|84:76,2,80
192,232,8048,2,0,L|136:320,2,80
308,172,8487,1,0,0:0:0:0:
444,44,8634,5,0,0:0:0:0:
404,236,8780,1,0,0:0:0:0:
324,68,8926,1,0,0:0:0:0:
484,152,9073,1,0,0:0:0:0:
192,108,9219,1,0,0:0:0:0:
164,124,9292,1,0,0:0:0:0:
144,148,9365,1,0,0:0:0:0:
132,176,9438,1,0,0:0:0:0:
132,208,9512,1,0,0:0:0:0:
144,236,9585,1,0,0:0:0:0:
164,260,9658,6,0,P|208:244|228:216,2,80
392,108,10097,2,0,L|360:228,2,103.999995239258
364,76,10463,1,0,0:0:0:0:
324,68,10536,1,0,0:0:0:0:
284,80,10609,1,0,0:0:0:0:
256,112,10682,1,0,0:0:0:0:
256,152,10756,1,0,0:0:0:0:
272,184,10829,6,0,L|196:124,1,51.999997619629
364,260,10975,2,0,L|284:224,1,51.999997619629
416,264,11121,1,0,0:0:0:0:
456,268,11195,1,0,0:0:0:0:
484,300,11268,1,0,0:0:0:0:
504,336,11341,1,0,0:0:0:0:
484,372,11414,1,0,0:0:0:0:
444,380,11487,1,0,0:0:0:0:
404,364,11560,1,0,0:0:0:0:
368,344,11634,1,0,0:0:0:0:
348,308,11707,5,0,0:0:0:0:
316,280,11780,1,0,0:0:0:0:
276,272,11853,1,0,0:0:0:0:
236,280,11926,1,0,0:0:0:0:
200,304,11999,1,0,0:0:0:0:
168,332,12073,1,0,0:0:0:0:
120,336,12146,1,0,0:0:0:0:
88,304,12219,1,0,0:0:0:0:
88,252,12292,1,0,0:0:0:0:
128,212,12365,5,0,0:0:0:0:
180,184,12438,1,0,0:0:0:0:
244,184,12512,1,0,0:0:0:0:
300,216,12585,1,0,0:0:0:0:
348,256,12731,2,0,L|316:128,2,103.999995239258
392,252,13170,2,0,L|364:144,2,103.999995239258
96,112,13609,2,0,L|204:64,2,103.999995239258
