osu file format v14

[General]
AudioFilename: [SDVX II ] FIRE FIRE -DARK BLAZE REMIX- [NOFX].mp3
AudioLeadIn: 0
PreviewTime: 57471
Countdown: 0
SampleSet: Soft
StackLeniency: 0.7
Mode: 3
LetterboxInBreaks: 0
SpecialStyle: 0
WidescreenStoryboard: 0

[Editor]
DistanceSpacing: 1.2
BeatDivisor: 4
GridSize: 4
TimelineZoom: 2.699998

[Metadata]
Title:FIRE FIRE -DARK BLAZE REMIX-
TitleUnicode:FIRE FIRE -DARK BLAZE REMIX-
Artist:Yooh
ArtistUnicode:Yooh
Creator:Shinzo-
Version:GRAVITY
Source:SOUND VOLTEX II -infinite infection-
Tags:StripE kors k楽曲REMIXコンテスト Song REMIX Contest ArcherLove
BeatmapID:559471
BeatmapSetID:242368

[Difficulty]
HPDrainRate:8.5
CircleSize:7
OverallDifficulty:8.5
ApproachRate:5
SliderMultiplier:1.4
SliderTickRate:1

[Events]
//Background and Video events
0,0,"BG yo.png",0,0
//Break Periods
//Storyboard Layer 0 (Background)
//Storyboard Layer 1 (Fail)
//Storyboard Layer 2 (Pass)
//Storyboard Layer 3 (Foreground)
//Storyboard Sound Samples

[TimingPoints]
692,338.983050847458,4,2,1,20,1,0
25098,-100,4,2,1,5,0,0
27810,-100,4,2,1,20,0,0
30522,-100,4,2,1,5,0,0
33234,-100,4,2,1,20,0,0
57641,-100,4,2,1,20,0,1
67810,-100,4,2,1,20,0,0
68488,-100,4,2,1,20,0,1
77980,-100,4,2,1,20,0,0
100437,319.148936170213,4,2,1,20,1,0
100437,-106.382978723404,4,2,1,20,0,0
100676,355.029585798817,4,2,1,20,1,0
100676,-95.2380952380952,4,2,1,20,0,0
101031,338.983050847458,4,2,1,20,1,0
113234,-66.6666666666667,4,2,1,20,0,0
113488,-333.333333333333,4,2,1,20,0,0
113573,-66.6666666666667,4,2,1,20,0,0
113827,-333.333333333333,4,2,1,20,0,0
113912,-66.6666666666667,4,2,1,20,0,0
114166,-333.333333333333,4,2,1,20,0,0
114251,-133.333333333333,4,2,1,20,0,0

[HitObjects]
36,192,692,5,8,0:0:0:0:
329,192,692,1,0,0:0:0:0:
182,192,692,1,4,0:0:0:0:
109,192,776,1,8,0:0:0:0:
402,192,776,1,0,0:0:0:0:
475,192,861,1,0,0:0:0:0:
182,192,861,1,8,0:0:0:0:
329,192,917,1,8,0:0:0:0:
256,192,974,1,8,0:0:0:0:
36,192,1030,1,8,0:0:0:0:
182,192,1030,1,0,0:0:0:0:
402,192,1030,1,4,0:0:0:0:
475,192,1115,1,8,0:0:0:0:
329,192,1115,1,0,0:0:0:0:
182,192,1200,1,0,0:0:0:0:
36,192,1200,1,8,0:0:0:0:
256,192,1256,1,8,0:0:0:0:
329,192,1313,1,8,0:0:0:0:
475,192,1369,1,0,0:0:0:0:
36,192,1369,1,8,0:0:0:0:
256,192,1369,1,4,0:0:0:0:
109,192,1454,1,8,0:0:0:0:
402,192,1454,1,0,0:0:0:0:
182,192,1539,1,8,0:0:0:0:
329,192,1539,1,0,0:0:0:0:
109,192,1624,1,8,0:0:0:0:
402,192,1624,1,0,0:0:0:0:
36,192,1708,1,8,0:0:0:0:
475,192,1708,1,0,0:0:0:0:
109,192,1793,1,8,0:0:0:0:
402,192,1793,1,0,0:0:0:0:
182,192,1878,1,8,0:0:0:0:
329,192,1878,1,0,0:0:0:0:
109,192,1963,1,8,0:0:0:0:
402,192,1963,1,0,0:0:0:0:
36,192,2047,128,0,3403:0:0:0:0:
475,192,2047,128,0,3403:0:0:0:0:
182,192,2047,128,0,2132:0:0:0:0:
329,192,2132,128,0,2217:0:0:0:0:
182,192,2217,128,0,2302:0:0:0:0:
329,192,2302,128,0,2386:0:0:0:0:
109,192,2386,128,0,2471:0:0:0:0:
256,192,2471,128,0,2556:0:0:0:0:
402,192,2556,128,0,2641:0:0:0:0:
182,192,2641,128,0,2725:0:0:0:0:
329,192,2725,128,0,2810:0:0:0:0:
256,192,2810,128,0,2895:0:0:0:0:
182,192,2895,128,0,2980:0:0:0:0:
329,192,2980,128,0,3064:0:0:0:0:
109,192,3064,128,0,3149:0:0:0:0:
402,192,3149,128,0,3234:0:0:0:0:
182,192,3234,128,0,3319:0:0:0:0:
329,192,3319,128,0,3403:0:0:0:0:
109,192,3403,1,8,0:0:0:0:
402,192,3403,1,4,0:0:0:0:
256,192,3403,1,0,0:0:0:0:
182,192,3488,1,0,0:0:0:0:
256,192,3573,1,0,0:0:0:0:
475,192,3573,1,0,0:0:0:0:
329,192,3658,1,0,0:0:0:0:
402,192,3742,1,0,0:0:0:0:
182,192,3742,1,0,0:0:0:0:
36,192,3742,1,2,0:0:0:0:
475,192,3827,1,0,0:0:0:0:
402,192,3912,1,0,0:0:0:0:
109,192,3912,1,0,0:0:0:0:
329,192,3997,1,0,0:0:0:0:
256,192,4081,1,0,0:0:0:0:
36,192,4081,1,0,0:0:0:0:
475,192,4081,1,8,0:0:0:0:
109,192,4166,1,0,0:0:0:0:
182,192,4251,1,0,0:0:0:0:
402,192,4251,1,0,0:0:0:0:
256,192,4336,1,0,0:0:0:0:
182,192,4420,1,0,0:0:0:0:
329,192,4420,1,2,0:0:0:0:
475,192,4420,1,0,0:0:0:0:
109,192,4505,1,0,0:0:0:0:
36,192,4590,1,0,0:0:0:0:
256,192,4590,1,0,0:0:0:0:
109,192,4675,1,0,0:0:0:0:
475,192,4759,1,8,0:0:0:0:
329,192,4759,1,0,0:0:0:0:
182,192,4759,1,0,0:0:0:0:
109,192,4844,1,0,0:0:0:0:
256,192,4929,1,0,0:0:0:0:
402,192,4929,1,0,0:0:0:0:
182,192,5014,1,0,0:0:0:0:
329,192,5098,1,2,0:0:0:0:
475,192,5098,1,0,0:0:0:0:
109,192,5098,1,0,0:0:0:0:
256,192,5183,1,0,0:0:0:0:
182,192,5268,1,0,0:0:0:0:
402,192,5268,1,0,0:0:0:0:
109,192,5353,1,0,0:0:0:0:
475,192,5437,1,0,0:0:0:0:
256,192,5437,1,8,0:0:0:0:
36,192,5437,1,0,0:0:0:0:
402,192,5522,1,0,0:0:0:0:
109,192,5522,1,0,0:0:0:0:
329,192,5607,1,0,0:0:0:0:
182,192,5607,1,0,0:0:0:0:
109,192,5692,1,0,0:0:0:0:
402,192,5692,1,0,0:0:0:0:
475,192,5776,1,0,0:0:0:0:
36,192,5776,1,4,0:0:0:0:
256,192,5776,1,0,0:0:0:0:
329,192,5776,128,0,6115:0:0:0:0:
182,192,5946,1,0,0:0:0:0:
109,192,6030,1,0,0:0:0:0:
36,192,6115,1,0,0:0:0:0:
402,192,6115,1,8,0:0:0:0:
475,192,6115,1,0,0:0:0:0:
109,192,6200,1,0,0:0:0:0:
182,192,6285,1,0,0:0:0:0:
329,192,6285,1,0,0:0:0:0:
256,192,6369,1,0,0:0:0:0:
475,192,6454,1,0,0:0:0:0:
36,192,6454,1,0,0:0:0:0:
329,192,6454,1,2,0:0:0:0:
109,192,6539,1,0,0:0:0:0:
182,192,6624,1,0,0:0:0:0:
402,192,6624,1,0,0:0:0:0:
256,192,6708,1,0,0:0:0:0:
475,192,6793,1,8,0:0:0:0:
36,192,6793,1,0,0:0:0:0:
329,192,6793,1,0,0:0:0:0:
402,192,6878,1,0,0:0:0:0:
329,192,6963,1,0,0:0:0:0:
182,192,6963,1,0,0:0:0:0:
256,192,7047,1,0,0:0:0:0:
36,192,7132,1,0,0:0:0:0:
475,192,7132,1,0,0:0:0:0:
329,192,7132,1,2,0:0:0:0:
109,192,7217,1,0,0:0:0:0:
182,192,7302,1,0,0:0:0:0:
329,192,7302,1,0,0:0:0:0:
256,192,7386,1,0,0:0:0:0:
109,192,7471,1,0,0:0:0:0:
329,192,7471,1,0,0:0:0:0:
36,192,7471,1,8,0:0:0:0:
182,192,7556,1,0,0:0:0:0:
256,192,7641,1,0,0:0:0:0:
475,192,7641,1,0,0:0:0:0:
329,192,7725,1,0,0:0:0:0:
402,192,7810,1,0,0:0:0:0:
36,192,7810,1,0,0:0:0:0:
182,192,7810,1,2,0:0:0:0:
109,192,7895,1,0,0:0:0:0:
182,192,7980,1,0,0:0:0:0:
475,192,7980,1,0,0:0:0:0:
402,192,8064,1,0,0:0:0:0:
109,192,8064,1,0,0:0:0:0:
329,192,8149,1,8,0:0:0:0:
182,192,8149,1,0,0:0:0:0:
36,192,8149,1,0,0:0:0:0:
256,192,8234,1,0,0:0:0:0:
182,192,8319,1,0,0:0:0:0:
109,192,8403,1,0,0:0:0:0:
36,192,8488,1,8,0:0:0:0:
475,192,8488,1,0,0:0:0:0:
256,192,8488,128,0,8827:0:0:0:0:
182,192,8488,1,0,0:0:0:0:
475,192,8658,1,8,0:0:0:0:
36,192,8658,1,0,0:0:0:0:
329,192,8658,1,0,0:0:0:0:
36,192,8827,1,8,0:0:0:0:
475,192,8827,1,0,0:0:0:0:
182,192,8827,1,0,0:0:0:0:
402,192,8912,1,0,0:0:0:0:
329,192,8997,1,0,0:0:0:0:
109,192,8997,1,0,0:0:0:0:
256,192,9081,1,0,0:0:0:0:
182,192,9166,1,0,0:0:0:0:
475,192,9166,1,0,0:0:0:0:
36,192,9166,1,2,0:0:0:0:
256,192,9251,1,0,0:0:0:0:
329,192,9336,1,0,0:0:0:0:
109,192,9336,1,0,0:0:0:0:
256,192,9420,1,0,0:0:0:0:
182,192,9505,1,8,0:0:0:0:
402,192,9505,1,0,0:0:0:0:
36,192,9505,1,0,0:0:0:0:
256,192,9590,1,0,0:0:0:0:
329,192,9675,1,0,0:0:0:0:
109,192,9675,1,0,0:0:0:0:
402,192,9759,1,0,0:0:0:0:
36,192,9844,1,0,0:0:0:0:
182,192,9844,1,2,0:0:0:0:
475,192,9844,1,0,0:0:0:0:
329,192,9929,1,0,0:0:0:0:
475,192,10014,1,0,0:0:0:0:
402,192,10070,1,0,0:0:0:0:
329,192,10127,1,0,0:0:0:0:
256,192,10183,1,0,0:0:0:0:
36,192,10183,1,0,0:0:0:0:
182,192,10183,1,8,0:0:0:0:
402,192,10268,1,0,0:0:0:0:
256,192,10353,1,0,0:0:0:0:
109,192,10353,1,0,0:0:0:0:
329,192,10437,1,0,0:0:0:0:
182,192,10522,1,0,0:0:0:0:
36,192,10522,1,2,0:0:0:0:
475,192,10522,1,0,0:0:0:0:
256,192,10607,1,0,0:0:0:0:
182,192,10692,1,0,0:0:0:0:
402,192,10692,1,0,0:0:0:0:
109,192,10776,1,0,0:0:0:0:
36,192,10861,1,0,0:0:0:0:
256,192,10861,1,0,0:0:0:0:
475,192,10861,1,8,0:0:0:0:
109,192,10946,1,0,0:0:0:0:
402,192,10946,1,0,0:0:0:0:
182,192,11030,1,0,0:0:0:0:
329,192,11030,1,0,0:0:0:0:
109,192,11115,1,0,0:0:0:0:
402,192,11115,1,0,0:0:0:0:
36,192,11200,1,0,0:0:0:0:
182,192,11200,1,4,0:0:0:0:
329,192,11200,1,0,0:0:0:0:
475,192,11200,128,0,11539:0:0:0:0:
256,192,11369,1,0,0:0:0:0:
109,192,11454,1,0,0:0:0:0:
182,192,11539,1,8,0:0:0:0:
329,192,11539,1,0,0:0:0:0:
36,192,11539,1,0,0:0:0:0:
402,192,11624,1,0,0:0:0:0:
475,192,11708,1,0,0:0:0:0:
256,192,11708,1,0,0:0:0:0:
402,192,11793,1,0,0:0:0:0:
329,192,11878,1,0,0:0:0:0:
109,192,11878,1,2,0:0:0:0:
36,192,11878,1,0,0:0:0:0:
182,192,11963,1,0,0:0:0:0:
256,192,12047,1,0,0:0:0:0:
36,192,12047,1,0,0:0:0:0:
329,192,12132,1,0,0:0:0:0:
402,192,12217,1,8,0:0:0:0:
36,192,12217,1,0,0:0:0:0:
475,192,12217,1,0,0:0:0:0:
109,192,12302,1,0,0:0:0:0:
182,192,12386,1,0,0:0:0:0:
329,192,12386,1,0,0:0:0:0:
109,192,12471,1,0,0:0:0:0:
402,192,12556,1,0,0:0:0:0:
36,192,12556,1,0,0:0:0:0:
475,192,12556,1,2,0:0:0:0:
109,192,12641,1,0,0:0:0:0:
182,192,12725,1,0,0:0:0:0:
402,192,12725,1,0,0:0:0:0:
256,192,12810,1,0,0:0:0:0:
36,192,12895,1,0,0:0:0:0:
329,192,12895,1,0,0:0:0:0:
182,192,12895,1,8,0:0:0:0:
36,192,13064,1,0,0:0:0:0:
402,192,13064,1,0,0:0:0:0:
182,192,13064,1,8,0:0:0:0:
109,192,13234,1,0,0:0:0:0:
402,192,13234,1,0,0:0:0:0:
256,192,13234,1,8,0:0:0:0:
182,192,13319,1,8,0:0:0:0:
475,192,13319,1,0,0:0:0:0:
329,192,13319,1,0,0:0:0:0:
36,192,13488,1,0,0:0:0:0:
329,192,13488,1,0,0:0:0:0:
182,192,13488,1,8,0:0:0:0:
109,192,13658,1,8,0:0:0:0:
402,192,13658,1,0,0:0:0:0:
256,192,13658,1,0,0:0:0:0:
36,192,13742,1,8,0:0:0:0:
475,192,13742,1,0,0:0:0:0:
109,192,13827,1,8,0:0:0:0:
402,192,13827,1,0,0:0:0:0:
182,192,13912,1,8,0:0:0:0:
329,192,13912,1,0,0:0:0:0:
256,192,13912,128,0,14251:0:0:0:0:
109,192,13997,1,8,0:0:0:0:
402,192,13997,1,0,0:0:0:0:
36,192,14081,1,8,0:0:0:0:
475,192,14081,1,0,0:0:0:0:
109,192,14166,1,8,0:0:0:0:
402,192,14166,1,0,0:0:0:0:
36,192,14251,1,8,0:0:0:0:
475,192,14251,1,0,0:0:0:0:
182,192,14251,1,4,0:0:0:0:
329,192,14251,1,0,0:0:0:0:
402,192,14336,1,0,0:0:0:0:
329,192,14420,1,0,0:0:0:0:
109,192,14420,1,0,0:0:0:0:
256,192,14505,1,0,0:0:0:0:
329,192,14590,1,2,0:0:0:0:
475,192,14590,1,0,0:0:0:0:
36,192,14590,1,0,0:0:0:0:
256,192,14675,1,0,0:0:0:0:
182,192,14759,1,0,0:0:0:0:
402,192,14759,1,0,0:0:0:0:
256,192,14844,1,0,0:0:0:0:
329,192,14929,1,0,0:0:0:0:
109,192,14929,1,0,0:0:0:0:
36,192,14929,1,8,0:0:0:0:
182,192,15014,1,0,0:0:0:0:
256,192,15098,1,0,0:0:0:0:
475,192,15098,1,0,0:0:0:0:
329,192,15183,1,0,0:0:0:0:
402,192,15268,1,0,0:0:0:0:
182,192,15268,1,0,0:0:0:0:
109,192,15268,1,2,0:0:0:0:
329,192,15353,1,0,0:0:0:0:
256,192,15437,1,0,0:0:0:0:
36,192,15437,1,0,0:0:0:0:
182,192,15522,1,0,0:0:0:0:
329,192,15607,1,8,0:0:0:0:
475,192,15607,1,0,0:0:0:0:
109,192,15607,1,0,0:0:0:0:
402,192,15692,1,0,0:0:0:0:
329,192,15776,1,0,0:0:0:0:
109,192,15776,1,0,0:0:0:0:
256,192,15861,1,0,0:0:0:0:
36,192,15946,1,0,0:0:0:0:
402,192,15946,1,0,0:0:0:0:
182,192,15946,1,2,0:0:0:0:
329,192,16030,1,0,0:0:0:0:
109,192,16115,1,0,0:0:0:0:
402,192,16115,1,0,0:0:0:0:
182,192,16200,1,0,0:0:0:0:
36,192,16285,1,0,0:0:0:0:
256,192,16285,1,8,0:0:0:0:
475,192,16285,1,0,0:0:0:0:
402,192,16369,1,0,0:0:0:0:
109,192,16369,1,0,0:0:0:0:
182,192,16454,1,0,0:0:0:0:
329,192,16454,1,0,0:0:0:0:
109,192,16539,1,0,0:0:0:0:
402,192,16539,1,0,0:0:0:0:
256,192,16624,5,0,0:0:0:0:
36,192,16624,1,0,0:0:0:0:
475,192,16624,1,4,0:0:0:0:
329,192,16624,128,0,16963:0:0:0:0:
182,192,16793,1,0,0:0:0:0:
109,192,16878,1,0,0:0:0:0:
36,192,16963,1,0,0:0:0:0:
475,192,16963,1,0,0:0:0:0:
256,192,16963,1,8,0:0:0:0:
109,192,17047,1,0,0:0:0:0:
182,192,17132,1,0,0:0:0:0:
402,192,17132,1,0,0:0:0:0:
256,192,17217,1,0,0:0:0:0:
36,192,17302,1,2,0:0:0:0:
109,192,17302,1,0,0:0:0:0:
329,192,17302,1,0,0:0:0:0:
182,192,17386,1,0,0:0:0:0:
256,192,17471,1,0,0:0:0:0:
475,192,17471,1,0,0:0:0:0:
329,192,17556,1,0,0:0:0:0:
402,192,17641,1,8,0:0:0:0:
475,192,17641,1,0,0:0:0:0:
36,192,17641,1,0,0:0:0:0:
109,192,17725,1,0,0:0:0:0:
182,192,17810,1,0,0:0:0:0:
402,192,17810,1,0,0:0:0:0:
256,192,17895,1,0,0:0:0:0:
329,192,17980,1,2,0:0:0:0:
475,192,17980,1,0,0:0:0:0:
109,192,17980,1,0,0:0:0:0:
182,192,18064,1,0,0:0:0:0:
256,192,18149,1,0,0:0:0:0:
402,192,18149,1,0,0:0:0:0:
329,192,18234,1,0,0:0:0:0:
402,192,18319,1,0,0:0:0:0:
36,192,18319,1,8,0:0:0:0:
182,192,18319,1,0,0:0:0:0:
109,192,18403,1,0,0:0:0:0:
182,192,18488,1,0,0:0:0:0:
329,192,18488,1,0,0:0:0:0:
109,192,18573,1,0,0:0:0:0:
36,192,18658,5,0,0:0:0:0:
402,192,18658,1,0,0:0:0:0:
256,192,18658,1,2,0:0:0:0:
182,192,18742,128,0,18827:0:0:0:0:
475,192,18742,128,0,18827:0:0:0:0:
36,192,18827,128,0,18912:0:0:0:0:
329,192,18827,128,0,18912:0:0:0:0:
182,192,18912,128,0,18997:0:0:0:0:
475,192,18912,128,0,18997:0:0:0:0:
256,192,18997,128,0,19336:0:0:0:0:
36,192,18997,1,8,0:0:0:0:
329,192,18997,1,8,0:0:0:0:
182,192,19166,128,0,19336:0:0:0:0:
329,192,19166,128,0,19336:0:0:0:0:
36,192,19336,1,8,0:0:0:0:
475,192,19336,1,0,0:0:0:0:
109,192,19505,1,0,0:0:0:0:
402,192,19505,1,0,0:0:0:0:
256,192,19505,1,8,0:0:0:0:
36,192,19675,1,0,0:0:0:0:
475,192,19675,1,0,0:0:0:0:
182,192,19675,1,0,0:0:0:0:
329,192,19675,1,8,0:0:0:0:
36,192,19844,1,0,0:0:0:0:
475,192,19844,1,0,0:0:0:0:
182,192,19844,1,0,0:0:0:0:
329,192,19844,1,8,0:0:0:0:
109,192,20098,1,0,0:0:0:0:
256,192,20098,1,8,0:0:0:0:
402,192,20098,1,0,0:0:0:0:
475,192,20098,1,0,0:0:0:0:
109,192,20353,1,0,0:0:0:0:
402,192,20353,1,8,0:0:0:0:
256,192,20353,1,0,0:0:0:0:
36,192,20353,1,0,0:0:0:0:
109,192,20607,1,0,0:0:0:0:
402,192,20607,1,0,0:0:0:0:
182,192,20607,1,8,0:0:0:0:
475,192,20607,1,0,0:0:0:0:
36,192,20861,1,0,0:0:0:0:
329,192,20861,1,0,0:0:0:0:
182,192,20861,1,8,0:0:0:0:
109,192,20946,1,0,0:0:0:0:
402,192,20946,1,0,0:0:0:0:
256,192,20946,1,8,0:0:0:0:
182,192,21030,1,8,0:0:0:0:
475,192,21030,1,0,0:0:0:0:
329,192,21030,1,0,0:0:0:0:
36,192,21030,1,0,0:0:0:0:
475,192,21200,1,0,0:0:0:0:
182,192,21200,1,8,0:0:0:0:
329,192,21200,1,0,0:0:0:0:
36,192,21200,1,0,0:0:0:0:
402,192,21454,1,8,0:0:0:0:
109,192,21454,1,0,0:0:0:0:
256,192,21454,1,0,0:0:0:0:
329,192,21454,1,0,0:0:0:0:
36,192,21708,1,0,0:0:0:0:
475,192,21708,1,0,0:0:0:0:
109,192,21708,1,0,0:0:0:0:
329,192,21708,1,8,0:0:0:0:
36,192,21963,1,0,0:0:0:0:
475,192,21963,1,0,0:0:0:0:
182,192,21963,1,0,0:0:0:0:
402,192,21963,1,8,0:0:0:0:
36,192,22217,1,0,0:0:0:0:
182,192,22217,1,8,0:0:0:0:
329,192,22217,1,0,0:0:0:0:
109,192,22302,1,0,0:0:0:0:
256,192,22302,1,0,0:0:0:0:
402,192,22302,1,8,0:0:0:0:
475,192,22386,128,4,23742:0:0:0:0:
36,192,22386,1,8,0:0:0:0:
329,192,22386,1,0,0:0:0:0:
109,192,22471,1,8,0:0:0:0:
182,192,22556,1,8,0:0:0:0:
256,192,22641,1,8,0:0:0:0:
109,192,22725,128,0,23064:0:0:0:0:
329,192,22725,1,8,0:0:0:0:
36,192,22725,1,4,0:0:0:0:
402,192,22810,1,8,0:0:0:0:
329,192,22895,1,8,0:0:0:0:
256,192,22980,1,8,0:0:0:0:
182,192,23064,1,8,0:0:0:0:
36,192,23064,128,0,23742:0:0:0:0:
402,192,23064,1,4,0:0:0:0:
329,192,23149,1,8,0:0:0:0:
256,192,23234,1,8,0:0:0:0:
182,192,23319,1,8,0:0:0:0:
256,192,23403,128,4,23742:0:0:0:0:
402,192,23403,1,0,0:0:0:0:
109,192,23403,1,8,0:0:0:0:
329,192,23488,1,8,0:0:0:0:
182,192,23488,1,0,0:0:0:0:
402,192,23573,1,0,0:0:0:0:
109,192,23573,1,8,0:0:0:0:
182,192,23658,1,0,0:0:0:0:
329,192,23658,1,8,0:0:0:0:
109,192,23742,1,0,0:0:0:0:
402,192,23742,1,8,0:0:0:0:
329,192,23827,1,0,0:0:0:0:
256,192,23912,1,0,0:0:0:0:
182,192,23997,1,0,0:0:0:0:
475,192,24081,1,0,0:0:0:0:
36,192,24081,1,0,0:0:0:0:
402,192,24166,1,0,0:0:0:0:
109,192,24166,1,0,0:0:0:0:
182,192,24251,1,0,0:0:0:0:
329,192,24251,1,0,0:0:0:0:
109,192,24336,1,0,0:0:0:0:
402,192,24336,1,0,0:0:0:0:
36,192,24420,1,8,0:0:0:0:
475,192,24420,1,0,0:0:0:0:
182,192,24505,1,8,0:0:0:0:
329,192,24505,1,0,0:0:0:0:
36,192,24590,1,0,0:0:0:0:
402,192,24590,1,8,0:0:0:0:
182,192,24675,1,0,0:0:0:0:
109,192,24675,1,0,0:0:0:0:
329,192,24759,1,0,0:0:0:0:
402,192,24759,1,0,0:0:0:0:
402,192,24844,1,0,0:0:0:0:
329,192,24844,1,0,0:0:0:0:
109,192,24929,1,0,0:0:0:0:
182,192,24929,1,0,0:0:0:0:
109,192,25014,1,0,0:0:0:0:
182,192,25014,1,0,0:0:0:0:
475,192,25098,1,0,0:0:0:0:
402,192,25098,1,0,0:0:0:0:
256,192,25098,128,4,26454:0:0:0:0:
329,192,25098,1,8,0:0:0:0:
182,192,25183,1,0,0:0:0:0:
109,192,25268,1,0,0:0:0:0:
36,192,25353,1,0,0:0:0:0:
475,192,25437,1,0,0:0:0:0:
329,192,25437,1,0,0:0:0:0:
402,192,25607,1,0,0:0:0:0:
36,192,25607,1,0,0:0:0:0:
329,192,25692,1,0,0:0:0:0:
475,192,25776,1,0,0:0:0:0:
36,192,25946,1,0,0:0:0:0:
182,192,25946,1,0,0:0:0:0:
475,192,26115,1,0,0:0:0:0:
329,192,26115,1,0,0:0:0:0:
36,192,26285,1,0,0:0:0:0:
109,192,26369,1,0,0:0:0:0:
182,192,26454,1,0,0:0:0:0:
329,192,26454,128,0,27132:0:0:0:0:
475,192,26624,1,0,0:0:0:0:
109,192,26624,1,0,0:0:0:0:
36,192,26793,1,0,0:0:0:0:
256,192,26793,1,0,0:0:0:0:
109,192,26963,1,0,0:0:0:0:
182,192,27047,1,0,0:0:0:0:
256,192,27132,1,0,0:0:0:0:
475,192,27132,128,0,27810:0:0:0:0:
36,192,27302,1,0,0:0:0:0:
402,192,27302,1,0,0:0:0:0:
109,192,27471,1,0,0:0:0:0:
329,192,27471,1,0,0:0:0:0:
256,192,27641,1,0,0:0:0:0:
36,192,27641,1,0,0:0:0:0:
109,192,27810,128,0,27895:0:0:0:0:
182,192,27895,128,0,27980:0:0:0:0:
329,192,27980,128,0,28064:0:0:0:0:
402,192,28064,128,0,28149:0:0:0:0:
475,192,28149,128,0,28742:0:0:0:0:
182,192,28319,128,0,28742:0:0:0:0:
109,192,28403,128,0,28742:0:0:0:0:
36,192,28488,128,0,28742:0:0:0:0:
256,192,28827,128,0,29166:0:0:0:0:
36,192,29166,128,0,29251:0:0:0:0:
182,192,29251,128,0,29336:0:0:0:0:
329,192,29336,128,0,29420:0:0:0:0:
475,192,29420,128,0,29505:0:0:0:0:
182,192,29505,128,0,29844:0:0:0:0:
109,192,29505,1,0,0:0:0:0:
256,192,29505,1,0,0:0:0:0:
402,192,29505,1,0,0:0:0:0:
329,192,29675,128,0,29844:0:0:0:0:
402,192,29759,128,0,29844:0:0:0:0:
109,192,29844,128,0,30014:0:0:0:0:
256,192,30014,128,0,30183:0:0:0:0:
475,192,30183,1,0,0:0:0:0:
402,192,30225,1,0,0:0:0:0:
329,192,30268,1,0,0:0:0:0:
256,192,30310,1,0,0:0:0:0:
182,192,30353,128,0,30522:0:0:0:0:
36,192,30522,1,0,0:0:0:0:
109,192,30607,1,0,0:0:0:0:
182,192,30692,1,0,0:0:0:0:
256,192,30776,1,0,0:0:0:0:
329,192,30861,1,0,0:0:0:0:
475,192,30861,1,0,0:0:0:0:
256,192,31030,1,0,0:0:0:0:
36,192,31030,1,0,0:0:0:0:
329,192,31115,1,0,0:0:0:0:
402,192,31200,1,0,0:0:0:0:
109,192,31369,1,0,0:0:0:0:
329,192,31369,1,0,0:0:0:0:
475,192,31539,1,0,0:0:0:0:
256,192,31539,1,0,0:0:0:0:
329,192,31708,1,0,0:0:0:0:
182,192,31793,1,0,0:0:0:0:
475,192,31878,128,0,32641:0:0:0:0:
36,192,31878,1,0,0:0:0:0:
329,192,32047,128,0,32471:0:0:0:0:
182,192,32132,128,0,32302:0:0:0:0:
36,192,32217,128,0,32810:0:0:0:0:
182,192,32386,128,0,32895:0:0:0:0:
329,192,32556,128,0,32895:0:0:0:0:
475,192,32725,128,0,32895:0:0:0:0:
256,192,32895,128,0,33064:0:0:0:0:
36,192,32895,1,0,0:0:0:0:
182,192,33064,1,0,0:0:0:0:
109,192,33149,1,0,0:0:0:0:
329,192,33234,128,0,33319:0:0:0:0:
182,192,33319,128,0,33403:0:0:0:0:
109,192,33403,1,0,0:0:0:0:
256,192,33446,1,0,0:0:0:0:
402,192,33488,128,0,33573:0:0:0:0:
256,192,33573,128,0,33658:0:0:0:0:
109,192,33658,128,0,33742:0:0:0:0:
329,192,33742,128,0,33827:0:0:0:0:
182,192,33827,1,0,0:0:0:0:
109,192,33869,1,0,0:0:0:0:
36,192,33912,128,0,33997:0:0:0:0:
329,192,33997,1,0,0:0:0:0:
402,192,34039,1,0,0:0:0:0:
475,192,34081,128,0,34251:0:0:0:0:
329,192,34251,128,0,34336:0:0:0:0:
36,192,34336,1,0,0:0:0:0:
109,192,34378,1,0,0:0:0:0:
182,192,34420,1,0,0:0:0:0:
256,192,34505,128,0,34590:0:0:0:0:
475,192,34590,128,0,34929:0:0:0:0:
36,192,34759,1,0,0:0:0:0:
109,192,34802,1,0,0:0:0:0:
182,192,34844,1,0,0:0:0:0:
256,192,34886,1,0,0:0:0:0:
402,192,34929,128,0,35946:0:0:0:0:
182,192,35098,1,8,0:0:0:0:
329,192,35098,1,0,0:0:0:0:
109,192,35268,128,0,35946:0:0:0:0:
256,192,35268,1,0,0:0:0:0:
36,192,35437,1,8,0:0:0:0:
475,192,35437,1,0,0:0:0:0:
182,192,35522,1,8,0:0:0:0:
329,192,35522,1,0,0:0:0:0:
36,192,35607,1,8,0:0:0:0:
475,192,35607,1,0,0:0:0:0:
256,192,35607,128,0,35946:0:0:0:0:
182,192,35692,1,8,0:0:0:0:
329,192,35692,1,0,0:0:0:0:
475,192,35776,1,0,0:0:0:0:
36,192,35776,1,8,0:0:0:0:
329,192,35861,1,0,0:0:0:0:
182,192,35861,1,8,0:0:0:0:
36,192,35946,1,4,0:0:0:0:
475,192,35946,1,8,0:0:0:0:
402,192,36030,1,0,0:0:0:0:
329,192,36115,1,0,0:0:0:0:
256,192,36200,1,0,0:0:0:0:
182,192,36285,1,0,0:0:0:0:
475,192,36285,1,0,0:0:0:0:
329,192,36454,1,8,0:0:0:0:
36,192,36454,1,0,0:0:0:0:
182,192,36454,1,0,0:0:0:0:
256,192,36539,1,0,0:0:0:0:
475,192,36624,1,0,0:0:0:15:Snare Wet.wav
36,192,36624,1,0,0:0:0:0:
109,192,36624,1,0,0:0:0:0:
402,192,36624,1,0,0:0:0:15:Snare Wet.wav
182,192,36793,1,0,0:0:0:0:
109,192,36793,1,0,0:0:0:0:
329,192,36878,1,0,0:0:0:0:
402,192,36878,1,0,0:0:0:0:
109,192,36963,1,0,0:0:0:0:
182,192,36963,1,0,0:0:0:0:
402,192,37047,1,0,0:0:0:0:
329,192,37047,1,0,0:0:0:0:
109,192,37132,1,0,0:0:0:0:
182,192,37132,1,0,0:0:0:0:
402,192,37217,1,0,0:0:0:0:
329,192,37217,1,0,0:0:0:0:
109,192,37302,1,0,0:0:0:0:
36,192,37302,1,8,0:0:0:0:
475,192,37302,1,0,0:0:0:0:
256,192,37471,1,0,0:0:0:0:
36,192,37556,1,8,0:0:0:0:
475,192,37556,1,0,0:0:0:0:
182,192,37556,1,0,0:0:0:0:
329,192,37725,1,0,0:0:0:0:
36,192,37810,1,0,0:0:0:0:
475,192,37810,1,0,0:0:0:0:
256,192,37810,1,8,0:0:0:0:
329,192,37895,1,0,0:0:0:0:
402,192,37980,1,0,0:0:0:0:
36,192,37980,1,0,0:0:0:0:
182,192,37980,1,0,0:0:0:15:Snare Wet.wav
109,192,37980,1,0,0:0:0:15:Snare Wet.wav
256,192,38093,1,0,0:0:0:30:LR3_DS Wab1.wav
256,192,38206,1,0,0:0:0:30:LR3_DS Wab1.wav
256,192,38319,128,0,38488:0:0:0:30:LR3_DS Wab1.wav
475,192,38319,1,0,0:0:0:0:
36,192,38488,1,0,0:0:0:0:
109,192,38658,1,8,0:0:0:0:
182,192,38658,1,0,0:0:0:0:
402,192,38658,1,0,0:0:0:0:
329,192,38742,1,0,0:0:0:0:
256,192,38827,1,0,0:0:0:0:
182,192,38912,1,0,0:0:0:0:
36,192,38997,1,0,0:0:0:0:
256,192,38997,1,0,0:0:0:0:
329,192,39039,1,0,0:0:0:0:
402,192,39081,1,0,0:0:0:0:
475,192,39124,1,0,0:0:0:0:
182,192,39166,1,8,0:0:0:0:
36,192,39166,1,0,0:0:0:0:
329,192,39166,1,0,0:0:0:0:
256,192,39251,1,0,0:0:0:0:
402,192,39336,1,0,0:0:0:15:Snare Wet.wav
475,192,39336,1,0,0:0:0:15:Snare Wet.wav
109,192,39336,1,0,0:0:0:0:
36,192,39336,1,0,0:0:0:0:
182,192,39505,1,0,0:0:0:0:
109,192,39590,1,0,0:0:0:0:
182,192,39632,1,0,0:0:0:0:
256,192,39675,1,0,0:0:0:0:
329,192,39717,1,0,0:0:0:0:
402,192,39759,1,0,0:0:0:0:
475,192,39802,1,0,0:0:0:0:
329,192,39844,1,0,0:0:0:0:
182,192,39929,1,0,0:0:0:0:
109,192,40014,1,0,0:0:0:0:
36,192,40014,1,8,0:0:0:0:
402,192,40014,1,0,0:0:0:0:
329,192,40098,1,0,0:0:0:0:
182,192,40183,1,0,0:0:0:0:
402,192,40268,1,8,0:0:0:0:
475,192,40268,1,0,0:0:0:0:
109,192,40268,1,0,0:0:0:0:
256,192,40353,1,0,0:0:0:0:
109,192,40522,1,0,0:0:0:0:
36,192,40522,1,8,0:0:0:0:
402,192,40522,1,0,0:0:0:0:
475,192,40692,1,0,0:0:0:15:Snare Wet.wav
402,192,40692,1,0,0:0:0:15:Snare Wet.wav
256,192,40692,1,0,0:0:0:0:
36,192,40692,1,0,0:0:0:0:
182,192,40776,1,0,0:0:0:0:
109,192,40861,1,0,0:0:0:0:
329,192,40861,1,8,0:0:0:0:
36,192,40946,1,0,0:0:0:0:
402,192,41030,128,0,41369:0:0:0:0:
182,192,41200,1,8,0:0:0:0:
329,192,41200,1,0,0:0:0:0:
109,192,41285,1,0,0:0:0:0:
475,192,41369,1,8,0:0:0:0:
36,192,41369,1,0,0:0:0:0:
256,192,41369,1,0,0:0:0:0:
109,192,41454,1,0,0:0:0:0:
182,192,41539,1,0,0:0:0:0:
256,192,41624,1,0,0:0:0:0:
329,192,41708,1,0,0:0:0:0:
36,192,41708,1,0,0:0:0:0:
182,192,41878,1,0,0:0:0:0:
402,192,41878,1,0,0:0:0:0:
109,192,41878,1,8,0:0:0:0:
256,192,41963,1,0,0:0:0:0:
329,192,42047,1,0,0:0:0:15:Snare Wet.wav
475,192,42047,1,0,0:0:0:0:
36,192,42047,1,0,0:0:0:0:
402,192,42047,1,0,0:0:0:15:Snare Wet.wav
182,192,42132,1,0,0:0:0:0:
109,192,42132,1,0,0:0:0:0:
329,192,42217,1,0,0:0:0:0:
402,192,42217,1,0,0:0:0:0:
182,192,42302,1,0,0:0:0:0:
109,192,42302,1,0,0:0:0:0:
329,192,42386,1,0,0:0:0:0:
402,192,42386,1,0,0:0:0:0:
109,192,42471,1,0,0:0:0:0:
182,192,42471,1,0,0:0:0:0:
402,192,42556,1,0,0:0:0:0:
329,192,42556,1,0,0:0:0:0:
109,192,42641,1,0,0:0:0:0:
182,192,42641,1,0,0:0:0:0:
475,192,42725,1,0,0:0:0:0:
402,192,42725,1,8,0:0:0:0:
36,192,42725,1,0,0:0:0:0:
109,192,42810,1,0,0:0:0:0:
182,192,42895,1,0,0:0:0:0:
402,192,42980,1,0,0:0:0:0:
475,192,42980,1,8,0:0:0:0:
109,192,42980,1,0,0:0:0:0:
36,192,43064,128,0,43149:0:0:0:0:
475,192,43149,128,0,43234:0:0:0:0:
402,192,43234,1,0,0:0:0:0:
256,192,43234,1,8,0:0:0:0:
36,192,43234,128,0,43319:0:0:0:0:
109,192,43234,1,0,0:0:0:0:
475,192,43319,128,0,43403:0:0:0:0:
36,192,43403,1,0,0:0:0:0:
329,192,43403,1,0,0:0:0:15:Snare Wet.wav
182,192,43403,1,0,0:0:0:0:
256,192,43403,1,0,0:0:0:15:Snare Wet.wav
109,192,43488,1,0,0:0:0:30:LR3_DS Wab1.wav
182,192,43573,1,0,0:0:0:30:LR3_DS Wab1.wav
256,192,43658,1,0,0:0:0:30:LR3_DS Wab1.wav
329,192,43742,1,0,0:0:0:30:LR3_DS Wab1.wav
402,192,43742,128,0,44081:0:0:0:0:
256,192,43912,1,0,0:0:0:0:
36,192,44081,1,8,0:0:0:0:
109,192,44081,1,0,0:0:0:0:
329,192,44081,1,0,0:0:0:0:
256,192,44166,1,0,0:0:0:0:
182,192,44251,5,0,0:0:0:0:
109,192,44336,1,0,0:0:0:0:
36,192,44420,128,0,44759:0:0:0:0:
475,192,44420,1,0,0:0:0:0:
182,192,44590,1,0,0:0:0:0:
402,192,44590,1,0,0:0:0:0:
109,192,44590,1,8,0:0:0:0:
329,192,44675,1,0,0:0:0:0:
109,192,44759,1,0,0:0:0:0:
475,192,44759,1,0,0:0:0:15:Snare Wet.wav
256,192,44759,1,0,0:0:0:0:
402,192,44759,1,0,0:0:0:15:Snare Wet.wav
182,192,44844,1,0,0:0:0:0:
256,192,44929,1,0,0:0:0:0:
329,192,45014,1,0,0:0:0:0:
402,192,45098,128,0,45183:0:0:0:0:
182,192,45098,1,8,0:0:0:0:
109,192,45183,128,0,45268:0:0:0:0:
402,192,45268,128,0,45353:0:0:0:0:
329,192,45268,1,8,0:0:0:0:
109,192,45353,128,0,45437:0:0:0:0:
36,192,45437,5,8,0:0:0:0:
475,192,45437,1,0,0:0:0:0:
182,192,45522,1,8,0:0:0:0:
329,192,45522,1,0,0:0:0:0:
36,192,45607,1,8,0:0:0:0:
475,192,45607,1,0,0:0:0:0:
182,192,45692,1,8,0:0:0:0:
329,192,45692,1,0,0:0:0:0:
36,192,45776,1,8,0:0:0:0:
475,192,45776,1,0,0:0:0:0:
182,192,45861,1,8,0:0:0:0:
329,192,45861,1,0,0:0:0:0:
36,192,45946,1,8,0:0:0:0:
475,192,45946,1,0,0:0:0:0:
182,192,46030,1,8,0:0:0:0:
329,192,46030,1,0,0:0:0:0:
475,192,46115,1,8,0:0:0:0:
36,192,46115,1,0,0:0:0:0:
402,192,46143,1,8,0:0:0:0:
329,192,46172,1,8,0:0:0:0:
256,192,46200,1,8,0:0:0:0:
182,192,46228,1,8,0:0:0:0:
109,192,46256,1,8,0:0:0:0:
475,192,46285,1,8,0:0:0:0:
402,192,46313,1,8,0:0:0:0:
329,192,46341,1,8,0:0:0:0:
256,192,46369,1,8,0:0:0:0:
182,192,46398,1,8,0:0:0:0:
109,192,46426,1,8,0:0:0:0:
36,192,46454,1,8,0:0:0:0:
36,192,46793,1,8,0:0:0:0:
109,192,46793,1,4,0:0:0:0:
402,192,46793,1,0,0:0:0:0:
475,192,46793,1,0,0:0:0:0:
182,192,46878,1,0,0:0:0:0:
256,192,46963,1,0,0:0:0:0:
182,192,47047,1,0,0:0:0:0:
109,192,47132,128,0,47302:0:0:0:0:
36,192,47132,1,0,0:0:0:0:
402,192,47302,128,0,47386:0:0:0:0:
329,192,47386,128,0,47471:0:0:0:0:
256,192,47471,128,0,47641:0:0:0:0:
36,192,47471,1,0,0:0:0:0:
182,192,47641,128,0,47810:0:0:0:0:
475,192,47810,128,0,47980:0:0:0:0:
36,192,47810,1,0,0:0:0:0:
329,192,47980,128,0,48064:0:0:0:0:
256,192,48064,128,0,48149:0:0:0:0:
109,192,48149,1,0,0:0:0:0:
36,192,48149,1,0,0:0:0:0:
182,192,48234,1,0,0:0:0:0:
256,192,48319,1,0,0:0:0:0:
329,192,48403,1,0,0:0:0:0:
402,192,48488,128,0,48658:0:0:0:0:
36,192,48488,1,0,0:0:0:0:
109,192,48658,128,0,48742:0:0:0:0:
182,192,48742,128,0,48827:0:0:0:0:
475,192,48827,128,0,48997:0:0:0:0:
36,192,48827,1,0,0:0:0:0:
329,192,48997,128,0,49166:0:0:0:0:
109,192,49166,128,0,49336:0:0:0:0:
36,192,49166,1,0,0:0:0:0:
182,192,49336,128,0,49420:0:0:0:0:
256,192,49420,128,0,49505:0:0:0:0:
109,192,49505,1,0,0:0:0:0:
402,192,49505,1,4,0:0:0:0:
475,192,49505,1,8,0:0:0:0:
36,192,49505,1,0,0:0:0:0:
329,192,49590,1,0,0:0:0:0:
256,192,49675,1,0,0:0:0:0:
182,192,49759,1,0,0:0:0:0:
109,192,49844,128,0,50014:0:0:0:0:
36,192,49844,1,0,0:0:0:0:
402,192,50014,128,0,50098:0:0:0:0:
329,192,50098,128,0,50183:0:0:0:0:
109,192,50183,128,0,50353:0:0:0:0:
36,192,50183,1,0,0:0:0:0:
182,192,50353,128,0,50522:0:0:0:0:
475,192,50522,128,0,50692:0:0:0:0:
36,192,50522,1,0,0:0:0:0:
329,192,50692,128,0,50776:0:0:0:0:
256,192,50776,128,0,50861:0:0:0:0:
109,192,50861,1,0,0:0:0:0:
402,192,50861,1,8,0:0:0:0:
36,192,50861,1,0,0:0:0:0:
475,192,50861,1,0,0:0:0:0:
329,192,50946,1,0,0:0:0:0:
256,192,51030,5,0,0:0:0:0:
182,192,51115,1,0,0:0:0:0:
109,192,51200,128,0,51369:0:0:0:0:
36,192,51200,1,0,0:0:0:0:
182,192,51369,128,0,51454:0:0:0:0:
256,192,51454,128,0,51539:0:0:0:0:
36,192,51539,1,0,0:0:0:0:
475,192,51539,1,0,0:0:0:0:
402,192,51539,128,0,51708:0:0:0:0:
329,192,51539,1,8,0:0:0:0:
256,192,51708,128,0,51878:0:0:0:0:
36,192,51878,1,0,0:0:0:0:
475,192,51878,1,8,0:0:0:0:
109,192,51878,128,0,52047:0:0:0:0:
329,192,51878,1,0,0:0:0:0:
182,192,52047,128,0,52217:0:0:0:0:
36,192,52047,1,0,0:0:0:0:
475,192,52047,1,0,0:0:0:0:
329,192,52047,1,8,0:0:0:0:
475,192,52217,128,0,52556:0:0:0:0:
256,192,52217,1,8,0:0:0:0:
36,192,52217,1,4,0:0:0:0:
402,192,52302,128,0,52556:0:0:0:0:
329,192,52386,128,0,52556:0:0:0:0:
256,192,52471,128,0,52556:0:0:0:0:
109,192,52556,128,0,52725:0:0:0:0:
182,192,52556,1,0,0:0:0:0:
36,192,52556,1,8,0:0:0:0:
182,192,52725,128,0,52895:0:0:0:0:
402,192,52895,128,0,53234:0:0:0:0:
109,192,52895,1,8,0:0:0:0:
256,192,52895,1,0,0:0:0:0:
329,192,52980,128,0,53234:0:0:0:0:
256,192,53064,128,0,53234:0:0:0:0:
182,192,53149,128,0,53234:0:0:0:0:
36,192,53234,128,0,53403:0:0:0:0:
109,192,53234,1,0,0:0:0:0:
475,192,53234,1,8,0:0:0:0:
182,192,53403,128,0,53573:0:0:0:0:
329,192,53573,128,0,53912:0:0:0:0:
475,192,53573,1,0,0:0:0:0:
36,192,53573,1,4,0:0:0:0:
402,192,53573,1,8,0:0:0:0:
256,192,53658,128,0,53912:0:0:0:0:
182,192,53742,128,0,53912:0:0:0:0:
109,192,53827,128,0,53912:0:0:0:0:
475,192,53912,128,0,54081:0:0:0:0:
402,192,53912,1,8,0:0:0:0:
36,192,53912,1,0,0:0:0:0:
109,192,54081,128,0,54251:0:0:0:0:
256,192,54251,128,0,54590:0:0:0:0:
402,192,54251,1,0,0:0:0:0:
36,192,54251,1,8,0:0:0:0:
182,192,54336,128,0,54590:0:0:0:0:
109,192,54420,128,0,54590:0:0:0:0:
36,192,54505,128,0,54590:0:0:0:0:
402,192,54590,128,0,54759:0:0:0:0:
329,192,54590,1,8,0:0:0:0:
475,192,54590,1,0,0:0:0:0:
329,192,54759,128,0,54929:0:0:0:0:
475,192,54929,1,0,0:0:0:0:
256,192,54929,1,8,0:0:0:0:
182,192,55014,1,0,0:0:0:0:
402,192,55014,1,0,0:0:0:0:
36,192,55098,1,8,0:0:0:0:
109,192,55127,1,0,0:0:0:0:
182,192,55155,1,0,0:0:0:0:
475,192,55183,1,0,0:0:0:0:
402,192,55211,1,0,0:0:0:0:
329,192,55240,1,0,0:0:0:0:
36,192,55268,1,0,0:0:0:0:
256,192,55268,1,8,0:0:0:0:
329,192,55353,1,0,0:0:0:0:
109,192,55353,1,0,0:0:0:0:
475,192,55437,1,8,0:0:0:0:
402,192,55466,1,0,0:0:0:0:
329,192,55494,1,0,0:0:0:0:
256,192,55522,1,0,0:0:0:0:
36,192,55550,1,0,0:0:0:0:
109,192,55579,1,0,0:0:0:0:
182,192,55607,1,8,0:0:0:0:
475,192,55607,128,0,56285:0:0:0:0:
402,192,55607,1,0,0:0:0:0:
329,192,55692,1,8,0:0:0:0:
256,192,55692,1,0,0:0:0:0:
109,192,55776,1,8,0:0:0:0:
182,192,55776,1,0,0:0:0:0:
256,192,55861,1,0,0:0:0:0:
329,192,55861,1,8,0:0:0:0:
109,192,55946,1,8,0:0:0:0:
36,192,55946,1,0,0:0:0:0:
329,192,56030,1,0,0:0:0:0:
402,192,56030,1,8,0:0:0:0:
109,192,56115,1,0,0:0:0:0:
182,192,56115,1,8,0:0:0:0:
329,192,56200,1,0,0:0:0:0:
256,192,56200,1,8,0:0:0:0:
109,192,56285,128,0,56454:0:0:0:0:
402,192,56454,128,0,56624:0:0:0:0:
256,192,56624,128,0,57302:0:0:0:0:
109,192,56963,128,0,57302:0:0:0:0:
402,192,56963,128,0,57302:0:0:0:0:
182,192,57641,1,0,0:0:0:0:
329,192,57641,1,0,0:0:0:0:
475,192,57641,1,8,0:0:0:0:
36,192,57641,1,4,0:0:0:0:
109,192,57725,1,0,0:0:0:0:
182,192,57810,1,0,0:0:0:0:
256,192,57895,1,0,0:0:0:0:
329,192,57980,128,0,58319:0:0:0:0:
109,192,57980,1,0,0:0:0:0:
475,192,57980,1,0,0:0:0:0:
36,192,57980,1,2,0:0:0:0:
182,192,58149,1,0,0:0:0:0:
109,192,58234,1,0,0:0:0:0:
256,192,58319,128,0,58488:0:0:0:0:
182,192,58319,1,8,0:0:0:0:
402,192,58319,1,0,0:0:0:0:
36,192,58319,1,0,0:0:0:0:
109,192,58488,128,0,58658:0:0:0:0:
182,192,58658,128,0,58997:0:0:0:0:
329,192,58658,1,0,0:0:0:0:
475,192,58658,1,2,0:0:0:0:
36,192,58658,1,0,0:0:0:0:
256,192,58827,1,0,0:0:0:0:
329,192,58912,1,0,0:0:0:0:
256,192,58997,128,0,59166:0:0:0:0:
109,192,58997,1,0,0:0:0:0:
402,192,58997,1,0,0:0:0:0:
36,192,58997,1,8,0:0:0:0:
475,192,59166,128,0,59336:0:0:0:0:
402,192,59336,128,0,59675:0:0:0:0:
182,192,59336,1,2,0:0:0:0:
329,192,59336,1,0,0:0:0:0:
36,192,59336,1,0,0:0:0:0:
256,192,59505,1,0,0:0:0:0:
329,192,59590,1,0,0:0:0:0:
182,192,59675,128,0,59844:0:0:0:0:
475,192,59675,1,0,0:0:0:0:
109,192,59675,1,0,0:0:0:0:
36,192,59675,1,8,0:0:0:0:
256,192,59844,128,0,60014:0:0:0:0:
36,192,60014,128,0,60353:0:0:0:0:
109,192,60014,1,0,0:0:0:0:
402,192,60014,1,4,0:0:0:0:
475,192,60014,1,0,0:0:0:0:
182,192,60183,1,0,0:0:0:0:
329,192,60268,1,0,0:0:0:0:
256,192,60353,1,8,0:0:0:0:
109,192,60353,1,0,0:0:0:0:
475,192,60353,1,0,0:0:0:0:
402,192,60437,1,0,0:0:0:0:
329,192,60522,1,0,0:0:0:0:
256,192,60607,1,0,0:0:0:0:
109,192,60692,128,0,60861:0:0:0:0:
36,192,60692,1,0,0:0:0:0:
182,192,60692,1,0,0:0:0:0:
475,192,60692,1,2,0:0:0:0:
402,192,60861,1,0,0:0:0:0:
256,192,60946,1,0,0:0:0:0:
329,192,61030,128,0,61200:0:0:0:0:
402,192,61030,1,8,0:0:0:0:
109,192,61030,1,0,0:0:0:0:
475,192,61030,1,0,0:0:0:0:
182,192,61200,128,0,61369:0:0:0:0:
109,192,61369,128,0,61539:0:0:0:0:
36,192,61369,1,0,0:0:0:0:
402,192,61369,1,2,0:0:0:0:
475,192,61369,1,0,0:0:0:0:
329,192,61539,128,0,61708:0:0:0:0:
402,192,61708,1,8,0:0:0:0:
36,192,61708,1,0,0:0:0:0:
475,192,61708,1,0,0:0:0:0:
109,192,61793,1,0,0:0:0:0:
182,192,61878,1,0,0:0:0:0:
256,192,61963,1,0,0:0:0:0:
36,192,62047,1,2,0:0:0:0:
109,192,62047,1,0,0:0:0:0:
475,192,62047,1,0,0:0:0:0:
402,192,62132,1,0,0:0:0:0:
329,192,62217,1,0,0:0:0:0:
256,192,62302,1,0,0:0:0:0:
329,192,62386,128,0,62725:0:0:0:0:
109,192,62386,1,0,0:0:0:0:
36,192,62386,1,8,0:0:0:0:
475,192,62386,1,0,0:0:0:0:
475,192,62556,128,0,62725:0:0:0:0:
182,192,62556,1,0,0:0:0:0:
109,192,62641,1,0,0:0:0:0:
256,192,62725,128,0,63064:0:0:0:0:
182,192,62725,1,0,0:0:0:0:
402,192,62725,1,0,0:0:0:0:
36,192,62725,1,8,0:0:0:0:
182,192,62895,1,8,0:0:0:0:
402,192,62895,1,0,0:0:0:0:
36,192,62895,1,0,0:0:0:0:
182,192,63064,1,8,0:0:0:0:
329,192,63064,1,0,0:0:0:0:
36,192,63064,1,0,0:0:0:0:
109,192,63149,1,0,0:0:0:0:
182,192,63234,1,0,0:0:0:0:
256,192,63319,1,0,0:0:0:0:
329,192,63403,128,0,63573:0:0:0:0:
36,192,63403,1,2,0:0:0:0:
109,192,63403,1,0,0:0:0:0:
475,192,63403,1,0,0:0:0:0:
402,192,63573,1,0,0:0:0:0:
256,192,63658,1,0,0:0:0:0:
36,192,63742,128,0,63912:0:0:0:0:
109,192,63742,1,0,0:0:0:0:
329,192,63742,1,0,0:0:0:0:
182,192,63742,1,8,0:0:0:0:
256,192,63912,128,0,64081:0:0:0:0:
475,192,64081,128,0,64251:0:0:0:0:
109,192,64081,1,0,0:0:0:0:
329,192,64081,1,2,0:0:0:0:
402,192,64081,1,0,0:0:0:0:
402,192,64251,128,0,64420:0:0:0:0:
182,192,64251,1,0,0:0:0:0:
256,192,64336,1,0,0:0:0:0:
182,192,64420,1,0,0:0:0:0:
36,192,64420,128,0,64505:0:0:0:0:
475,192,64420,1,0,0:0:0:0:
329,192,64420,1,8,0:0:0:0:
109,192,64505,128,0,64590:0:0:0:0:
182,192,64590,128,0,64675:0:0:0:0:
256,192,64675,128,0,64759:0:0:0:0:
475,192,64759,128,0,64929:0:0:0:0:
36,192,64759,1,0,0:0:0:0:
402,192,64759,1,0,0:0:0:0:
329,192,64759,1,2,0:0:0:0:
36,192,64929,128,0,65098:0:0:0:0:
256,192,65098,1,0,0:0:0:0:
402,192,65098,1,8,0:0:0:0:
109,192,65098,1,0,0:0:0:0:
182,192,65183,1,0,0:0:0:0:
256,192,65268,128,0,65437:0:0:0:0:
402,192,65437,128,0,65607:0:0:0:0:
36,192,65437,1,4,0:0:0:0:
182,192,65437,1,0,0:0:0:0:
475,192,65437,1,0,0:0:0:0:
329,192,65607,1,0,0:0:0:0:
182,192,65692,1,0,0:0:0:0:
475,192,65776,1,0,0:0:0:0:
109,192,65776,1,0,0:0:0:0:
36,192,65776,1,8,0:0:0:0:
182,192,65861,1,0,0:0:0:0:
256,192,65946,1,0,0:0:0:0:
329,192,66030,1,0,0:0:0:0:
475,192,66115,128,0,66285:0:0:0:0:
182,192,66115,1,2,0:0:0:0:
402,192,66115,1,0,0:0:0:0:
36,192,66115,1,0,0:0:0:0:
256,192,66285,128,0,66454:0:0:0:0:
329,192,66454,128,0,66624:0:0:0:0:
182,192,66454,1,0,0:0:0:0:
402,192,66454,1,8,0:0:0:0:
475,192,66454,1,0,0:0:0:0:
36,192,66624,1,0,0:0:0:0:
109,192,66708,1,0,0:0:0:0:
402,192,66793,1,2,0:0:0:0:
256,192,66793,1,0,0:0:0:0:
182,192,66793,128,0,66963:0:0:0:0:
475,192,66793,1,0,0:0:0:0:
36,192,66963,128,0,67132:0:0:0:0:
402,192,67132,1,8,0:0:0:0:
475,192,67132,1,0,0:0:0:0:
109,192,67132,1,0,0:0:0:0:
329,192,67217,1,0,0:0:0:0:
36,192,67302,1,0,0:0:0:0:
109,192,67302,1,8,0:0:0:0:
402,192,67302,1,0,0:0:0:0:
182,192,67386,1,0,0:0:0:0:
475,192,67471,1,8,0:0:0:0:
109,192,67471,1,0,0:0:0:0:
402,192,67471,1,0,0:0:0:0:
329,192,67556,1,0,0:0:0:0:
36,192,67641,1,8,0:0:0:0:
402,192,67641,1,0,0:0:0:0:
109,192,67641,1,0,0:0:0:0:
182,192,67725,1,0,0:0:0:0:
475,192,67810,1,0,0:0:0:0:
36,192,67810,1,8,0:0:0:0:
182,192,67895,1,8,0:0:0:0:
329,192,67895,1,0,0:0:0:0:
402,192,67980,1,0,0:0:0:0:
109,192,67980,1,8,0:0:0:0:
256,192,68064,128,0,68149:0:0:0:0:
36,192,68149,1,8,0:0:0:0:
475,192,68149,1,0,0:0:0:0:
109,192,68149,128,0,68319:0:0:0:0:
402,192,68149,128,0,68319:0:0:0:0:
182,192,68319,1,0,0:0:0:0:
329,192,68319,1,8,0:0:0:0:
256,192,68319,128,0,68488:0:0:0:0:
182,192,68488,1,4,0:0:0:0:
36,192,68488,1,0,0:0:0:0:
329,192,68488,1,0,0:0:0:0:
475,192,68488,1,8,0:0:0:0:
402,192,68573,1,0,0:0:0:0:
329,192,68658,1,0,0:0:0:0:
256,192,68742,1,0,0:0:0:0:
402,192,68827,1,2,0:0:0:0:
475,192,68827,1,0,0:0:0:0:
182,192,68827,128,0,69166:0:0:0:0:
36,192,68827,1,0,0:0:0:0:
256,192,68997,1,0,0:0:0:0:
329,192,69081,1,0,0:0:0:0:
475,192,69166,1,0,0:0:0:0:
109,192,69166,1,0,0:0:0:0:
256,192,69166,128,0,69336:0:0:0:0:
36,192,69166,1,8,0:0:0:0:
402,192,69336,128,0,69505:0:0:0:0:
109,192,69505,1,2,0:0:0:0:
475,192,69505,1,0,0:0:0:0:
329,192,69505,128,0,69844:0:0:0:0:
36,192,69505,1,0,0:0:0:0:
36,192,69675,1,0,0:0:0:0:
109,192,69759,1,0,0:0:0:0:
182,192,69844,1,0,0:0:0:0:
256,192,69844,128,0,70014:0:0:0:0:
402,192,69844,1,8,0:0:0:0:
475,192,69844,1,0,0:0:0:0:
36,192,70014,128,0,70183:0:0:0:0:
402,192,70183,128,0,70353:0:0:0:0:
182,192,70183,1,0,0:0:0:0:
329,192,70183,1,2,0:0:0:0:
475,192,70183,1,0,0:0:0:0:
182,192,70353,1,0,0:0:0:0:
109,192,70437,1,0,0:0:0:0:
36,192,70522,1,0,0:0:0:0:
329,192,70522,1,8,0:0:0:0:
256,192,70522,128,0,70692:0:0:0:0:
475,192,70522,1,0,0:0:0:0:
182,192,70692,128,0,70861:0:0:0:0:
109,192,70861,1,0,0:0:0:0:
402,192,70861,1,0,0:0:0:0:
475,192,70861,128,0,71200:0:0:0:0:
329,192,70861,1,4,0:0:0:0:
256,192,71030,1,0,0:0:0:0:
182,192,71115,1,0,0:0:0:0:
402,192,71200,1,8,0:0:0:0:
329,192,71200,1,0,0:0:0:0:
36,192,71200,1,0,0:0:0:0:
109,192,71285,1,0,0:0:0:0:
182,192,71369,1,0,0:0:0:0:
256,192,71454,1,0,0:0:0:0:
402,192,71539,128,0,71708:0:0:0:0:
475,192,71539,1,2,0:0:0:0:
329,192,71539,1,0,0:0:0:0:
36,192,71539,1,0,0:0:0:0:
256,192,71708,1,0,0:0:0:0:
182,192,71793,1,0,0:0:0:0:
109,192,71878,1,0,0:0:0:0:
36,192,71878,128,0,72047:0:0:0:0:
402,192,71878,1,8,0:0:0:0:
475,192,71878,1,0,0:0:0:0:
256,192,72047,128,0,72217:0:0:0:0:
329,192,72217,1,2,0:0:0:0:
402,192,72217,128,0,72386:0:0:0:0:
109,192,72217,1,0,0:0:0:0:
475,192,72217,1,0,0:0:0:0:
182,192,72386,128,0,72556:0:0:0:0:
109,192,72556,1,0,0:0:0:0:
475,192,72556,1,0,0:0:0:0:
36,192,72556,1,8,0:0:0:0:
402,192,72641,1,0,0:0:0:0:
329,192,72725,1,0,0:0:0:0:
256,192,72810,1,0,0:0:0:0:
402,192,72895,1,0,0:0:0:0:
36,192,72895,1,0,0:0:0:0:
475,192,72895,1,2,0:0:0:0:
109,192,72980,1,0,0:0:0:0:
182,192,73064,1,0,0:0:0:0:
256,192,73149,1,0,0:0:0:0:
402,192,73234,1,0,0:0:0:0:
475,192,73234,1,0,0:0:0:0:
182,192,73234,1,0,0:0:0:0:
36,192,73234,1,8,0:0:0:0:
36,192,73403,1,8,0:0:0:0:
256,192,73403,1,0,0:0:0:0:
475,192,73403,1,0,0:0:0:0:
329,192,73403,1,0,0:0:0:0:
402,192,73573,1,0,0:0:0:0:
475,192,73573,1,0,0:0:0:0:
36,192,73573,1,8,0:0:0:0:
182,192,73573,1,0,0:0:0:0:
36,192,73742,1,8,0:0:0:0:
329,192,73742,1,0,0:0:0:0:
109,192,73742,1,0,0:0:0:0:
475,192,73742,1,0,0:0:0:0:
109,192,73912,1,4,0:0:0:0:
475,192,73912,1,0,0:0:0:0:
36,192,73912,1,8,0:0:0:0:
256,192,73912,1,0,0:0:0:0:
402,192,73997,1,0,0:0:0:0:
329,192,74081,1,0,0:0:0:0:
256,192,74166,1,0,0:0:0:0:
475,192,74251,1,0,0:0:0:0:
182,192,74251,128,0,74420:0:0:0:0:
402,192,74251,1,2,0:0:0:0:
36,192,74251,1,0,0:0:0:0:
109,192,74420,1,0,0:0:0:0:
256,192,74505,1,0,0:0:0:0:
182,192,74590,1,0,0:0:0:0:
329,192,74590,128,0,74759:0:0:0:0:
402,192,74590,1,0,0:0:0:0:
36,192,74590,1,8,0:0:0:0:
256,192,74759,128,0,74929:0:0:0:0:
402,192,74929,1,0,0:0:0:0:
36,192,74929,128,0,75098:0:0:0:0:
182,192,74929,1,0,0:0:0:0:
109,192,74929,1,2,0:0:0:0:
329,192,75098,1,0,0:0:0:0:
475,192,75098,1,0,0:0:0:0:
182,192,75098,128,0,75268:0:0:0:0:
256,192,75098,1,8,0:0:0:0:
109,192,75268,1,0,0:0:0:0:
256,192,75268,1,0,0:0:0:0:
475,192,75268,128,0,75607:0:0:0:0:
36,192,75268,1,8,0:0:0:0:
402,192,75268,1,4,0:0:0:0:
36,192,75437,1,8,0:0:0:0:
182,192,75437,1,0,0:0:0:0:
109,192,75522,1,8,0:0:0:0:
256,192,75522,1,0,0:0:0:0:
182,192,75607,1,0,0:0:0:0:
329,192,75607,1,8,0:0:0:0:
402,192,75607,128,0,75946:0:0:0:0:
109,192,75776,128,0,75946:0:0:0:0:
256,192,75776,1,0,0:0:0:0:
36,192,75776,1,8,0:0:0:0:
182,192,75946,128,0,76030:0:0:0:0:
475,192,75946,128,0,76030:0:0:0:0:
256,192,75946,1,8,0:0:0:0:
36,192,76030,128,0,76115:0:0:0:0:
329,192,76030,128,0,76115:0:0:0:0:
182,192,76115,128,0,76200:0:0:0:0:
475,192,76115,128,0,76200:0:0:0:0:
256,192,76115,1,8,0:0:0:0:
36,192,76200,128,0,76285:0:0:0:0:
329,192,76200,128,0,76285:0:0:0:0:
109,192,76285,1,8,0:0:0:0:
256,192,76285,1,0,0:0:0:0:
475,192,76285,128,0,76624:0:0:0:0:
182,192,76369,1,8,0:0:0:0:
329,192,76369,1,0,0:0:0:0:
109,192,76454,1,8,0:0:0:0:
402,192,76454,1,0,0:0:0:0:
36,192,76539,1,8,0:0:0:0:
256,192,76539,1,0,0:0:0:0:
329,192,76624,1,0,0:0:0:0:
402,192,76624,1,0,0:0:0:0:
182,192,76624,1,4,0:0:0:0:
109,192,76624,1,8,0:0:0:0:
36,192,76708,1,0,0:0:0:0:
109,192,76793,1,8,0:0:0:0:
256,192,76793,1,0,0:0:0:0:
329,192,76793,1,0,0:0:0:0:
182,192,76878,1,0,0:0:0:0:
475,192,76963,1,0,0:0:0:0:
402,192,76963,1,8,0:0:0:0:
256,192,76963,128,0,77132:0:0:0:0:
36,192,77132,1,0,0:0:0:0:
402,192,77132,1,8,0:0:0:0:
109,192,77132,1,0,0:0:0:0:
329,192,77217,1,0,0:0:0:0:
182,192,77302,1,4,0:0:0:0:
36,192,77302,1,8,0:0:0:0:
402,192,77302,1,0,0:0:0:0:
475,192,77302,1,0,0:0:0:0:
109,192,77386,1,0,0:0:0:0:
182,192,77471,5,0,0:0:0:0:
329,192,77471,1,8,0:0:0:0:
402,192,77471,1,0,0:0:0:0:
475,192,77556,1,0,0:0:0:0:
36,192,77641,1,8,0:0:0:0:
402,192,77641,1,0,0:0:0:0:
256,192,77641,1,0,0:0:0:0:
329,192,77725,1,0,0:0:0:0:
182,192,77810,1,0,0:0:0:0:
402,192,77810,1,8,0:0:0:0:
109,192,77810,1,0,0:0:0:0:
256,192,77895,1,0,0:0:0:0:
109,192,77980,1,0,0:0:0:0:
475,192,77980,1,8,0:0:0:0:
402,192,77980,1,0,0:0:0:0:
36,192,77980,1,4,0:0:0:0:
182,192,78064,1,8,0:0:0:0:
329,192,78064,1,0,0:0:0:0:
109,192,78149,1,8,0:0:0:0:
402,192,78149,1,0,0:0:0:0:
36,192,78234,1,8,0:0:0:0:
475,192,78234,1,0,0:0:0:0:
182,192,78319,1,8,0:0:0:0:
329,192,78319,1,0,0:0:0:0:
475,192,78403,1,0,0:0:0:0:
36,192,78403,1,8,0:0:0:0:
402,192,78488,1,8,0:0:0:0:
329,192,78530,1,8,0:0:0:0:
256,192,78573,1,8,0:0:0:0:
182,192,78615,1,8,0:0:0:0:
475,192,78658,128,4,79336:0:0:0:0:
36,192,78658,128,0,79336:0:0:0:0:
109,192,78658,1,8,0:0:0:0:
402,192,78658,1,0,0:0:0:0:
256,192,78997,128,0,79336:0:0:0:0:
109,192,79336,1,0,0:0:0:0:
402,192,79336,1,8,0:0:0:0:
182,192,79336,1,4,0:0:0:0:
329,192,79336,1,0,0:0:0:0:
256,192,79420,1,0,0:0:0:0:
329,192,79505,1,0,0:0:0:0:
402,192,79590,1,0,0:0:0:0:
475,192,79675,128,0,80014:0:0:0:0:
182,192,79844,1,0,0:0:0:0:
109,192,79929,1,0,0:0:0:0:
36,192,80014,128,0,80183:0:0:0:0:
329,192,80014,128,0,80183:0:0:0:0:
182,192,80183,128,0,80353:0:0:0:0:
475,192,80353,128,0,80522:0:0:0:0:
402,192,80522,1,0,0:0:0:0:
329,192,80607,1,0,0:0:0:0:
256,192,80692,128,0,80861:0:0:0:0:
182,192,80861,1,0,0:0:0:0:
109,192,80946,1,0,0:0:0:0:
36,192,81030,128,0,81200:0:0:0:0:
329,192,81030,128,0,81200:0:0:0:0:
109,192,81200,128,0,81369:0:0:0:0:
256,192,81200,128,0,81369:0:0:0:0:
329,192,81369,1,8,0:0:0:0:
475,192,81369,1,0,0:0:0:0:
402,192,81369,1,0,0:0:0:0:
256,192,81454,1,0,0:0:0:0:
182,192,81539,1,8,0:0:0:0:
36,192,81539,1,0,0:0:0:0:
109,192,81539,1,0,0:0:0:0:
256,192,81624,1,0,0:0:0:0:
329,192,81708,1,0,0:0:0:0:
475,192,81708,1,8,0:0:0:0:
402,192,81708,1,0,0:0:0:0:
256,192,81793,1,0,0:0:0:0:
182,192,81878,1,0,0:0:0:0:
36,192,81878,1,8,0:0:0:0:
109,192,81878,1,0,0:0:0:0:
475,192,82047,1,8,0:0:0:0:
402,192,82076,1,8,0:0:0:0:
329,192,82104,1,8,0:0:0:0:
256,192,82132,1,8,0:0:0:0:
182,192,82160,1,8,0:0:0:0:
109,192,82189,1,8,0:0:0:0:
36,192,82217,1,8,0:0:0:0:
329,192,82386,1,8,0:0:0:0:
475,192,82386,1,0,0:0:0:0:
402,192,82386,1,0,0:0:0:0:
36,192,82556,1,8,0:0:0:0:
109,192,82584,1,8,0:0:0:0:
182,192,82612,1,8,0:0:0:0:
256,192,82641,1,8,0:0:0:0:
329,192,82669,1,8,0:0:0:0:
402,192,82697,1,8,0:0:0:0:
475,192,82725,1,8,0:0:0:0:
182,192,82895,1,8,0:0:0:0:
36,192,82895,1,0,0:0:0:0:
109,192,82895,1,0,0:0:0:0:
475,192,83064,1,8,0:0:0:0:
402,192,83093,1,8,0:0:0:0:
329,192,83121,1,8,0:0:0:0:
256,192,83149,1,8,0:0:0:0:
182,192,83177,1,8,0:0:0:0:
109,192,83206,1,8,0:0:0:0:
36,192,83234,1,8,0:0:0:0:
182,192,83403,1,8,0:0:0:0:
402,192,83403,1,0,0:0:0:0:
256,192,83403,1,0,0:0:0:0:
475,192,83403,1,0,0:0:0:0:
109,192,83658,1,0,0:0:0:0:
182,192,83658,1,8,0:0:0:0:
256,192,83658,1,0,0:0:0:0:
329,192,83658,1,0,0:0:0:0:
402,192,83658,1,0,0:0:0:0:
36,192,83912,1,0,0:0:0:0:
109,192,83912,1,0,0:0:0:0:
329,192,83912,1,8,0:0:0:0:
475,192,83912,1,0,0:0:0:0:
402,192,83912,1,0,0:0:0:0:
182,192,83912,1,0,0:0:0:0:
329,192,84081,1,0,0:0:0:0:
182,192,84081,1,0,0:0:0:0:
182,192,84208,1,0,0:0:0:0:
329,192,84208,1,0,0:0:0:0:
182,192,84336,128,0,84463:0:0:0:15:LR3_GrowlMRFL.wav
329,192,84336,128,0,84759:0:0:0:15:LR3_GrowlMRFL.wav
402,192,84463,128,0,84759:0:0:0:0:
256,192,84759,1,4,0:0:0:0:
475,192,84759,1,0,0:0:0:0:
36,192,84759,1,8,0:0:0:0:
109,192,84759,1,0,0:0:0:0:
182,192,84844,1,0,0:0:0:0:
256,192,84929,1,0,0:0:0:0:
329,192,85014,1,0,0:0:0:0:
402,192,85098,128,0,85268:0:0:0:0:
109,192,85098,1,0,0:0:0:0:
475,192,85098,1,0,0:0:0:0:
36,192,85098,1,2,0:0:0:0:
329,192,85268,1,0,0:0:0:0:
182,192,85353,1,0,0:0:0:0:
109,192,85437,128,0,85607:0:0:0:0:
402,192,85437,1,8,0:0:0:0:
475,192,85437,1,0,0:0:0:0:
36,192,85437,1,0,0:0:0:0:
182,192,85607,128,0,85776:0:0:0:0:
475,192,85776,128,0,85946:0:0:0:0:
256,192,85776,1,0,0:0:0:0:
402,192,85776,1,2,0:0:0:0:
36,192,85776,1,0,0:0:0:0:
329,192,85946,128,0,86115:0:0:0:0:
109,192,85946,1,0,0:0:0:0:
182,192,86030,1,0,0:0:0:0:
402,192,86115,1,0,0:0:0:0:
256,192,86115,1,8,0:0:0:0:
36,192,86115,1,0,0:0:0:0:
109,192,86200,1,0,0:0:0:0:
182,192,86285,1,0,0:0:0:0:
256,192,86369,1,0,0:0:0:0:
475,192,86454,128,0,86624:0:0:0:0:
329,192,86454,1,2,0:0:0:0:
182,192,86454,1,0,0:0:0:0:
36,192,86454,1,0,0:0:0:0:
402,192,86624,128,0,86793:0:0:0:0:
109,192,86624,1,0,0:0:0:0:
36,192,86708,1,8,0:0:0:0:
182,192,86708,1,0,0:0:0:0:
109,192,86793,1,8,0:0:0:0:
256,192,86793,1,0,0:0:0:0:
329,192,86793,128,0,86963:0:0:0:0:
475,192,86793,1,0,0:0:0:0:
36,192,86963,1,0,0:0:0:0:
475,192,86963,1,0,0:0:0:0:
182,192,86963,128,0,87132:0:0:0:0:
256,192,86963,1,8,0:0:0:0:
109,192,87132,1,2,0:0:0:0:
402,192,87132,1,0,0:0:0:0:
475,192,87132,128,0,87302:0:0:0:0:
256,192,87132,1,0,0:0:0:0:
182,192,87302,1,0,0:0:0:0:
329,192,87302,1,8,0:0:0:0:
109,192,87386,1,8,0:0:0:0:
402,192,87386,1,0,0:0:0:0:
36,192,87471,1,0,0:0:0:0:
475,192,87471,1,8,0:0:0:0:
256,192,87471,128,4,87641:0:0:0:0:
109,192,87641,1,8,0:0:0:0:
402,192,87641,1,0,0:0:0:0:
182,192,87725,1,0,0:0:0:0:
329,192,87725,1,8,0:0:0:0:
36,192,87810,1,8,0:0:0:0:
475,192,87810,1,0,0:0:0:0:
182,192,87980,1,8,0:0:0:0:
329,192,87980,1,0,0:0:0:0:
109,192,87980,128,0,88149:0:0:0:0:
475,192,88149,1,0,0:0:0:0:
36,192,88149,1,8,0:0:0:0:
402,192,88149,128,0,88319:0:0:0:0:
182,192,88319,1,0,0:0:0:0:
329,192,88319,1,8,0:0:0:0:
256,192,88319,128,0,88488:0:0:0:0:
109,192,88488,1,8,0:0:0:0:
475,192,88488,1,0,0:0:0:0:
402,192,88488,128,4,88658:0:0:0:0:
36,192,88658,1,8,0:0:0:0:
256,192,88658,1,0,0:0:0:0:
109,192,88742,1,8,0:0:0:0:
329,192,88742,1,0,0:0:0:0:
182,192,88827,1,8,0:0:0:0:
402,192,88827,1,0,0:0:0:0:
36,192,88997,1,8,0:0:0:0:
256,192,88997,1,0,0:0:0:0:
109,192,88997,128,0,89166:0:0:0:0:
329,192,89166,1,8,0:0:0:0:
475,192,89166,1,0,0:0:0:0:
402,192,89166,128,0,89336:0:0:0:0:
36,192,89336,1,0,0:0:0:0:
182,192,89336,1,8,0:0:0:0:
109,192,89336,128,0,89505:0:0:0:0:
256,192,89505,1,0,0:0:0:0:
475,192,89505,1,8,0:0:0:0:
402,192,89590,1,8,0:0:0:0:
182,192,89590,1,0,0:0:0:0:
36,192,89675,1,8,0:0:0:0:
256,192,89675,1,0,0:0:0:0:
329,192,89759,1,0,0:0:0:0:
109,192,89759,1,8,0:0:0:0:
475,192,89844,1,8,0:0:0:0:
402,192,89886,1,8,0:0:0:0:
329,192,89929,1,8,0:0:0:0:
256,192,89971,1,8,0:0:0:0:
36,192,90014,1,8,0:0:0:0:
109,192,90056,1,8,0:0:0:0:
182,192,90098,1,8,0:0:0:0:
256,192,90141,1,8,0:0:0:0:
329,192,90183,1,8,0:0:0:0:
475,192,90183,1,0,0:0:0:0:
402,192,90183,1,0,0:0:0:0:
36,192,90268,1,0,0:0:0:0:
109,192,90353,1,0,0:0:0:0:
182,192,90437,1,0,0:0:0:0:
256,192,90522,128,0,90692:0:0:0:0:
329,192,90522,1,0,0:0:0:0:
475,192,90522,1,2,0:0:0:0:
36,192,90522,1,0,0:0:0:0:
182,192,90692,1,0,0:0:0:0:
109,192,90776,1,0,0:0:0:0:
329,192,90861,128,0,91030:0:0:0:0:
475,192,90861,1,0,0:0:0:0:
402,192,90861,1,8,0:0:0:0:
36,192,90861,1,0,0:0:0:0:
109,192,91030,128,0,91200:0:0:0:0:
402,192,91200,128,0,91369:0:0:0:0:
182,192,91200,1,2,0:0:0:0:
36,192,91200,1,0,0:0:0:0:
475,192,91369,1,0,0:0:0:0:
256,192,91369,128,0,91539:0:0:0:0:
329,192,91369,1,8,0:0:0:0:
182,192,91539,1,0,0:0:0:0:
475,192,91539,1,0,0:0:0:0:
36,192,91539,1,8,0:0:0:0:
329,192,91624,1,0,0:0:0:0:
402,192,91708,1,0,0:0:0:0:
475,192,91793,1,0,0:0:0:0:
402,192,91878,128,0,92047:0:0:0:0:
256,192,91878,1,0,0:0:0:0:
36,192,91878,1,2,0:0:0:0:
109,192,92047,128,0,92217:0:0:0:0:
329,192,92047,1,8,0:0:0:0:
475,192,92047,1,0,0:0:0:0:
256,192,92217,128,0,92386:0:0:0:0:
182,192,92217,1,0,0:0:0:0:
36,192,92217,1,8,0:0:0:0:
475,192,92386,1,0,0:0:0:0:
402,192,92386,1,8,0:0:0:0:
329,192,92386,128,0,92556:0:0:0:0:
475,192,92556,128,0,92725:0:0:0:0:
36,192,92556,1,4,0:0:0:0:
182,192,92556,1,0,0:0:0:0:
109,192,92725,1,8,0:0:0:0:
329,192,92725,1,0,0:0:0:0:
182,192,92810,1,8,0:0:0:0:
402,192,92810,1,0,0:0:0:0:
256,192,92895,1,4,0:0:0:0:
329,192,92895,128,0,93064:0:0:0:0:
36,192,92895,1,8,0:0:0:0:
475,192,92895,1,0,0:0:0:0:
182,192,93064,1,8,0:0:0:0:
402,192,93064,1,0,0:0:0:0:
109,192,93149,1,8,0:0:0:0:
329,192,93149,1,0,0:0:0:0:
36,192,93234,1,8,0:0:0:0:
256,192,93234,1,0,0:0:0:0:
475,192,93234,128,0,93403:0:0:0:0:
256,192,93403,1,0,0:0:0:0:
182,192,93403,128,0,93573:0:0:0:0:
109,192,93403,1,4,0:0:0:0:
402,192,93403,1,8,0:0:0:0:
36,192,93573,1,8,0:0:0:0:
329,192,93573,1,0,0:0:0:0:
109,192,93658,1,0,0:0:0:0:
402,192,93658,1,8,0:0:0:0:
182,192,93742,1,0,0:0:0:0:
475,192,93742,1,8,0:0:0:0:
329,192,93742,128,0,93912:0:0:0:0:
182,192,93912,1,4,0:0:0:0:
36,192,93912,1,8,0:0:0:0:
475,192,93912,1,0,0:0:0:0:
256,192,93997,1,0,0:0:0:0:
182,192,94081,1,8,0:0:0:0:
329,192,94081,1,0,0:0:0:0:
109,192,94166,1,8,0:0:0:0:
402,192,94166,1,0,0:0:0:0:
475,192,94251,1,0,0:0:0:0:
36,192,94251,1,8,0:0:0:0:
256,192,94251,128,0,94336:0:0:0:0:
109,192,94336,1,8,0:0:0:0:
402,192,94336,1,0,0:0:0:0:
182,192,94420,1,8,0:0:0:0:
329,192,94420,1,0,0:0:0:0:
256,192,94420,128,0,94505:0:0:0:0:
109,192,94505,1,8,0:0:0:0:
402,192,94505,1,0,0:0:0:0:
36,192,94590,1,8,0:0:0:0:
475,192,94590,1,0,0:0:0:0:
256,192,94590,128,0,94675:0:0:0:0:
109,192,94675,1,8,0:0:0:0:
402,192,94675,1,0,0:0:0:0:
182,192,94759,1,8,0:0:0:0:
329,192,94759,1,0,0:0:0:0:
256,192,94759,128,0,94844:0:0:0:0:
109,192,94844,1,8,0:0:0:0:
402,192,94844,1,0,0:0:0:0:
36,192,94929,1,8,0:0:0:0:
475,192,94929,1,0,0:0:0:0:
256,192,94929,128,0,95098:0:0:0:0:
182,192,95098,128,8,95183:0:0:0:0:
329,192,95098,128,0,95183:0:0:0:0:
109,192,95183,128,0,95268:0:0:0:0:
402,192,95183,128,8,95268:0:0:0:0:
36,192,95268,128,8,95607:0:0:0:0:
475,192,95268,128,0,95607:0:0:0:0:
182,192,95437,128,0,95607:0:0:0:0:
329,192,95437,128,0,95607:0:0:0:0:
109,192,95607,1,8,0:0:0:0:
256,192,95607,1,4,0:0:0:0:
402,192,95607,1,0,0:0:0:0:
182,192,95692,1,0,0:0:0:0:
256,192,95776,1,0,0:0:0:0:
329,192,95861,1,0,0:0:0:0:
402,192,95946,128,0,96115:0:0:0:0:
36,192,95946,1,2,0:0:0:0:
109,192,95946,1,0,0:0:0:0:
475,192,95946,1,0,0:0:0:0:
182,192,96115,128,0,96285:0:0:0:0:
36,192,96285,128,0,96454:0:0:0:0:
109,192,96285,1,0,0:0:0:0:
329,192,96285,1,8,0:0:0:0:
475,192,96285,1,0,0:0:0:0:
182,192,96454,128,0,96624:0:0:0:0:
256,192,96624,1,0,0:0:0:0:
109,192,96624,1,0,0:0:0:0:
475,192,96624,1,2,0:0:0:0:
329,192,96708,1,0,0:0:0:0:
402,192,96793,1,0,0:0:0:0:
329,192,96878,1,0,0:0:0:0:
109,192,96963,1,0,0:0:0:0:
256,192,96963,1,8,0:0:0:0:
475,192,96963,1,0,0:0:0:0:
36,192,97047,1,0,0:0:0:0:
182,192,97132,1,0,0:0:0:0:
329,192,97217,1,0,0:0:0:0:
402,192,97302,128,0,97471:0:0:0:0:
109,192,97302,1,2,0:0:0:0:
182,192,97302,1,0,0:0:0:0:
475,192,97302,1,0,0:0:0:0:
256,192,97471,128,0,97641:0:0:0:0:
36,192,97471,1,0,0:0:0:0:
329,192,97556,1,0,0:0:0:0:
182,192,97556,1,8,0:0:0:0:
36,192,97641,1,0,0:0:0:0:
402,192,97641,128,0,97810:0:0:0:0:
109,192,97641,1,8,0:0:0:0:
475,192,97641,1,0,0:0:0:0:
329,192,97810,1,0,0:0:0:0:
109,192,97810,128,0,97980:0:0:0:0:
182,192,97810,1,0,0:0:0:0:
256,192,97810,1,8,0:0:0:0:
36,192,97980,1,2,0:0:0:0:
402,192,97980,128,0,98149:0:0:0:0:
256,192,97980,1,0,0:0:0:0:
182,192,98149,1,8,0:0:0:0:
329,192,98149,1,0,0:0:0:0:
109,192,98234,1,0,0:0:0:0:
402,192,98234,1,8,0:0:0:0:
36,192,98319,1,8,0:0:0:0:
475,192,98319,1,0,0:0:0:0:
256,192,98319,1,0,0:0:0:0:
329,192,98319,1,4,0:0:0:0:
109,192,98488,1,8,0:0:0:0:
402,192,98488,1,0,0:0:0:0:
182,192,98573,1,0,0:0:0:0:
329,192,98573,1,8,0:0:0:0:
109,192,98658,1,8,0:0:0:0:
402,192,98658,1,0,0:0:0:0:
36,192,98827,1,0,0:0:0:0:
182,192,98827,1,8,0:0:0:0:
109,192,98827,128,0,98997:0:0:0:0:
329,192,98997,1,8,0:0:0:0:
475,192,98997,1,0,0:0:0:0:
402,192,98997,128,0,99166:0:0:0:0:
36,192,99166,1,8,0:0:0:0:
182,192,99166,1,0,0:0:0:0:
109,192,99166,128,0,99336:0:0:0:0:
329,192,99336,1,0,0:0:0:0:
256,192,99336,1,4,0:0:0:0:
475,192,99336,1,8,0:0:0:0:
402,192,99336,1,0,0:0:0:0:
36,192,99505,1,8,0:0:0:0:
475,192,99505,1,0,0:0:0:0:
182,192,99590,1,8,0:0:0:0:
329,192,99590,1,0,0:0:0:0:
109,192,99675,1,0,0:0:0:0:
402,192,99675,1,0,0:0:0:0:
36,192,99844,1,0,0:0:0:0:
475,192,99844,1,0,0:0:0:0:
182,192,99971,1,0,0:0:0:0:
329,192,99971,1,0,0:0:0:0:
109,192,100077,1,0,0:0:0:0:
402,192,100077,1,0,0:0:0:0:
475,192,100183,1,0,0:0:0:0:
329,192,100268,1,0,0:0:0:0:
182,192,100324,1,0,0:0:0:0:
36,192,100381,1,0,0:0:0:0:
256,192,100409,1,0,0:0:0:0:
475,192,100437,1,0,0:0:0:0:
402,192,100476,1,0,0:0:0:0:
329,192,100516,1,0,0:0:0:0:
256,192,100556,1,0,0:0:0:0:
182,192,100596,1,0,0:0:0:0:
109,192,100636,1,0,0:0:0:0:
402,192,100676,1,0,0:0:0:0:
475,192,100676,1,8,1:0:0:0:
329,192,100676,1,8,1:0:0:0:
36,192,100676,1,0,0:0:0:0:
475,192,101031,1,0,0:0:0:0:
256,192,101031,1,0,0:0:0:0:
402,192,101031,1,4,0:0:0:0:
36,192,101031,1,8,0:0:0:0:
109,192,101115,1,0,0:0:0:0:
182,192,101200,1,0,0:0:0:0:
256,192,101285,1,0,0:0:0:0:
475,192,101369,128,0,101708:0:0:0:0:
109,192,101369,1,0,0:0:0:0:
402,192,101369,1,0,0:0:0:0:
36,192,101369,1,2,0:0:0:0:
329,192,101539,1,0,0:0:0:0:
256,192,101624,1,0,0:0:0:0:
109,192,101708,128,0,101878:0:0:0:0:
182,192,101708,1,8,0:0:0:0:
402,192,101708,1,0,0:0:0:0:
36,192,101708,1,0,0:0:0:0:
329,192,101878,128,0,102047:0:0:0:0:
182,192,102047,128,0,102386:0:0:0:0:
256,192,102047,1,0,0:0:0:0:
475,192,102047,1,2,0:0:0:0:
36,192,102047,1,0,0:0:0:0:
109,192,102217,1,8,0:0:0:0:
402,192,102217,1,8,0:0:0:0:
329,192,102302,1,0,0:0:0:0:
36,192,102386,1,8,0:0:0:0:
475,192,102386,1,0,0:0:0:0:
256,192,102386,1,0,0:0:0:0:
402,192,102471,1,0,0:0:0:0:
109,192,102471,1,8,0:0:0:0:
329,192,102556,1,0,0:0:0:0:
182,192,102556,1,8,0:0:0:0:
402,192,102641,1,0,0:0:0:0:
109,192,102641,1,8,0:0:0:0:
475,192,102725,1,0,0:0:0:0:
36,192,102725,1,8,0:0:0:0:
256,192,102725,1,0,0:0:0:0:
182,192,102895,1,8,0:0:0:0:
329,192,102895,1,0,0:0:0:0:
109,192,102980,1,8,0:0:0:0:
402,192,102980,1,0,0:0:0:0:
36,192,103064,1,8,0:0:0:0:
475,192,103064,1,0,0:0:0:0:
256,192,103064,1,0,0:0:0:0:
182,192,103234,1,8,0:0:0:0:
329,192,103234,1,0,0:0:0:0:
36,192,103234,128,0,103403:0:0:0:0:
109,192,103403,1,4,0:0:0:0:
402,192,103403,1,0,0:0:0:0:
256,192,103403,128,0,103573:0:0:0:0:
182,192,103573,1,0,0:0:0:0:
329,192,103573,1,8,0:0:0:0:
475,192,103573,128,0,103742:0:0:0:0:
109,192,103742,1,4,0:0:0:0:
402,192,103742,1,8,0:0:0:0:
36,192,103742,1,0,0:0:0:0:
329,192,103742,1,0,0:0:0:0:
256,192,103827,1,0,0:0:0:0:
182,192,103912,1,0,0:0:0:0:
402,192,103912,1,8,0:0:0:0:
109,192,103912,1,0,0:0:0:0:
475,192,103912,1,0,0:0:0:0:
256,192,103997,1,0,0:0:0:0:
329,192,104081,1,0,0:0:0:0:
109,192,104081,1,0,0:0:0:0:
36,192,104081,1,8,0:0:0:0:
402,192,104081,1,0,0:0:0:0:
402,192,104251,1,8,0:0:0:0:
182,192,104251,1,0,0:0:0:0:
109,192,104251,1,0,0:0:0:0:
475,192,104251,1,0,0:0:0:0:
256,192,104336,1,0,0:0:0:0:
36,192,104420,1,0,0:0:0:0:
329,192,104420,1,4,0:0:0:0:
402,192,104420,1,8,0:0:0:0:
109,192,104420,1,0,0:0:0:0:
256,192,104505,1,0,0:0:0:0:
402,192,104590,1,0,0:0:0:0:
182,192,104590,1,0,0:0:0:0:
109,192,104590,1,0,0:0:0:0:
475,192,104590,1,8,0:0:0:0:
256,192,104675,1,0,0:0:0:0:
329,192,104759,1,0,0:0:0:0:
109,192,104759,1,0,0:0:0:0:
36,192,104759,1,8,0:0:0:0:
402,192,104759,1,0,0:0:0:0:
256,192,104844,1,0,0:0:0:0:
109,192,104929,1,0,0:0:0:0:
182,192,104929,1,0,0:0:0:0:
36,192,104929,1,0,0:0:0:0:
402,192,104929,1,8,0:0:0:0:
256,192,105014,1,0,0:0:0:0:
329,192,105014,1,0,0:0:0:0:
182,192,105098,1,0,0:0:0:0:
402,192,105098,1,0,0:0:0:0:
36,192,105098,1,4,0:0:0:0:
475,192,105098,1,8,0:0:0:0:
109,192,105183,1,8,0:0:0:0:
329,192,105183,1,0,0:0:0:0:
182,192,105268,1,8,0:0:0:0:
402,192,105268,1,0,0:0:0:0:
256,192,105353,1,0,0:0:0:0:
475,192,105353,1,8,0:0:0:0:
329,192,105437,1,0,0:0:0:0:
182,192,105437,1,4,0:0:0:0:
36,192,105437,1,8,0:0:0:0:
402,192,105522,1,0,0:0:0:0:
109,192,105522,1,8,0:0:0:0:
475,192,105607,1,8,0:0:0:0:
182,192,105607,1,0,0:0:0:0:
402,192,105692,1,8,0:0:0:0:
109,192,105692,1,8,0:0:0:0:
475,192,105776,1,4,0:0:0:0:
36,192,105776,1,8,0:0:0:0:
256,192,105776,1,0,0:0:0:0:
109,192,105861,1,8,0:0:0:0:
402,192,105861,1,0,0:0:0:0:
182,192,105946,1,0,0:0:0:0:
329,192,105946,1,8,0:0:0:0:
402,192,106031,1,0,0:0:0:0:
109,192,106031,1,8,0:0:0:0:
475,192,106115,1,4,0:0:0:0:
36,192,106115,1,8,0:0:0:0:
256,192,106115,1,0,0:0:0:0:
109,192,106200,1,8,0:0:0:0:
402,192,106200,1,0,0:0:0:0:
182,192,106285,1,0,0:0:0:0:
329,192,106285,1,8,0:0:0:0:
109,192,106369,1,8,0:0:0:0:
402,192,106369,1,0,0:0:0:0:
475,192,106454,1,8,0:0:0:0:
182,192,106454,1,4,0:0:0:0:
329,192,106454,1,0,0:0:0:0:
36,192,106454,128,0,107132:0:0:0:0:
256,192,106454,128,0,107132:0:0:0:0:
109,192,106539,1,0,0:0:0:0:
402,192,106624,1,0,0:0:0:0:
182,192,106708,1,0,0:0:0:0:
475,192,106793,128,0,106963:0:0:0:0:
402,192,106963,1,0,0:0:0:0:
329,192,107047,1,0,0:0:0:0:
182,192,107132,1,0,0:0:0:0:
475,192,107132,1,0,0:0:0:0:
109,192,107132,128,4,107810:0:0:0:0:
402,192,107132,128,8,107810:0:0:0:0:
329,192,107217,1,0,0:0:0:0:
475,192,107302,1,0,0:0:0:0:
36,192,107386,1,0,0:0:0:0:
182,192,107471,1,0,0:0:0:0:
256,192,107556,1,0,0:0:0:0:
329,192,107641,1,0,0:0:0:0:
475,192,107725,1,0,0:0:0:0:
256,192,107810,5,8,0:0:0:0:
182,192,107810,1,4,0:0:0:0:
329,192,107810,128,0,108149:0:0:0:0:
36,192,107810,128,0,107980:0:0:0:0:
109,192,108149,1,0,0:0:0:0:
256,192,108149,1,0,0:0:0:0:
182,192,108149,128,8,108488:0:0:0:0:
475,192,108149,128,4,108319:0:0:0:0:
402,192,108488,1,0,0:0:0:0:
329,192,108488,1,0,0:0:0:0:
109,192,108488,1,8,0:0:0:0:
36,192,108488,128,4,108827:0:0:0:0:
256,192,108488,128,0,108827:0:0:0:0:
475,192,108827,5,8,0:0:0:0:
402,192,108855,1,8,0:0:0:0:
329,192,108884,1,8,0:0:0:0:
256,192,108912,1,8,0:0:0:0:
182,192,108940,1,8,0:0:0:0:
109,192,108968,1,8,0:0:0:0:
36,192,108997,1,8,0:0:0:0:
475,192,109025,1,0,0:0:0:0:
402,192,109053,1,0,0:0:0:0:
329,192,109081,1,0,0:0:0:0:
256,192,109110,1,0,0:0:0:0:
182,192,109138,1,0,0:0:0:0:
475,192,109166,1,8,0:0:0:0:
36,192,109166,1,0,0:0:0:0:
109,192,109166,1,0,0:0:0:0:
402,192,109166,1,4,0:0:0:0:
329,192,109251,1,0,0:0:0:0:
182,192,109336,1,0,0:0:0:0:
36,192,109336,1,0,0:0:0:0:
256,192,109420,1,0,0:0:0:0:
109,192,109505,1,0,0:0:0:0:
402,192,109505,1,0,0:0:0:0:
475,192,109505,1,2,0:0:0:0:
256,192,109590,1,0,0:0:0:0:
182,192,109675,1,0,0:0:0:0:
329,192,109675,1,0,0:0:0:0:
109,192,109759,1,0,0:0:0:0:
256,192,109844,1,0,0:0:0:0:
402,192,109844,1,8,0:0:0:0:
36,192,109844,1,0,0:0:0:0:
182,192,109929,1,0,0:0:0:0:
256,192,110014,1,0,0:0:0:0:
475,192,110014,1,0,0:0:0:0:
329,192,110098,1,0,0:0:0:0:
109,192,110183,1,2,0:0:0:0:
182,192,110183,1,0,0:0:0:0:
402,192,110183,1,0,0:0:0:0:
475,192,110268,1,0,0:0:0:0:
36,192,110353,1,0,0:0:0:0:
182,192,110353,1,0,0:0:0:0:
256,192,110437,1,0,0:0:0:0:
109,192,110522,1,0,0:0:0:0:
402,192,110522,1,0,0:0:0:0:
329,192,110522,1,8,0:0:0:0:
182,192,110522,1,4,0:0:0:0:
36,192,110607,1,0,0:0:0:0:
109,192,110692,1,0,0:0:0:0:
475,192,110692,1,0,0:0:0:0:
182,192,110776,1,0,0:0:0:0:
36,192,110861,1,0,0:0:0:0:
475,192,110861,1,0,0:0:0:0:
256,192,110861,1,2,0:0:0:0:
402,192,110946,1,0,0:0:0:0:
329,192,111031,1,0,0:0:0:0:
109,192,111031,1,0,0:0:0:0:
182,192,111115,1,0,0:0:0:0:
109,192,111200,1,0,0:0:0:0:
402,192,111200,1,8,0:0:0:0:
256,192,111200,1,0,0:0:0:0:
36,192,111285,1,0,0:0:0:0:
182,192,111369,1,0,0:0:0:0:
475,192,111369,1,0,0:0:0:0:
329,192,111454,1,0,0:0:0:0:
109,192,111539,1,0,0:0:0:0:
402,192,111539,1,0,0:0:0:0:
256,192,111539,1,2,0:0:0:0:
36,192,111624,1,0,0:0:0:0:
109,192,111708,1,0,0:0:0:0:
329,192,111708,1,0,0:0:0:0:
182,192,111793,1,0,0:0:0:0:
402,192,111793,1,0,0:0:0:0:
329,192,111878,1,8,0:0:0:0:
475,192,111878,1,0,0:0:0:0:
36,192,111878,1,0,0:0:0:0:
109,192,111878,1,4,0:0:0:0:
256,192,111878,128,0,113234:0:0:0:0:
182,192,111963,1,0,0:0:0:0:
475,192,112047,1,0,0:0:0:0:
402,192,112047,1,8,0:0:0:0:
109,192,112047,1,0,0:0:0:0:
329,192,112132,1,0,0:0:0:0:
36,192,112217,1,8,0:0:0:0:
402,192,112217,1,0,0:0:0:0:
109,192,112217,1,0,0:0:0:0:
182,192,112302,1,0,0:0:0:0:
475,192,112386,1,0,0:0:0:0:
402,192,112386,1,8,0:0:0:0:
109,192,112386,1,0,0:0:0:0:
329,192,112471,1,0,0:0:0:0:
475,192,112556,1,4,0:0:0:0:
36,192,112556,1,8,0:0:0:0:
402,192,112556,1,0,0:0:0:0:
109,192,112556,1,0,0:0:0:0:
182,192,112641,1,0,0:0:0:0:
329,192,112641,1,8,0:0:0:0:
475,192,112725,1,0,0:0:0:0:
36,192,112725,1,8,0:0:0:0:
402,192,112810,1,8,0:0:0:0:
109,192,112810,1,0,0:0:0:0:
36,192,112895,1,8,0:0:0:0:
475,192,112895,1,0,0:0:0:0:
182,192,112980,1,0,0:0:0:0:
329,192,112980,1,8,0:0:0:0:
36,192,113064,1,8,0:0:0:0:
475,192,113064,1,0,0:0:0:0:
109,192,113149,1,0,0:0:0:0:
402,192,113149,1,8,0:0:0:0:
329,192,113234,1,0,0:0:0:0:
475,192,113234,1,0,0:0:0:0:
182,192,113234,1,8,0:0:0:0:
36,192,113234,1,0,0:0:0:0:
36,192,113573,1,8,0:0:0:0:
475,192,113573,1,0,0:0:0:0:
182,192,113573,1,0,0:0:0:0:
256,192,113573,1,0,0:0:0:0:
329,192,113573,1,0,0:0:0:0:
256,192,113912,1,0,0:0:0:0:
329,192,113912,1,0,0:0:0:0:
182,192,113912,1,0,0:0:0:0:
475,192,113912,1,0,0:0:0:0:
36,192,113912,1,8,0:0:0:0:
109,192,114251,128,4,115268:0:0:0:0:
256,192,114251,128,0,115946:0:0:0:0:
402,192,114251,128,8,115607:0:0:0:0:
182,192,114251,128,0,114590:0:0:0:0:
329,192,114251,128,0,114929:0:0:0:0:
