osu file format v14

[General]
AudioFilename: [SDVX II ] FIRE FIRE -DARK BLAZE REMIX- [NOFX].mp3
AudioLeadIn: 0
PreviewTime: 57471
Countdown: 0
SampleSet: Soft
StackLeniency: 0.7
Mode: 3
LetterboxInBreaks: 0
SpecialStyle: 0
WidescreenStoryboard: 1

[Editor]
Bookmarks: 35875,57570,68417,84688,100959,109095
DistanceSpacing: 1.2
BeatDivisor: 4
GridSize: 4
TimelineZoom: 2.4

[Metadata]
Title:FIRE FIRE -DARK BLAZE REMIX-
TitleUnicode:FIRE FIRE -DARK BLAZE REMIX-
Artist:Yooh
ArtistUnicode:Yooh
Creator:Shinzo-
Version:ADVANCED
Source:SOUND VOLTEX II -infinite infection-
Tags:StripE kors k楽曲REMIXコンテスト Song REMIX Contest ArcherLove
BeatmapID:657048
BeatmapSetID:242368

[Difficulty]
HPDrainRate:7.5
CircleSize:7
OverallDifficulty:7.5
ApproachRate:5
SliderMultiplier:1.4
SliderTickRate:1

[Events]
//Background and Video events
0,0,"BG yo.png",0,0
//Break Periods
//Storyboard Layer 0 (Background)
//Storyboard Layer 1 (Fail)
//Storyboard Layer 2 (Pass)
//Storyboard Layer 3 (Foreground)
//Storyboard Sound Samples

[TimingPoints]
692,338.983050847458,4,2,1,20,1,0
25098,-100,4,2,1,5,0,0
27810,-100,4,2,1,20,0,0
30522,-100,4,2,1,5,0,0
33234,-100,4,2,1,20,0,0
57641,-100,4,2,1,20,0,1
67810,-100,4,2,1,20,0,0
68488,-100,4,2,1,20,0,1
77980,-100,4,2,1,20,0,0
100437,319.148936170213,4,2,1,20,1,0
100437,-106.382978723404,4,2,1,20,0,0
100676,355.029585798817,4,2,1,20,1,0
100676,-95.2380952380952,4,2,1,20,0,0
101031,338.983050847458,4,2,1,20,1,0

[HitObjects]
36,192,692,5,4,0:0:0:0:
329,192,692,1,8,0:0:0:0:
182,192,861,128,8,1030:0:0:0:0:
36,192,1030,1,4,0:0:0:0:
475,192,1030,1,8,0:0:0:0:
329,192,1200,128,8,1369:0:0:0:0:
109,192,1369,1,4,0:0:0:0:
475,192,1369,1,8,0:0:0:0:
402,192,1454,1,8,0:0:0:0:
329,192,1539,1,8,0:0:0:0:
256,192,1624,1,8,0:0:0:0:
109,192,1708,1,8,0:0:0:0:
182,192,1793,1,8,0:0:0:0:
402,192,1878,1,8,0:0:0:0:
329,192,1963,1,8,0:0:0:0:
109,192,2047,128,0,3403:0:0:0:0:
402,192,2725,128,0,3403:0:0:0:0:
36,192,3403,1,8,0:0:0:0:
182,192,3403,1,4,0:0:0:0:
475,192,3403,1,0,0:0:0:0:
256,192,3573,1,0,0:0:0:0:
329,192,3742,1,2,0:0:0:0:
475,192,3742,1,0,0:0:0:0:
36,192,3912,1,0,0:0:0:0:
109,192,4081,1,8,0:0:0:0:
329,192,4081,1,0,0:0:0:0:
402,192,4251,1,0,0:0:0:0:
36,192,4420,1,2,0:0:0:0:
256,192,4420,1,0,0:0:0:0:
109,192,4590,1,0,0:0:0:0:
182,192,4759,1,8,0:0:0:0:
402,192,4759,1,0,0:0:0:0:
256,192,4929,1,0,0:0:0:0:
109,192,5098,1,2,0:0:0:0:
329,192,5098,1,0,0:0:0:0:
475,192,5268,1,0,0:0:0:0:
182,192,5437,1,8,0:0:0:0:
402,192,5437,1,0,0:0:0:0:
329,192,5607,1,0,0:0:0:0:
475,192,5776,128,0,6115:0:0:0:0:
36,192,5776,1,4,0:0:0:0:
109,192,6115,1,8,0:0:0:0:
329,192,6115,1,0,0:0:0:0:
256,192,6285,1,0,0:0:0:0:
182,192,6454,1,2,0:0:0:0:
402,192,6454,1,0,0:0:0:0:
36,192,6624,1,0,0:0:0:0:
109,192,6793,1,8,0:0:0:0:
329,192,6793,1,0,0:0:0:0:
402,192,6963,1,0,0:0:0:0:
36,192,7132,1,2,0:0:0:0:
256,192,7132,1,0,0:0:0:0:
109,192,7302,1,0,0:0:0:0:
182,192,7471,1,8,0:0:0:0:
402,192,7471,1,0,0:0:0:0:
329,192,7641,1,0,0:0:0:0:
36,192,7810,1,2,0:0:0:0:
475,192,7810,1,0,0:0:0:0:
329,192,7980,1,0,0:0:0:0:
256,192,8064,1,0,0:0:0:0:
182,192,8149,1,0,0:0:0:0:
36,192,8149,1,8,0:0:0:0:
329,192,8319,1,0,0:0:0:0:
109,192,8488,1,8,0:0:0:0:
475,192,8488,128,0,8827:0:0:0:0:
109,192,8658,1,8,0:0:0:0:
329,192,8658,1,0,0:0:0:0:
36,192,8827,1,8,0:0:0:0:
256,192,8827,1,0,0:0:0:0:
109,192,8997,1,0,0:0:0:0:
182,192,9166,1,2,0:0:0:0:
402,192,9166,1,0,0:0:0:0:
256,192,9336,1,0,0:0:0:0:
109,192,9505,1,8,0:0:0:0:
329,192,9505,1,0,0:0:0:0:
36,192,9675,1,0,0:0:0:0:
256,192,9844,1,2,0:0:0:0:
475,192,9844,1,0,0:0:0:0:
109,192,10014,128,0,10183:0:0:0:0:
329,192,10183,1,8,0:0:0:0:
475,192,10183,1,0,0:0:0:0:
256,192,10353,1,0,0:0:0:0:
109,192,10522,1,2,0:0:0:0:
329,192,10522,1,0,0:0:0:0:
256,192,10692,1,0,0:0:0:0:
475,192,10861,1,0,0:0:0:0:
109,192,10861,1,8,0:0:0:0:
329,192,11030,1,0,0:0:0:0:
256,192,11115,1,0,0:0:0:0:
475,192,11200,1,4,0:0:0:0:
182,192,11200,128,0,11539:0:0:0:0:
109,192,11539,1,8,0:0:0:0:
402,192,11539,1,0,0:0:0:0:
182,192,11708,1,0,0:0:0:0:
256,192,11878,1,2,0:0:0:0:
475,192,11878,1,0,0:0:0:0:
109,192,12047,1,0,0:0:0:0:
36,192,12217,1,8,0:0:0:0:
329,192,12217,1,0,0:0:0:0:
256,192,12386,1,0,0:0:0:0:
109,192,12556,1,2,0:0:0:0:
402,192,12556,1,0,0:0:0:0:
475,192,12725,1,0,0:0:0:0:
256,192,12895,1,8,0:0:0:0:
256,192,13064,1,8,0:0:0:0:
402,192,13234,1,8,0:0:0:0:
329,192,13319,1,8,0:0:0:0:
256,192,13488,1,8,0:0:0:0:
109,192,13658,1,8,0:0:0:0:
329,192,13742,1,8,0:0:0:0:
182,192,13827,1,8,0:0:0:0:
402,192,13912,1,8,0:0:0:0:
109,192,13997,1,8,0:0:0:0:
329,192,14081,1,8,0:0:0:0:
182,192,14166,1,8,0:0:0:0:
36,192,14251,1,8,0:0:0:0:
256,192,14251,1,0,0:0:0:0:
402,192,14251,1,4,0:0:0:0:
329,192,14420,1,0,0:0:0:0:
256,192,14590,1,0,0:0:0:0:
475,192,14590,1,2,0:0:0:0:
182,192,14759,1,0,0:0:0:0:
109,192,14929,1,0,0:0:0:0:
329,192,14929,1,8,0:0:0:0:
256,192,15098,1,0,0:0:0:0:
182,192,15268,1,0,0:0:0:0:
402,192,15268,1,2,0:0:0:0:
109,192,15437,1,0,0:0:0:0:
36,192,15607,1,8,0:0:0:0:
329,192,15607,1,0,0:0:0:0:
256,192,15776,1,0,0:0:0:0:
182,192,15946,1,0,0:0:0:0:
475,192,15946,1,2,0:0:0:0:
402,192,16115,1,0,0:0:0:0:
109,192,16285,1,8,0:0:0:0:
329,192,16285,1,0,0:0:0:0:
182,192,16454,1,0,0:0:0:0:
475,192,16624,1,4,0:0:0:0:
36,192,16624,128,0,16963:0:0:0:0:
109,192,16963,1,0,0:0:0:0:
329,192,16963,1,8,0:0:0:0:
256,192,17132,1,0,0:0:0:0:
182,192,17302,1,2,0:0:0:0:
402,192,17302,1,0,0:0:0:0:
109,192,17471,1,0,0:0:0:0:
36,192,17641,1,8,0:0:0:0:
475,192,17641,1,0,0:0:0:0:
182,192,17810,1,0,0:0:0:0:
109,192,17980,1,2,0:0:0:0:
329,192,17980,1,0,0:0:0:0:
402,192,18149,1,0,0:0:0:0:
182,192,18319,1,8,0:0:0:0:
475,192,18319,1,0,0:0:0:0:
109,192,18488,1,0,0:0:0:0:
36,192,18658,1,2,0:0:0:0:
329,192,18658,1,0,0:0:0:0:
475,192,18827,1,0,0:0:0:0:
402,192,18912,1,0,0:0:0:0:
329,192,18997,1,8,0:0:0:0:
36,192,18997,1,0,0:0:0:0:
182,192,19166,1,0,0:0:0:0:
109,192,19336,1,8,0:0:0:0:
402,192,19336,1,0,0:0:0:0:
256,192,19505,1,8,0:0:0:0:
402,192,19505,1,0,0:0:0:0:
36,192,19675,1,8,0:0:0:0:
182,192,19675,1,0,0:0:0:0:
36,192,19844,1,8,0:0:0:0:
182,192,19844,1,0,0:0:0:0:
256,192,20098,1,0,0:0:0:0:
475,192,20098,1,8,0:0:0:0:
109,192,20353,1,0,0:0:0:0:
329,192,20353,1,8,0:0:0:0:
182,192,20607,1,0,0:0:0:0:
402,192,20607,1,8,0:0:0:0:
182,192,20861,1,0,0:0:0:0:
402,192,20861,1,8,0:0:0:0:
109,192,20946,1,8,0:0:0:0:
36,192,21030,1,0,0:0:0:0:
256,192,21030,1,8,0:0:0:0:
36,192,21200,1,0,0:0:0:0:
256,192,21200,1,8,0:0:0:0:
182,192,21454,1,8,0:0:0:0:
329,192,21454,1,0,0:0:0:0:
109,192,21708,1,8,0:0:0:0:
402,192,21708,1,0,0:0:0:0:
36,192,21963,1,8,0:0:0:0:
475,192,21963,1,0,0:0:0:0:
109,192,22217,1,8,0:0:0:0:
182,192,22302,1,8,0:0:0:0:
475,192,22386,128,4,23064:0:0:0:0:
256,192,22386,1,8,0:0:0:0:
329,192,22725,128,4,23064:0:0:0:0:
36,192,23064,128,4,23742:0:0:0:0:
182,192,23403,128,4,23742:0:0:0:0:
256,192,23742,128,0,24081:0:0:0:0:
109,192,24081,128,0,24759:0:0:0:0:
402,192,24420,128,0,24759:0:0:0:0:
182,192,24759,1,0,0:0:0:0:
329,192,24844,1,0,0:0:0:0:
182,192,24929,1,0,0:0:0:0:
329,192,25014,1,0,0:0:0:0:
36,192,25098,1,8,0:0:0:0:
475,192,25098,1,0,0:0:0:0:
256,192,25098,1,4,0:0:0:0:
109,192,25183,1,0,0:0:0:0:
182,192,25268,1,0,0:0:0:0:
256,192,25353,1,0,0:0:0:0:
329,192,25437,1,0,0:0:0:0:
109,192,25607,1,0,0:0:0:0:
256,192,25776,1,0,0:0:0:0:
36,192,25946,1,0,0:0:0:0:
475,192,26115,1,0,0:0:0:0:
109,192,26285,1,0,0:0:0:0:
182,192,26369,1,0,0:0:0:0:
256,192,26454,1,0,0:0:0:0:
475,192,26624,1,0,0:0:0:0:
109,192,26793,1,0,0:0:0:0:
402,192,26963,1,0,0:0:0:0:
329,192,27047,1,0,0:0:0:0:
256,192,27132,1,0,0:0:0:0:
475,192,27302,1,0,0:0:0:0:
256,192,27471,1,0,0:0:0:0:
36,192,27641,1,0,0:0:0:0:
475,192,27810,1,0,0:0:0:0:
329,192,27895,1,0,0:0:0:0:
36,192,27980,1,0,0:0:0:0:
182,192,28064,1,0,0:0:0:0:
329,192,28149,128,0,28319:0:0:0:0:
402,192,28319,1,0,0:0:0:0:
256,192,28403,1,0,0:0:0:0:
109,192,28488,128,0,28827:0:0:0:0:
402,192,28827,128,0,29166:0:0:0:0:
329,192,29166,1,0,0:0:0:0:
256,192,29251,1,0,0:0:0:0:
182,192,29336,1,0,0:0:0:0:
109,192,29420,1,0,0:0:0:0:
36,192,29505,1,0,0:0:0:0:
475,192,29505,1,0,0:0:0:0:
402,192,29675,1,0,0:0:0:0:
182,192,29844,128,0,30014:0:0:0:0:
329,192,30014,128,0,30183:0:0:0:0:
475,192,30183,128,0,30353:0:0:0:0:
256,192,30353,128,0,30522:0:0:0:0:
36,192,30522,1,0,0:0:0:0:
109,192,30607,1,0,0:0:0:0:
182,192,30692,1,0,0:0:0:0:
256,192,30776,1,0,0:0:0:0:
329,192,30861,1,0,0:0:0:0:
109,192,31030,1,0,0:0:0:0:
182,192,31115,1,0,0:0:0:0:
256,192,31200,1,0,0:0:0:0:
36,192,31369,1,0,0:0:0:0:
475,192,31539,1,0,0:0:0:0:
109,192,31708,1,0,0:0:0:0:
256,192,31793,1,0,0:0:0:0:
402,192,31878,128,0,32047:0:0:0:0:
329,192,32047,1,0,0:0:0:0:
182,192,32132,1,0,0:0:0:0:
329,192,32217,128,0,32386:0:0:0:0:
109,192,32386,128,0,32556:0:0:0:0:
402,192,32556,128,0,32725:0:0:0:0:
475,192,32725,128,0,32895:0:0:0:0:
329,192,32895,128,0,33064:0:0:0:0:
182,192,33064,128,0,33234:0:0:0:0:
36,192,33234,1,0,0:0:0:0:
109,192,33319,1,0,0:0:0:0:
182,192,33403,1,0,0:0:0:0:
475,192,33488,1,0,0:0:0:0:
402,192,33573,1,0,0:0:0:0:
329,192,33658,1,0,0:0:0:0:
256,192,33742,1,0,0:0:0:0:
182,192,33827,1,0,0:0:0:0:
109,192,33912,128,0,34251:0:0:0:0:
402,192,34081,128,0,34251:0:0:0:0:
182,192,34251,1,0,0:0:0:0:
329,192,34336,1,0,0:0:0:0:
182,192,34420,1,0,0:0:0:0:
329,192,34505,1,0,0:0:0:0:
36,192,34590,1,0,0:0:0:0:
109,192,34675,1,0,0:0:0:0:
182,192,34759,1,0,0:0:0:0:
256,192,34844,1,0,0:0:0:0:
329,192,34929,128,0,35268:0:0:0:0:
36,192,35098,1,8,0:0:0:0:
109,192,35098,1,0,0:0:0:0:
475,192,35268,128,0,35946:0:0:0:0:
329,192,35437,1,8,0:0:0:0:
256,192,35522,1,8,0:0:0:0:
182,192,35607,1,8,0:0:0:0:
402,192,35692,1,8,0:0:0:0:
329,192,35776,1,8,0:0:0:0:
256,192,35861,1,8,0:0:0:0:
182,192,35946,1,4,0:0:0:0:
109,192,35946,1,0,0:0:0:0:
36,192,35946,1,8,0:0:0:0:
329,192,36030,1,0,0:0:0:0:
256,192,36115,1,0,0:0:0:0:
182,192,36200,1,0,0:0:0:0:
109,192,36285,1,0,0:0:0:0:
182,192,36454,1,8,0:0:0:0:
329,192,36454,1,0,0:0:0:0:
109,192,36624,1,0,0:0:0:15:Snare Wet.wav
402,192,36624,1,0,0:0:0:15:Snare Wet.wav
329,192,36793,1,0,0:0:0:0:
182,192,36878,1,0,0:0:0:0:
329,192,36963,1,0,0:0:0:0:
182,192,37047,1,0,0:0:0:0:
329,192,37132,1,0,0:0:0:0:
256,192,37217,1,0,0:0:0:0:
36,192,37302,1,8,0:0:0:0:
182,192,37302,1,0,0:0:0:0:
329,192,37556,1,0,0:0:0:0:
475,192,37556,1,8,0:0:0:0:
36,192,37810,1,8,0:0:0:0:
182,192,37810,1,0,0:0:0:0:
256,192,37980,1,0,0:0:0:15:Snare Wet.wav
402,192,37980,1,0,0:0:0:15:Snare Wet.wav
109,192,38093,1,0,0:0:0:30:LR3_DS Wab1.wav
402,192,38206,1,0,0:0:0:30:LR3_DS Wab1.wav
109,192,38319,128,0,38658:0:0:0:30:LR3_DS Wab1.wav
475,192,38658,1,0,0:0:0:0:
182,192,38658,1,8,0:0:0:0:
402,192,38742,1,0,0:0:0:0:
329,192,38827,1,0,0:0:0:0:
256,192,38912,1,0,0:0:0:0:
182,192,38997,128,0,39336:0:0:0:0:
329,192,39166,128,0,39336:0:0:0:0:
475,192,39166,1,8,0:0:0:0:
109,192,39336,1,0,0:0:0:15:Snare Wet.wav
256,192,39336,1,0,0:0:0:15:Snare Wet.wav
36,192,39505,1,0,0:0:0:0:
109,192,39590,1,0,0:0:0:0:
182,192,39675,1,0,0:0:0:0:
475,192,39759,1,0,0:0:0:0:
402,192,39844,1,0,0:0:0:0:
329,192,39929,1,0,0:0:0:0:
109,192,40014,1,8,0:0:0:0:
256,192,40014,1,0,0:0:0:0:
109,192,40268,1,8,0:0:0:0:
256,192,40268,1,0,0:0:0:0:
109,192,40522,1,8,0:0:0:0:
256,192,40522,1,0,0:0:0:0:
182,192,40692,1,0,0:0:0:15:Snare Wet.wav
475,192,40692,1,0,0:0:0:15:Snare Wet.wav
329,192,40861,1,0,0:0:0:0:
36,192,40861,1,8,0:0:0:0:
402,192,41030,128,0,41369:0:0:0:0:
329,192,41200,128,8,41369:0:0:0:0:
36,192,41369,1,8,0:0:0:0:
256,192,41369,1,0,0:0:0:0:
182,192,41454,1,0,0:0:0:0:
329,192,41539,1,0,0:0:0:0:
475,192,41624,1,0,0:0:0:0:
256,192,41708,1,0,0:0:0:0:
182,192,41878,1,0,0:0:0:0:
109,192,41878,1,8,0:0:0:0:
256,192,42047,1,0,0:0:0:15:Snare Wet.wav
402,192,42047,1,0,0:0:0:15:Snare Wet.wav
109,192,42132,1,0,0:0:0:0:
402,192,42217,1,0,0:0:0:0:
109,192,42302,1,0,0:0:0:0:
402,192,42386,1,0,0:0:0:0:
109,192,42471,1,0,0:0:0:0:
402,192,42556,1,0,0:0:0:0:
256,192,42641,1,0,0:0:0:0:
36,192,42725,1,8,0:0:0:0:
182,192,42725,1,0,0:0:0:0:
36,192,42980,1,8,0:0:0:0:
182,192,42980,1,0,0:0:0:0:
36,192,43234,1,8,0:0:0:0:
182,192,43234,1,0,0:0:0:0:
329,192,43403,1,0,0:0:0:15:Snare Wet.wav
475,192,43403,1,0,0:0:0:15:Snare Wet.wav
109,192,43488,1,0,0:0:0:0:
256,192,43573,1,0,0:0:0:0:
402,192,43658,1,0,0:0:0:0:
109,192,43742,128,0,44081:0:0:0:0:
36,192,44081,1,8,0:0:0:0:
475,192,44081,1,0,0:0:0:0:
109,192,44251,1,0,0:0:0:0:
256,192,44420,128,0,44590:0:0:0:0:
402,192,44590,1,0,0:0:0:0:
36,192,44590,1,8,0:0:0:0:
182,192,44759,1,0,0:0:0:15:Snare Wet.wav
475,192,44759,1,0,0:0:0:15:Snare Wet.wav
402,192,44929,1,0,0:0:0:0:
109,192,45098,1,8,0:0:0:0:
182,192,45098,1,0,0:0:0:0:
402,192,45268,1,8,0:0:0:0:
329,192,45268,1,0,0:0:0:0:
36,192,45437,128,0,46793:0:0:0:0:
109,192,45437,1,8,0:0:0:0:
182,192,45522,1,8,0:0:0:0:
256,192,45607,1,8,0:0:0:0:
329,192,45692,1,8,0:0:0:0:
182,192,45776,1,8,0:0:0:0:
256,192,45861,1,8,0:0:0:0:
329,192,45946,1,8,0:0:0:0:
402,192,46030,1,8,0:0:0:0:
475,192,46115,128,0,46793:0:0:0:0:
182,192,46454,128,0,46793:0:0:0:0:
329,192,46793,1,4,0:0:0:0:
256,192,46793,1,8,0:0:0:0:
402,192,46793,128,0,49505:0:0:0:0:
256,192,47132,1,0,0:0:0:0:
256,192,47471,1,0,0:0:0:0:
256,192,47810,1,0,0:0:0:0:
256,192,48149,1,0,0:0:0:0:
256,192,48488,1,0,0:0:0:0:
256,192,48827,1,0,0:0:0:0:
256,192,49166,1,0,0:0:0:0:
36,192,49505,1,4,0:0:0:0:
182,192,49505,1,8,0:0:0:0:
109,192,49505,128,0,50861:0:0:0:0:
256,192,49844,1,0,0:0:0:0:
256,192,50183,1,0,0:0:0:0:
256,192,50522,1,0,0:0:0:0:
329,192,50861,1,0,0:0:0:0:
182,192,50861,1,8,0:0:0:0:
256,192,51200,1,0,0:0:0:0:
109,192,51539,1,8,0:0:0:0:
402,192,51539,1,0,0:0:0:0:
402,192,51878,1,0,0:0:0:0:
329,192,51878,1,8,0:0:0:0:
182,192,52047,1,0,0:0:0:0:
109,192,52047,1,8,0:0:0:0:
475,192,52217,1,8,0:0:0:0:
36,192,52217,1,4,0:0:0:0:
402,192,52302,1,0,0:0:0:0:
329,192,52386,1,0,0:0:0:0:
256,192,52471,1,0,0:0:0:0:
109,192,52556,128,8,52895:0:0:0:0:
402,192,52725,128,0,52895:0:0:0:0:
36,192,52895,1,8,0:0:0:0:
109,192,52980,1,0,0:0:0:0:
182,192,53064,1,0,0:0:0:0:
256,192,53149,1,0,0:0:0:0:
329,192,53234,128,8,53573:0:0:0:0:
182,192,53403,128,0,53573:0:0:0:0:
402,192,53573,1,8,0:0:0:0:
109,192,53573,1,4,0:0:0:0:
329,192,53658,1,0,0:0:0:0:
256,192,53742,1,0,0:0:0:0:
182,192,53827,1,0,0:0:0:0:
109,192,53912,128,8,54251:0:0:0:0:
402,192,54081,128,0,54251:0:0:0:0:
36,192,54251,1,8,0:0:0:0:
109,192,54336,1,0,0:0:0:0:
182,192,54420,1,0,0:0:0:0:
256,192,54505,1,0,0:0:0:0:
329,192,54590,128,8,54929:0:0:0:0:
182,192,54759,128,0,54929:0:0:0:0:
36,192,54929,1,8,0:0:0:0:
256,192,54929,1,0,0:0:0:0:
109,192,55098,1,8,0:0:0:0:
182,192,55098,1,0,0:0:0:0:
256,192,55268,1,8,0:0:0:0:
475,192,55268,1,0,0:0:0:0:
329,192,55437,1,8,0:0:0:0:
402,192,55437,1,0,0:0:0:0:
475,192,55607,1,0,0:0:0:0:
36,192,55607,1,8,0:0:0:0:
109,192,55692,1,8,0:0:0:0:
182,192,55776,1,8,0:0:0:0:
256,192,55861,1,8,0:0:0:0:
475,192,55946,1,8,0:0:0:0:
402,192,56030,1,8,0:0:0:0:
329,192,56115,1,8,0:0:0:0:
256,192,56200,1,8,0:0:0:0:
109,192,56285,128,0,57302:0:0:0:0:
402,192,56963,128,0,57302:0:0:0:0:
36,192,57641,1,4,0:0:0:0:
475,192,57641,1,0,0:0:0:0:
329,192,57641,1,8,0:0:0:0:
182,192,57725,1,0,0:0:0:0:
256,192,57810,1,0,0:0:0:0:
329,192,57895,1,0,0:0:0:0:
109,192,57980,1,2,0:0:0:0:
402,192,57980,1,0,0:0:0:0:
256,192,58149,1,0,0:0:0:0:
329,192,58234,1,0,0:0:0:0:
182,192,58319,1,8,0:0:0:0:
402,192,58319,1,0,0:0:0:0:
36,192,58488,1,0,0:0:0:0:
109,192,58658,1,2,0:0:0:0:
329,192,58658,1,0,0:0:0:0:
182,192,58827,1,0,0:0:0:0:
256,192,58912,1,0,0:0:0:0:
36,192,58997,1,8,0:0:0:0:
475,192,58997,1,0,0:0:0:0:
109,192,59166,1,0,0:0:0:0:
182,192,59336,1,2,0:0:0:0:
402,192,59336,1,0,0:0:0:0:
475,192,59505,1,0,0:0:0:0:
402,192,59590,1,0,0:0:0:0:
109,192,59675,1,8,0:0:0:0:
329,192,59675,1,0,0:0:0:0:
182,192,59844,1,0,0:0:0:0:
256,192,60014,128,4,60353:0:0:0:0:
36,192,60353,1,8,0:0:0:0:
329,192,60353,1,0,0:0:0:0:
109,192,60437,1,0,0:0:0:0:
182,192,60522,1,0,0:0:0:0:
256,192,60607,1,0,0:0:0:0:
36,192,60692,1,2,0:0:0:0:
402,192,60692,1,0,0:0:0:0:
475,192,60861,1,0,0:0:0:0:
402,192,60946,1,0,0:0:0:0:
109,192,61030,1,8,0:0:0:0:
329,192,61030,1,0,0:0:0:0:
256,192,61200,1,0,0:0:0:0:
109,192,61369,1,2,0:0:0:0:
329,192,61369,1,0,0:0:0:0:
182,192,61539,1,0,0:0:0:0:
36,192,61708,1,8,0:0:0:0:
402,192,61708,1,0,0:0:0:0:
329,192,61793,1,0,0:0:0:0:
256,192,61878,1,0,0:0:0:0:
182,192,61963,1,0,0:0:0:0:
475,192,62047,1,0,0:0:0:0:
109,192,62047,1,2,0:0:0:0:
182,192,62132,1,0,0:0:0:0:
256,192,62217,1,0,0:0:0:0:
329,192,62302,1,0,0:0:0:0:
36,192,62386,1,8,0:0:0:0:
402,192,62386,1,0,0:0:0:0:
109,192,62556,1,0,0:0:0:0:
329,192,62725,1,0,0:0:0:0:
475,192,62725,1,8,0:0:0:0:
36,192,62895,1,8,0:0:0:0:
182,192,62895,1,0,0:0:0:0:
329,192,63064,1,0,0:0:0:0:
475,192,63064,1,8,0:0:0:0:
109,192,63149,1,0,0:0:0:0:
182,192,63234,1,0,0:0:0:0:
256,192,63319,1,0,0:0:0:0:
36,192,63403,1,2,0:0:0:0:
329,192,63403,1,0,0:0:0:0:
182,192,63573,1,0,0:0:0:0:
109,192,63658,1,0,0:0:0:0:
475,192,63742,1,0,0:0:0:0:
36,192,63742,1,8,0:0:0:0:
182,192,63912,1,0,0:0:0:0:
109,192,64081,1,2,0:0:0:0:
329,192,64081,1,0,0:0:0:0:
402,192,64251,1,0,0:0:0:0:
256,192,64420,1,8,0:0:0:0:
475,192,64420,128,0,64759:0:0:0:0:
182,192,64505,1,0,0:0:0:0:
109,192,64590,1,0,0:0:0:0:
36,192,64675,1,0,0:0:0:0:
402,192,64759,1,0,0:0:0:0:
182,192,64759,1,2,0:0:0:0:
329,192,64929,1,0,0:0:0:0:
36,192,65098,1,8,0:0:0:0:
182,192,65098,1,0,0:0:0:0:
329,192,65183,1,0,0:0:0:0:
475,192,65268,1,0,0:0:0:0:
256,192,65437,128,4,65776:0:0:0:0:
36,192,65607,1,0,0:0:0:0:
109,192,65692,1,0,0:0:0:0:
182,192,65776,1,8,0:0:0:0:
475,192,65776,1,0,0:0:0:0:
402,192,65861,1,0,0:0:0:0:
329,192,65946,1,0,0:0:0:0:
256,192,66030,1,0,0:0:0:0:
36,192,66115,1,2,0:0:0:0:
182,192,66115,1,0,0:0:0:0:
475,192,66285,1,0,0:0:0:0:
256,192,66454,1,0,0:0:0:0:
36,192,66454,1,8,0:0:0:0:
109,192,66624,1,0,0:0:0:0:
182,192,66708,1,0,0:0:0:0:
256,192,66793,1,2,0:0:0:0:
475,192,66793,1,0,0:0:0:0:
402,192,66963,1,0,0:0:0:0:
36,192,67132,1,8,0:0:0:0:
475,192,67132,1,0,0:0:0:0:
256,192,67302,1,8,0:0:0:0:
109,192,67471,1,8,0:0:0:0:
402,192,67471,1,0,0:0:0:0:
256,192,67641,1,8,0:0:0:0:
475,192,67810,1,8,0:0:0:0:
329,192,67895,1,8,0:0:0:0:
182,192,67980,1,8,0:0:0:0:
402,192,68149,128,8,68319:0:0:0:0:
109,192,68319,128,8,68488:0:0:0:0:
36,192,68488,1,4,0:0:0:0:
475,192,68488,1,8,0:0:0:0:
182,192,68488,1,0,0:0:0:0:
402,192,68573,1,0,0:0:0:0:
329,192,68658,1,0,0:0:0:0:
256,192,68742,1,0,0:0:0:0:
182,192,68827,1,2,0:0:0:0:
402,192,68827,1,0,0:0:0:0:
475,192,68997,1,0,0:0:0:0:
402,192,69081,1,0,0:0:0:0:
329,192,69166,1,0,0:0:0:0:
109,192,69166,1,8,0:0:0:0:
182,192,69336,1,0,0:0:0:0:
36,192,69505,1,2,0:0:0:0:
256,192,69505,1,0,0:0:0:0:
182,192,69675,1,0,0:0:0:0:
256,192,69759,1,0,0:0:0:0:
329,192,69844,1,0,0:0:0:0:
109,192,69844,1,8,0:0:0:0:
36,192,70014,1,0,0:0:0:0:
182,192,70183,1,2,0:0:0:0:
402,192,70183,1,0,0:0:0:0:
475,192,70353,1,0,0:0:0:0:
402,192,70437,1,0,0:0:0:0:
329,192,70522,1,0,0:0:0:0:
109,192,70522,1,8,0:0:0:0:
182,192,70692,1,0,0:0:0:0:
256,192,70861,128,4,71200:0:0:0:0:
109,192,71200,1,8,0:0:0:0:
329,192,71200,1,0,0:0:0:0:
182,192,71285,1,0,0:0:0:0:
256,192,71369,1,0,0:0:0:0:
329,192,71454,1,0,0:0:0:0:
36,192,71539,1,2,0:0:0:0:
475,192,71539,1,0,0:0:0:0:
329,192,71708,1,0,0:0:0:0:
256,192,71793,1,0,0:0:0:0:
182,192,71878,1,8,0:0:0:0:
402,192,71878,1,0,0:0:0:0:
109,192,72047,1,0,0:0:0:0:
36,192,72217,1,2,0:0:0:0:
256,192,72217,1,0,0:0:0:0:
329,192,72386,1,0,0:0:0:0:
475,192,72556,1,8,0:0:0:0:
402,192,72641,1,0,0:0:0:0:
329,192,72725,1,0,0:0:0:0:
256,192,72810,1,0,0:0:0:0:
36,192,72895,1,8,0:0:0:0:
109,192,72980,1,0,0:0:0:0:
182,192,73064,1,0,0:0:0:0:
256,192,73149,1,0,0:0:0:0:
36,192,73234,1,8,0:0:0:0:
475,192,73234,1,0,0:0:0:0:
475,192,73403,1,0,0:0:0:0:
36,192,73403,1,8,0:0:0:0:
36,192,73573,1,8,0:0:0:0:
475,192,73573,1,0,0:0:0:0:
36,192,73742,1,8,0:0:0:0:
475,192,73742,1,0,0:0:0:0:
36,192,73912,1,8,0:0:0:0:
402,192,73912,1,4,0:0:0:0:
475,192,73912,1,0,0:0:0:0:
182,192,73997,1,0,0:0:0:0:
256,192,74081,1,0,0:0:0:0:
329,192,74166,1,0,0:0:0:0:
36,192,74251,1,2,0:0:0:0:
402,192,74251,1,0,0:0:0:0:
256,192,74420,1,0,0:0:0:0:
182,192,74505,1,0,0:0:0:0:
329,192,74590,1,0,0:0:0:0:
109,192,74590,1,8,0:0:0:0:
402,192,74759,1,0,0:0:0:0:
36,192,74929,1,2,0:0:0:0:
182,192,74929,1,0,0:0:0:0:
329,192,75098,1,0,0:0:0:0:
475,192,75098,1,8,0:0:0:0:
36,192,75268,1,8,0:0:0:0:
182,192,75268,1,0,0:0:0:0:
256,192,75268,1,4,0:0:0:0:
402,192,75437,1,8,0:0:0:0:
329,192,75522,1,8,0:0:0:0:
256,192,75607,1,8,0:0:0:0:
329,192,75776,1,0,0:0:0:0:
475,192,75776,1,8,0:0:0:0:
36,192,75946,1,8,0:0:0:0:
182,192,75946,1,0,0:0:0:0:
329,192,76115,1,0,0:0:0:0:
475,192,76115,1,8,0:0:0:0:
109,192,76285,1,8,0:0:0:0:
182,192,76369,1,8,0:0:0:0:
256,192,76454,1,8,0:0:0:0:
329,192,76539,1,8,0:0:0:0:
109,192,76624,1,0,0:0:0:0:
402,192,76624,1,8,0:0:0:0:
36,192,76624,1,4,0:0:0:0:
182,192,76793,1,8,0:0:0:0:
329,192,76793,1,0,0:0:0:0:
109,192,76963,1,0,0:0:0:0:
402,192,76963,1,8,0:0:0:0:
182,192,77132,1,8,0:0:0:0:
329,192,77132,1,0,0:0:0:0:
475,192,77302,1,8,0:0:0:0:
36,192,77302,1,4,0:0:0:0:
256,192,77302,1,0,0:0:0:0:
402,192,77471,1,0,0:0:0:0:
109,192,77471,1,8,0:0:0:0:
36,192,77641,1,0,0:0:0:0:
475,192,77641,1,8,0:0:0:0:
109,192,77810,1,8,0:0:0:0:
402,192,77810,1,0,0:0:0:0:
36,192,77980,1,8,0:0:0:0:
475,192,77980,1,0,0:0:0:0:
182,192,77980,1,4,0:0:0:0:
402,192,78064,1,8,0:0:0:0:
329,192,78149,1,8,0:0:0:0:
256,192,78234,1,8,0:0:0:0:
182,192,78319,1,8,0:0:0:0:
109,192,78403,1,8,0:0:0:0:
36,192,78488,128,8,78997:0:0:0:0:
475,192,78658,128,0,78997:0:0:0:0:
109,192,79336,1,8,0:0:0:0:
402,192,79336,1,4,0:0:0:0:
182,192,79420,1,0,0:0:0:0:
256,192,79505,1,0,0:0:0:0:
329,192,79590,1,0,0:0:0:0:
475,192,79675,128,0,80014:0:0:0:0:
36,192,79844,1,0,0:0:0:0:
109,192,79929,1,0,0:0:0:0:
182,192,80014,128,0,80183:0:0:0:0:
329,192,80183,128,0,80353:0:0:0:0:
475,192,80353,128,0,80522:0:0:0:0:
402,192,80522,1,0,0:0:0:0:
329,192,80607,1,0,0:0:0:0:
475,192,80692,128,0,80861:0:0:0:0:
329,192,80861,1,0,0:0:0:0:
256,192,80946,1,0,0:0:0:0:
182,192,81030,128,0,81200:0:0:0:0:
36,192,81200,128,0,81369:0:0:0:0:
109,192,81369,1,8,0:0:0:0:
182,192,81454,1,0,0:0:0:0:
402,192,81539,1,8,0:0:0:0:
329,192,81624,1,0,0:0:0:0:
256,192,81708,1,8,0:0:0:0:
256,192,81878,1,8,0:0:0:0:
36,192,82047,128,0,82217:0:0:0:0:
182,192,82047,1,8,0:0:0:0:
109,192,82386,1,8,0:0:0:0:
402,192,82386,1,0,0:0:0:0:
475,192,82556,128,0,82725:0:0:0:0:
329,192,82556,1,8,0:0:0:0:
402,192,82895,1,0,0:0:0:0:
109,192,82895,1,8,0:0:0:0:
182,192,83064,128,0,83234:0:0:0:0:
329,192,83064,1,8,0:0:0:0:
36,192,83403,1,8,0:0:0:0:
329,192,83403,1,0,0:0:0:0:
475,192,83403,1,0,0:0:0:0:
36,192,83658,1,8,0:0:0:0:
182,192,83658,1,0,0:0:0:0:
475,192,83658,1,0,0:0:0:0:
36,192,83912,1,8,0:0:0:0:
329,192,83912,1,0,0:0:0:0:
475,192,83912,1,0,0:0:0:0:
256,192,84081,1,0,0:0:0:0:
256,192,84208,1,0,0:0:0:0:
182,192,84336,128,0,84759:0:0:0:30:LR3_GrowlMRFL.wav
329,192,84463,128,0,84759:0:0:0:0:
475,192,84759,1,0,0:0:0:0:
36,192,84759,1,8,0:0:0:0:
402,192,84844,1,0,0:0:0:0:
329,192,84929,1,0,0:0:0:0:
256,192,85014,1,0,0:0:0:0:
36,192,85098,1,2,0:0:0:0:
182,192,85098,1,0,0:0:0:0:
329,192,85268,1,0,0:0:0:0:
256,192,85353,1,0,0:0:0:0:
182,192,85437,1,0,0:0:0:0:
109,192,85437,1,8,0:0:0:0:
402,192,85607,1,0,0:0:0:0:
256,192,85776,1,0,0:0:0:0:
475,192,85776,1,2,0:0:0:0:
329,192,85946,1,0,0:0:0:0:
109,192,86115,1,8,0:0:0:0:
402,192,86115,1,0,0:0:0:0:
182,192,86200,1,0,0:0:0:0:
256,192,86285,1,0,0:0:0:0:
329,192,86369,1,0,0:0:0:0:
109,192,86454,1,2,0:0:0:0:
475,192,86454,1,0,0:0:0:0:
182,192,86624,1,0,0:0:0:0:
256,192,86708,1,8,0:0:0:0:
329,192,86793,1,0,0:0:0:0:
475,192,86793,1,8,0:0:0:0:
36,192,86963,1,8,0:0:0:0:
182,192,86963,1,0,0:0:0:0:
329,192,87132,1,0,0:0:0:0:
475,192,87132,1,2,0:0:0:0:
36,192,87302,1,0,0:0:0:0:
256,192,87302,1,8,0:0:0:0:
329,192,87386,1,8,0:0:0:0:
182,192,87471,128,8,87641:0:0:0:0:
109,192,87471,1,4,0:0:0:0:
475,192,87641,1,8,0:0:0:0:
329,192,87725,1,8,0:0:0:0:
182,192,87810,128,0,87980:0:0:0:0:
109,192,87810,1,8,0:0:0:0:
475,192,87980,128,0,88149:0:0:0:0:
329,192,87980,1,8,0:0:0:0:
36,192,88149,128,0,88319:0:0:0:0:
109,192,88149,1,8,0:0:0:0:
475,192,88319,128,0,88488:0:0:0:0:
402,192,88319,1,8,0:0:0:0:
109,192,88488,128,8,88658:0:0:0:0:
36,192,88488,1,4,0:0:0:0:
475,192,88658,1,8,0:0:0:0:
329,192,88742,1,8,0:0:0:0:
109,192,88827,128,0,88997:0:0:0:0:
182,192,88827,1,8,0:0:0:0:
402,192,88997,128,0,89166:0:0:0:0:
329,192,88997,1,8,0:0:0:0:
109,192,89166,128,0,89336:0:0:0:0:
36,192,89166,1,8,0:0:0:0:
402,192,89336,128,8,89505:0:0:0:0:
475,192,89336,1,0,0:0:0:0:
36,192,89505,1,8,0:0:0:0:
329,192,89505,1,0,0:0:0:0:
256,192,89505,1,4,0:0:0:0:
109,192,89590,1,8,0:0:0:0:
182,192,89675,1,8,0:0:0:0:
256,192,89759,1,8,0:0:0:0:
329,192,89844,128,8,90183:0:0:0:0:
475,192,90183,1,0,0:0:0:0:
36,192,90183,1,8,0:0:0:0:
109,192,90268,1,0,0:0:0:0:
182,192,90353,1,0,0:0:0:0:
256,192,90437,1,0,0:0:0:0:
475,192,90522,1,0,0:0:0:0:
329,192,90522,1,2,0:0:0:0:
182,192,90692,1,0,0:0:0:0:
109,192,90776,1,0,0:0:0:0:
36,192,90861,1,8,0:0:0:0:
475,192,90861,1,0,0:0:0:0:
402,192,91030,1,0,0:0:0:0:
36,192,91200,1,2,0:0:0:0:
182,192,91200,1,0,0:0:0:0:
329,192,91369,1,0,0:0:0:0:
475,192,91369,1,8,0:0:0:0:
36,192,91539,1,8,0:0:0:0:
182,192,91539,1,0,0:0:0:0:
256,192,91624,1,0,0:0:0:0:
329,192,91708,1,0,0:0:0:0:
402,192,91793,1,0,0:0:0:0:
36,192,91878,1,2,0:0:0:0:
475,192,91878,1,0,0:0:0:0:
329,192,92047,1,0,0:0:0:0:
182,192,92047,1,8,0:0:0:0:
36,192,92217,1,8,0:0:0:0:
475,192,92217,1,0,0:0:0:0:
329,192,92386,1,0,0:0:0:0:
182,192,92386,1,8,0:0:0:0:
36,192,92556,1,8,0:0:0:0:
475,192,92556,1,0,0:0:0:0:
182,192,92725,1,8,0:0:0:0:
256,192,92810,1,8,0:0:0:0:
329,192,92895,1,8,0:0:0:0:
475,192,92895,1,4,0:0:0:0:
109,192,93064,1,8,0:0:0:0:
182,192,93149,1,8,0:0:0:0:
256,192,93234,1,8,0:0:0:0:
182,192,93403,1,4,0:0:0:0:
329,192,93403,1,8,0:0:0:0:
36,192,93573,1,8,0:0:0:0:
109,192,93658,1,8,0:0:0:0:
182,192,93742,1,8,0:0:0:0:
36,192,93912,1,8,0:0:0:0:
475,192,93912,1,4,0:0:0:0:
256,192,93997,1,0,0:0:0:0:
109,192,94081,1,8,0:0:0:0:
182,192,94166,1,8,0:0:0:0:
402,192,94251,1,8,0:0:0:0:
329,192,94336,1,8,0:0:0:0:
109,192,94420,1,8,0:0:0:0:
182,192,94505,1,8,0:0:0:0:
402,192,94590,1,8,0:0:0:0:
329,192,94675,1,8,0:0:0:0:
109,192,94759,1,8,0:0:0:0:
182,192,94844,1,8,0:0:0:0:
329,192,94929,128,8,95098:0:0:0:0:
256,192,95098,1,8,0:0:0:0:
182,192,95183,1,8,0:0:0:0:
109,192,95268,128,8,95607:0:0:0:0:
402,192,95437,128,0,95607:0:0:0:0:
36,192,95607,1,8,0:0:0:0:
182,192,95607,1,0,0:0:0:0:
475,192,95607,1,4,0:0:0:0:
256,192,95692,1,0,0:0:0:0:
329,192,95776,1,0,0:0:0:0:
402,192,95861,1,0,0:0:0:0:
36,192,95946,1,2,0:0:0:0:
475,192,95946,1,0,0:0:0:0:
256,192,96115,1,0,0:0:0:0:
182,192,96200,1,0,0:0:0:0:
329,192,96285,1,0,0:0:0:0:
109,192,96285,1,8,0:0:0:0:
256,192,96454,1,0,0:0:0:0:
182,192,96624,1,2,0:0:0:0:
402,192,96624,1,0,0:0:0:0:
329,192,96793,1,0,0:0:0:0:
36,192,96963,1,8,0:0:0:0:
475,192,96963,1,0,0:0:0:0:
109,192,97047,1,0,0:0:0:0:
182,192,97132,1,0,0:0:0:0:
256,192,97217,1,0,0:0:0:0:
329,192,97302,1,0,0:0:0:0:
109,192,97302,1,2,0:0:0:0:
182,192,97471,1,0,0:0:0:0:
256,192,97556,1,8,0:0:0:0:
329,192,97641,1,8,0:0:0:0:
475,192,97641,1,8,0:0:0:0:
36,192,97810,1,8,0:0:0:0:
182,192,97810,1,8,0:0:0:0:
329,192,97980,1,0,0:0:0:0:
475,192,97980,1,2,0:0:0:0:
36,192,98149,1,8,0:0:0:0:
182,192,98149,1,0,0:0:0:0:
256,192,98234,1,8,0:0:0:0:
475,192,98319,128,4,98488:0:0:0:0:
402,192,98319,1,8,0:0:0:0:
36,192,98488,128,0,98658:0:0:0:0:
109,192,98488,1,8,0:0:0:0:
329,192,98658,128,0,98827:0:0:0:0:
402,192,98658,1,8,0:0:0:0:
182,192,98827,128,0,98997:0:0:0:0:
109,192,98827,1,8,0:0:0:0:
475,192,98997,128,0,99166:0:0:0:0:
402,192,98997,1,8,0:0:0:0:
36,192,99166,128,0,99336:0:0:0:0:
109,192,99166,1,8,0:0:0:0:
402,192,99336,128,4,99505:0:0:0:0:
329,192,99336,1,8,0:0:0:0:
109,192,99505,128,0,99675:0:0:0:0:
182,192,99505,1,8,0:0:0:0:
36,192,99675,128,0,100014:0:0:0:0:
182,192,100014,128,0,100353:0:0:0:0:
329,192,100353,128,0,100676:0:0:0:0:
109,192,100676,1,8,1:0:0:0:
402,192,100676,1,8,1:0:0:0:
182,192,101031,1,0,0:0:0:0:
402,192,101031,1,8,0:0:0:0:
329,192,101115,1,0,0:0:0:0:
256,192,101200,1,0,0:0:0:0:
182,192,101285,1,0,0:0:0:0:
36,192,101369,1,2,0:0:0:0:
402,192,101369,1,0,0:0:0:0:
475,192,101539,1,0,0:0:0:0:
329,192,101624,1,0,0:0:0:0:
36,192,101708,1,8,0:0:0:0:
182,192,101708,1,0,0:0:0:0:
256,192,101878,1,0,0:0:0:0:
329,192,102047,1,0,0:0:0:0:
475,192,102047,1,2,0:0:0:0:
36,192,102217,1,8,0:0:0:0:
182,192,102217,1,0,0:0:0:0:
402,192,102386,1,8,0:0:0:0:
329,192,102471,1,8,0:0:0:0:
256,192,102556,1,8,0:0:0:0:
182,192,102641,1,8,0:0:0:0:
109,192,102725,1,8,0:0:0:0:
402,192,102895,1,8,0:0:0:0:
329,192,102980,1,8,0:0:0:0:
256,192,103064,1,8,0:0:0:0:
36,192,103234,1,8,0:0:0:0:
182,192,103234,1,0,0:0:0:0:
329,192,103403,1,0,0:0:0:0:
475,192,103403,1,8,0:0:0:0:
36,192,103573,1,8,0:0:0:0:
182,192,103573,1,0,0:0:0:0:
109,192,103742,1,8,0:0:0:0:
402,192,103742,1,0,0:0:0:0:
256,192,103742,1,4,0:0:0:0:
182,192,103912,1,8,0:0:0:0:
329,192,103912,1,0,0:0:0:0:
36,192,104081,1,8,0:0:0:0:
475,192,104081,1,0,0:0:0:0:
182,192,104251,1,8,0:0:0:0:
329,192,104251,1,0,0:0:0:0:
109,192,104420,1,0,0:0:0:0:
402,192,104420,1,8,0:0:0:0:
256,192,104420,1,4,0:0:0:0:
182,192,104590,1,8,0:0:0:0:
329,192,104590,1,0,0:0:0:0:
36,192,104759,1,0,0:0:0:0:
475,192,104759,1,8,0:0:0:0:
109,192,104929,1,8,0:0:0:0:
402,192,104929,1,0,0:0:0:0:
36,192,105098,1,8,0:0:0:0:
475,192,105098,1,0,0:0:0:0:
109,192,105183,1,8,0:0:0:0:
182,192,105268,1,8,0:0:0:0:
256,192,105353,1,8,0:0:0:0:
109,192,105437,1,8,0:0:0:0:
182,192,105522,1,8,0:0:0:0:
256,192,105607,1,8,0:0:0:0:
329,192,105692,1,8,0:0:0:0:
182,192,105776,1,8,0:0:0:0:
256,192,105861,1,8,0:0:0:0:
329,192,105946,1,8,0:0:0:0:
402,192,106031,1,8,0:0:0:0:
475,192,106115,1,8,0:0:0:0:
402,192,106200,1,8,0:0:0:0:
329,192,106285,1,8,0:0:0:0:
256,192,106369,1,8,0:0:0:0:
475,192,106454,1,0,0:0:0:0:
36,192,106454,1,8,0:0:0:0:
182,192,106454,1,4,0:0:0:0:
256,192,107132,1,4,0:0:0:0:
109,192,107132,1,8,0:0:0:0:
402,192,107132,1,0,0:0:0:0:
36,192,107810,1,8,0:0:0:0:
475,192,107810,1,0,0:0:0:0:
256,192,107810,1,4,0:0:0:0:
256,192,108149,1,4,0:0:0:0:
109,192,108149,1,8,0:0:0:0:
402,192,108149,1,0,0:0:0:0:
256,192,108488,1,4,0:0:0:0:
109,192,108488,1,0,0:0:0:0:
402,192,108488,1,8,0:0:0:0:
109,192,108827,128,0,109166:0:0:0:0:
402,192,108827,128,0,109166:0:0:0:0:
36,192,109166,1,8,0:0:0:0:
475,192,109166,1,0,0:0:0:0:
329,192,109166,1,4,0:0:0:0:
182,192,109336,1,0,0:0:0:0:
109,192,109505,1,2,0:0:0:0:
402,192,109505,1,0,0:0:0:0:
475,192,109675,1,0,0:0:0:0:
109,192,109844,1,0,0:0:0:0:
402,192,109844,1,8,0:0:0:0:
182,192,110014,1,0,0:0:0:0:
36,192,110183,1,0,0:0:0:0:
475,192,110183,1,2,0:0:0:0:
329,192,110353,1,0,0:0:0:0:
109,192,110522,1,8,0:0:0:0:
402,192,110522,1,4,0:0:0:0:
36,192,110692,1,0,0:0:0:0:
109,192,110861,1,2,0:0:0:0:
402,192,110861,1,0,0:0:0:0:
256,192,111031,1,0,0:0:0:0:
109,192,111200,1,8,0:0:0:0:
402,192,111200,1,0,0:0:0:0:
182,192,111369,1,0,0:0:0:0:
36,192,111539,1,2,0:0:0:0:
475,192,111539,1,0,0:0:0:0:
329,192,111708,1,0,0:0:0:0:
109,192,111878,1,8,0:0:0:0:
402,192,111878,1,0,0:0:0:0:
256,192,111878,1,4,0:0:0:0:
109,192,112047,1,8,0:0:0:0:
402,192,112047,1,0,0:0:0:0:
109,192,112217,1,8,0:0:0:0:
402,192,112217,1,0,0:0:0:0:
109,192,112386,1,8,0:0:0:0:
402,192,112386,1,0,0:0:0:0:
36,192,112556,1,8,0:0:0:0:
109,192,112641,1,8,0:0:0:0:
182,192,112725,1,8,0:0:0:0:
475,192,112810,1,8,0:0:0:0:
402,192,112895,1,8,0:0:0:0:
329,192,112980,1,8,0:0:0:0:
36,192,113064,1,8,0:0:0:0:
109,192,113149,1,8,0:0:0:0:
329,192,113234,1,0,0:0:0:0:
182,192,113234,1,8,0:0:0:0:
329,192,113573,1,0,0:0:0:0:
182,192,113573,1,8,0:0:0:0:
182,192,113912,1,8,0:0:0:0:
329,192,113912,1,0,0:0:0:0:
109,192,114251,128,8,115946:0:0:0:0:
402,192,114251,128,0,115946:0:0:0:0:
256,192,114251,1,4,0:0:0:0:
