osu file format v14

[General]
AudioFilename: [SDVX II ] FIRE FIRE -DARK BLAZE REMIX- [NOFX].mp3
AudioLeadIn: 0
PreviewTime: 57556
Countdown: 0
SampleSet: Normal
StackLeniency: 0.7
Mode: 0
LetterboxInBreaks: 0
WidescreenStoryboard: 0

[Editor]
DistanceSpacing: 1
BeatDivisor: 4
GridSize: 4
TimelineZoom: 3.699999

[Metadata]
Title:FIRE FIRE - DARK BLAZE REMIX -
TitleUnicode:FIRE FIRE - DARK BLAZE REMIX -
Artist:Yooh
ArtistUnicode:Yooh
Creator:Midget
Version:Ultra
Source:SDVX II 音源
Tags:Electronic
BeatmapID:783912
BeatmapSetID:356172

[Difficulty]
HPDrainRate:6
CircleSize:4
OverallDifficulty:8
ApproachRate:9.6
SliderMultiplier:1.8
SliderTickRate:1

[Events]
//Background and Video events
0,0,"Background.jpg",0,0
//Break Periods
2,25298,30013
2,33349,35437
2,79536,81538
//Storyboard Layer 0 (Background)
//Storyboard Layer 1 (Fail)
//Storyboard Layer 2 (Pass)
//Storyboard Layer 3 (Foreground)
//Storyboard Sound Samples

[TimingPoints]
692,338.983050847458,4,1,0,70,1,0
2386,-83.3333333333333,4,1,0,70,0,0
37302,-52.6315789473684,4,1,0,70,0,0
37810,-83.3333333333333,4,1,0,70,0,0
42725,-52.6315789473684,4,1,0,70,0,0
43319,-83.3333333333333,4,1,0,70,0,0
56285,-200,4,1,0,70,0,0
57217,-58.8235294117647,4,1,0,70,0,0
57556,-83.3333333333333,4,1,0,70,0,1
78997,-71.4285714285714,4,3,0,25,0,0
79336,-83.3333333333333,4,1,0,70,0,0
84759,-83.3333333333333,4,1,0,70,0,1
100437,319.148936170213,4,1,0,70,1,0
100776,355.029585798817,4,1,0,70,1,0
101031,338.983050847458,4,1,0,70,1,0

[HitObjects]
116,140,692,5,0,0:0:0:0:
224,88,861,2,0,L|224:52,2,22.5
324,156,1030,1,0,0:0:0:0:
224,88,1200,2,0,L|224:48,2,22.5
424,168,1369,1,0,0:0:0:0:
404,208,1454,5,0,0:0:0:0:
368,236,1539,1,0,0:0:0:0:
324,244,1624,1,0,0:0:0:0:
280,236,1708,1,0,0:0:0:0:
240,216,1793,1,0,0:0:0:0:
196,216,1878,1,0,0:0:0:0:
152,232,1963,1,0,0:0:0:0:
108,236,2047,6,0,P|68:188|144:152,1,135
292,88,2386,2,0,B|328:76|351:45|351:45|388:96|316:176,1,215.999993408203
256,264,2810,5,0,0:0:0:0:
200,296,2895,1,0,0:0:0:0:
136,300,2980,1,0,0:0:0:0:
80,268,3064,1,0,0:0:0:0:
60,204,3149,1,0,0:0:0:0:
72,140,3234,2,0,P|88:120|136:108,1,53.9999983520508
316,324,3403,6,0,P|344:276|328:220,1,107.999996704102
440,232,3658,2,0,P|428:180|388:140,1,107.999996704102
284,88,3912,1,0,0:0:0:0:
240,216,4081,2,0,P|196:236|132:224,1,107.999996704102
40,144,4336,2,0,P|48:88|144:88,1,161.999995056153
304,168,4759,6,0,P|368:180|428:144,1,107.999996704102
272,284,5014,2,0,P|180:312|112:260,1,161.999995056153
204,184,5353,2,0,P|216:112|152:56,1,161.999995056153
120,56,5692,1,0,0:0:0:0:
88,60,5776,2,0,L|68:32,4,26.9999991760254
104,296,6115,6,0,L|136:184,1,107.999996704102
256,124,6369,2,0,L|280:276,1,107.999996704102
192,344,6624,1,0,0:0:0:0:
384,212,6793,2,0,P|396:156|364:92,1,107.999996704102
292,32,7047,2,0,P|212:16|132:96,1,161.999995056153
256,196,7471,6,0,L|228:84,1,107.999996704102
380,156,7725,2,0,P|384:228|308:296,1,161.999995056153
280,312,8064,1,0,0:0:0:0:
232,324,8149,1,0,0:0:0:0:
184,324,8234,1,0,0:0:0:0:
136,308,8319,1,0,0:0:0:0:
96,280,8403,1,0,0:0:0:0:
72,236,8488,2,0,L|72:196,2,26.9999991760254
92,168,8658,2,0,L|112:132,2,26.9999991760254
184,220,8827,6,0,P|232:184|236:128,1,107.999996704102
336,88,9081,2,0,P|388:104|460:52,1,107.999996704102
336,204,9336,1,0,0:0:0:0:
152,144,9505,2,0,P|104:104|108:40,1,107.999996704102
56,216,9759,2,0,B|44:288|64:336|64:336|112:296,1,161.999995056153
180,244,10098,2,0,L|220:212,2,26.9999991760254
388,128,10353,5,0,0:0:0:0:
288,296,10522,1,0,0:0:0:0:
216,100,10692,1,0,0:0:0:0:
408,284,10861,1,0,0:0:0:0:
320,44,11030,1,0,0:0:0:0:
120,152,11200,2,0,P|88:180|72:232,1,53.9999983520508
136,296,11369,2,0,P|172:300|204:276,1,53.9999983520508
288,252,11539,6,0,P|324:208|292:120,1,107.999996704102
224,52,11793,2,0,L|188:164,1,107.999996704102
136,296,12047,1,0,0:0:0:0:
288,208,12217,2,0,P|316:260|272:332,1,107.999996704102
432,208,12556,2,0,L|460:60,1,107.999996704102
248,248,12895,5,0,0:0:0:0:
408,124,13064,1,0,0:0:0:0:
464,296,13234,1,0,0:0:0:0:
464,296,13319,1,0,0:0:0:0:
216,336,13573,1,0,0:0:0:0:
344,200,13742,1,0,0:0:0:0:
300,176,13827,1,0,0:0:0:0:
252,164,13912,1,0,0:0:0:0:
204,172,13997,1,0,0:0:0:0:
164,196,14081,1,0,0:0:0:0:
132,232,14166,1,0,0:0:0:0:
104,272,14251,6,0,P|72:208|88:132,1,107.999996704102
160,120,14590,2,0,P|168:56|204:24,1,107.999996704102
268,252,14929,2,0,P|300:180|292:120,1,107.999996704102
364,324,15268,2,0,P|408:264|420:212,1,107.999996704102
440,92,15522,5,0,0:0:0:0:
440,92,15607,1,0,0:0:0:0:
312,228,15776,2,0,P|224:268|140:236,1,161.999995056153
308,130,16115,2,0,P|396:178|416:262,1,161.999995056153
360,48,16454,1,0,0:0:0:0:
220,160,16624,2,0,L|188:188,3,26.9999991760254
128,272,16963,6,0,P|92:196|108:128,1,107.999996704102
232,300,17302,2,0,P|296:272|352:288,1,107.999996704102
316,128,17641,2,0,P|376:120|456:160,1,107.999996704102
216,96,17980,2,0,P|168:64|84:76,1,107.999996704102
24,80,18234,1,0,0:0:0:0:
24,80,18319,1,0,0:0:0:0:
120,232,18488,2,0,P|180:264|268:240,1,161.999995056153
304,216,18827,5,0,0:0:0:0:
336,184,18912,1,0,0:0:0:0:
352,144,18997,1,0,0:0:0:0:
352,100,19081,1,0,0:0:0:0:
324,64,19166,2,0,P|304:12|308:-12,1,53.9999983520508
176,128,19336,2,0,P|153:113|141:89,1,53.9999983520508
104,248,19505,1,0,0:0:0:0:
196,304,19675,6,0,L|216:372,1,53.9999983520508
232,172,19844,1,0,0:0:0:0:
352,248,20098,2,0,L|332:316,1,53.9999983520508
472,132,20353,2,0,L|452:200,1,53.9999983520508
367,48,20607,2,0,L|347:116,1,53.9999983520508
152,136,20861,1,0,0:0:0:0:
152,136,20946,1,0,0:0:0:0:
152,136,21030,1,0,0:0:0:0:
116,304,21200,6,0,L|88:232,1,53.9999983520508
236,220,21454,2,0,L|228:164,1,53.9999983520508
372,240,21708,2,0,L|388:176,1,53.9999983520508
312,96,21963,2,0,L|328:32,1,53.9999983520508
196,56,22217,1,0,0:0:0:0:
196,56,22302,1,0,0:0:0:0:
196,56,22386,1,0,0:0:0:0:
148,76,22471,5,0,0:0:0:0:
108,112,22556,1,0,0:0:0:0:
88,164,22641,1,0,0:0:0:0:
96,216,22725,1,0,0:0:0:0:
120,264,22810,1,0,0:0:0:0:
164,296,22895,1,0,0:0:0:0:
216,304,22980,1,0,0:0:0:0:
264,284,23064,1,0,0:0:0:0:
300,244,23149,1,0,0:0:0:0:
352,224,23234,1,0,0:0:0:0:
404,240,23319,1,0,0:0:0:0:
444,276,23403,5,0,0:0:0:0:
424,224,23488,1,0,0:0:0:0:
420,168,23573,1,0,0:0:0:0:
436,116,23658,1,0,0:0:0:0:
472,76,23742,1,0,0:0:0:0:
336,136,23912,5,0,0:0:0:0:
216,56,24081,1,0,0:0:0:0:
120,264,24251,1,0,0:0:0:0:
120,264,24336,1,0,0:0:0:0:
120,264,24420,1,0,0:0:0:0:
120,264,24505,1,0,0:0:0:0:
104,212,24590,5,0,0:0:0:0:
120,160,24675,1,0,0:0:0:0:
172,128,24759,1,0,0:0:0:0:
236,136,24844,1,0,0:0:0:0:
284,188,24929,1,0,0:0:0:0:
272,264,25014,1,0,0:0:0:0:
196,292,25098,1,0,0:0:0:0:
84,152,30522,5,0,0:0:0:0:
104,112,30607,1,0,0:0:0:0:
140,88,30692,1,0,0:0:0:0:
184,88,30776,1,0,0:0:0:0:
224,100,30861,1,0,0:0:0:0:
192,240,31030,1,0,0:0:0:0:
168,276,31115,1,0,0:0:0:0:
128,288,31200,1,0,0:0:0:0:
376,268,31369,5,0,0:0:0:0:
376,268,31539,1,0,0:0:0:0:
412,132,31708,5,0,0:0:0:0:
424,92,31793,1,0,0:0:0:0:
404,52,31878,1,0,0:0:0:0:
240,128,32047,1,0,0:0:0:0:
240,172,32132,1,0,0:0:0:0:
264,208,32217,1,0,0:0:0:0:
376,268,32386,5,0,0:0:0:0:
248,348,32556,1,0,0:0:0:0:
320,144,32725,1,0,0:0:0:0:
128,64,32895,1,0,0:0:0:0:
164,220,33064,1,0,0:0:0:0:
164,220,33149,1,0,0:0:0:0:
368,268,35946,5,0,0:0:0:0:
400,232,36030,1,0,0:0:0:0:
400,184,36115,1,0,0:0:0:0:
372,144,36200,1,0,0:0:0:0:
332,120,36285,1,0,0:0:0:0:
184,200,36454,1,0,0:0:0:0:
224,224,36539,1,0,0:0:0:0:
268,204,36624,1,0,0:0:0:0:
240,112,36793,6,0,P|248:60|232:40,1,53.9999983520508
116,116,36963,2,0,P|72:144|68:160,1,53.9999983520508
108,304,37132,2,0,P|116:264|100:228,1,53.9999983520508
252,324,37302,1,0,0:0:0:0:
396,276,37471,1,0,0:0:0:0:
396,276,37556,2,0,P|404:220|476:160,1,85.4999977169037
328,132,37725,2,0,P|356:68|408:44,1,85.4999977169037
176,64,37980,1,0,0:0:0:0:
116,116,38093,5,0,0:0:0:0:
56,168,38206,1,0,0:0:0:0:
128,240,38319,2,0,P|120:312|216:264,1,215.999993408203
224,232,38742,1,0,0:0:0:0:
240,188,38827,1,0,0:0:0:0:
280,156,38912,1,0,0:0:0:0:
420,76,38997,2,0,P|440:36|440:36,2,26.9999991760254
452,192,39166,5,0,0:0:0:0:
460,240,39251,1,0,0:0:0:0:
436,284,39336,1,0,0:0:0:0:
404,312,39420,1,0,0:0:0:0:
364,328,39505,1,0,0:0:0:0:
320,336,39590,2,0,L|320:384,1,26.9999991760254
280,332,39675,2,0,L|276:360,1,26.9999991760254
240,316,39759,2,0,P|196:276|196:216,1,107.999996704102
96,248,40014,5,0,0:0:0:0:
96,204,40098,1,0,0:0:0:0:
112,164,40183,1,0,0:0:0:0:
140,132,40268,1,0,0:0:0:0:
180,112,40353,1,0,0:0:0:0:
220,104,40437,2,0,L|216:68,1,26.9999991760254
264,104,40522,2,0,L|268:72,1,26.9999991760254
464,132,40692,1,0,0:0:0:0:
344,248,40861,2,0,P|384:248|408:224,1,53.9999983520508
352,108,41030,6,0,P|300:44|224:48,1,161.999995056153
180,60,41369,1,0,0:0:0:0:
136,80,41454,1,0,0:0:0:0:
100,112,41539,1,0,0:0:0:0:
88,160,41624,1,0,0:0:0:0:
104,208,41708,1,0,0:0:0:0:
200,308,41878,5,0,0:0:0:0:
248,320,41963,1,0,0:0:0:0:
296,308,42047,1,0,0:0:0:0:
256,192,42217,6,0,P|224:176|220:148,1,53.9999983520508
352,104,42386,2,0,P|360:68|392:64,1,53.9999983520508
424,216,42556,2,0,P|460:208|492:220,1,53.9999983520508
396,352,42725,2,0,L|420:260,1,85.4999977169037
252,316,42895,2,0,L|256:216,1,85.4999977169037
120,288,43064,2,0,L|88:204,3,85.4999977169037
176,168,43403,6,0,L|208:112,1,53.9999983520508
332,148,43573,2,0,L|304:96,1,53.9999983520508
432,128,43742,2,0,P|444:212|376:264,1,161.999995056153
300,288,44081,5,0,0:0:0:0:
252,296,44166,1,0,0:0:0:0:
208,276,44251,1,0,0:0:0:0:
180,236,44336,1,0,0:0:0:0:
176,188,44420,2,0,P|204:132|256:120,1,107.999996704102
288,112,44675,1,0,0:0:0:0:
268,68,44759,1,0,0:0:0:0:
224,48,44844,1,0,0:0:0:0:
176,48,44929,1,0,0:0:0:0:
132,68,45014,1,0,0:0:0:0:
104,108,45098,5,0,0:0:0:0:
104,108,45183,1,0,0:0:0:0:
104,108,45268,1,0,0:0:0:0:
104,108,45353,1,0,0:0:0:0:
96,264,45437,6,0,P|100:320|120:344,1,53.9999983520508
232,280,45607,2,0,P|264:328|284:332,1,53.9999983520508
344,216,45776,2,0,P|400:240|432:240,1,53.9999983520508
396,100,45946,2,0,P|456:92|476:72,1,53.9999983520508
272,164,46115,6,0,P|204:196|104:164,1,161.999995056153
88,156,46454,2,0,L|56:136,6,26.9999991760254
96,264,46793,5,0,0:0:0:0:
144,252,46878,1,0,0:0:0:0:
180,220,46963,1,0,0:0:0:0:
200,176,47047,1,0,0:0:0:0:
204,128,47132,1,0,0:0:0:0:
360,160,47302,5,0,0:0:0:0:
376,204,47386,1,0,0:0:0:0:
356,248,47471,1,0,0:0:0:0:
340,64,47641,1,0,0:0:0:0:
464,132,47810,2,0,L|476:240,2,107.999996704102
432,92,48234,5,0,0:0:0:0:
388,68,48319,1,0,0:0:0:0:
340,64,48403,1,0,0:0:0:0:
300,88,48488,1,0,0:0:0:0:
432,296,48658,5,0,0:0:0:0:
396,328,48742,1,0,0:0:0:0:
348,336,48827,1,0,0:0:0:0:
128,284,48997,1,0,0:0:0:0:
64,120,49166,2,0,L|44:236,2,107.999996704102
100,84,49590,5,0,0:0:0:0:
144,68,49675,1,0,0:0:0:0:
192,72,49759,1,0,0:0:0:0:
236,92,49844,1,0,0:0:0:0:
388,204,50014,1,0,0:0:0:0:
388,204,50098,1,0,0:0:0:0:
388,204,50183,1,0,0:0:0:0:
128,284,50353,1,0,0:0:0:0:
248,216,50522,2,0,L|264:344,2,107.999996704102
252,168,50946,5,0,0:0:0:0:
280,128,51030,1,0,0:0:0:0:
324,108,51115,1,0,0:0:0:0:
372,112,51200,1,0,0:0:0:0:
164,148,51369,1,0,0:0:0:0:
164,148,51454,1,0,0:0:0:0:
164,148,51539,1,0,0:0:0:0:
460,256,51708,1,0,0:0:0:0:
336,188,51878,2,0,L|316:300,2,107.999996704102
332,132,52302,5,0,0:0:0:0:
304,88,52386,1,0,0:0:0:0:
256,64,52471,1,0,0:0:0:0:
200,68,52556,1,0,0:0:0:0:
124,236,52725,1,0,0:0:0:0:
292,284,52895,5,0,0:0:0:0:
344,296,52980,1,0,0:0:0:0:
396,280,53064,1,0,0:0:0:0:
428,236,53149,1,0,0:0:0:0:
432,184,53234,1,0,0:0:0:0:
240,156,53403,1,0,0:0:0:0:
80,172,53573,5,0,0:0:0:0:
76,120,53658,1,0,0:0:0:0:
100,72,53742,1,0,0:0:0:0:
148,48,53827,1,0,0:0:0:0:
204,48,53912,1,0,0:0:0:0:
344,212,54081,1,0,0:0:0:0:
196,292,54251,5,0,0:0:0:0:
156,320,54336,1,0,0:0:0:0:
108,328,54420,1,0,0:0:0:0:
64,308,54505,1,0,0:0:0:0:
40,264,54590,1,0,0:0:0:0:
344,212,54759,1,0,0:0:0:0:
112,120,54929,5,0,0:0:0:0:
224,244,55098,2,0,L|244:273,2,26.9999991760254
208,64,55268,1,0,0:0:0:0:
224,244,55437,2,0,L|244:273,2,26.9999991760254
228,192,55607,1,0,0:0:0:0:
244,140,55692,1,0,0:0:0:0:
284,104,55776,1,0,0:0:0:0:
336,92,55861,1,0,0:0:0:0:
388,104,55946,1,0,0:0:0:0:
424,140,56030,1,0,0:0:0:0:
436,192,56115,1,0,0:0:0:0:
424,244,56200,1,0,0:0:0:0:
400,292,56285,2,0,B|376:308|344:316|280:296|280:296|248:332|200:312|200:312|152:316,1,247.5
100,244,57302,6,0,P|88:152|196:192,1,229.500004377365
216,204,57641,1,0,0:0:0:0:
256,220,57725,1,0,0:0:0:0:
300,220,57810,1,0,0:0:0:0:
340,208,57895,1,0,0:0:0:0:
376,184,57980,1,0,0:0:0:0:
284,84,58149,5,0,0:0:0:0:
284,84,58234,1,0,0:0:0:0:
284,84,58319,1,0,0:0:0:0:
216,296,58488,1,0,0:0:0:0:
216,296,58658,1,0,0:0:0:0:
124,220,58827,1,0,0:0:0:0:
120,176,58912,1,0,0:0:0:0:
148,140,58997,1,0,0:0:0:0:
408,48,59166,5,0,0:0:0:0:
380,276,59336,1,0,0:0:0:0:
64,112,59505,1,0,0:0:0:0:
64,112,59590,1,0,0:0:0:0:
64,112,59675,1,0,0:0:0:0:
256,52,59844,1,0,0:0:0:0:
392,168,60014,6,0,L|424:184,6,26.9999991760254
352,156,60353,1,0,0:0:0:0:
308,156,60437,1,0,0:0:0:0:
268,172,60522,1,0,0:0:0:0:
236,200,60607,1,0,0:0:0:0:
212,236,60692,2,0,P|164:280|80:264,1,107.999996704102
80,272,60946,1,0,0:0:0:0:
56,236,61030,1,0,0:0:0:0:
256,52,61200,5,0,0:0:0:0:
336,280,61369,1,0,0:0:0:0:
112,164,61539,1,0,0:0:0:0:
376,92,61708,1,0,0:0:0:0:
416,112,61793,5,0,0:0:0:0:
444,148,61878,1,0,0:0:0:0:
452,192,61963,1,0,0:0:0:0:
444,232,62047,1,0,0:0:0:0:
420,268,62132,1,0,0:0:0:0:
384,296,62217,1,0,0:0:0:0:
340,304,62302,1,0,0:0:0:0:
288,256,62386,5,0,0:0:0:0:
228,220,62471,1,0,0:0:0:0:
160,232,62556,1,0,0:0:0:0:
104,272,62641,1,0,0:0:0:0:
84,340,62725,1,0,0:0:0:0:
176,60,62895,1,0,0:0:0:0:
88,120,63064,5,0,0:0:0:0:
124,152,63149,1,0,0:0:0:0:
172,164,63234,1,0,0:0:0:0:
220,152,63319,1,0,0:0:0:0:
256,124,63403,1,0,0:0:0:0:
424,164,63573,1,0,0:0:0:0:
424,164,63658,1,0,0:0:0:0:
424,164,63742,1,0,0:0:0:0:
192,308,63912,5,0,0:0:0:0:
192,308,64081,1,0,0:0:0:0:
188,72,64251,1,0,0:0:0:0:
228,44,64336,1,0,0:0:0:0:
276,44,64420,1,0,0:0:0:0:
332,88,64505,5,0,0:0:0:0:
340,160,64590,1,0,0:0:0:0:
296,216,64675,1,0,0:0:0:0:
228,232,64759,1,0,0:0:0:0:
56,168,64929,5,0,0:0:0:0:
296,320,65098,1,0,0:0:0:0:
296,320,65183,1,0,0:0:0:0:
296,320,65268,1,0,0:0:0:0:
448,256,65437,6,0,L|476:212,2,26.9999991760254
424,136,65607,2,0,L|452:92,2,26.9999991760254
312,144,65776,1,0,0:0:0:0:
280,188,65861,1,0,0:0:0:0:
244,228,65946,1,0,0:0:0:0:
212,272,66030,1,0,0:0:0:0:
176,312,66115,1,0,0:0:0:0:
148,172,66285,5,0,0:0:0:0:
64,96,66454,2,0,P|112:56|160:56,1,107.999996704102
204,76,66708,1,0,0:0:0:0:
252,100,66793,2,0,P|304:112|376:76,1,107.999996704102
280,168,67132,6,0,P|292:224|320:240,1,53.9999983520508
164,232,67302,2,0,P|180:268|168:296,1,53.9999983520508
368,340,67471,2,0,P|376:284|416:264,1,53.9999983520508
456,232,67641,2,0,P|468:184|456:140,1,53.9999983520508
448,128,67810,5,0,0:0:0:0:
416,84,67895,1,0,0:0:0:0:
368,60,67980,1,0,0:0:0:0:
316,48,68064,1,0,0:0:0:0:
264,64,68149,6,0,P|192:112|136:108,1,107.999996704102
52,132,68488,5,0,0:0:0:0:
68,184,68573,1,0,0:0:0:0:
112,216,68658,1,0,0:0:0:0:
164,232,68742,1,0,0:0:0:0:
216,220,68827,1,0,0:0:0:0:
336,136,68997,1,0,0:0:0:0:
336,136,69081,1,0,0:0:0:0:
336,136,69166,1,0,0:0:0:0:
224,300,69336,5,0,0:0:0:0:
380,248,69505,2,0,P|420:224|428:148,1,107.999996704102
432,120,69759,1,0,0:0:0:0:
412,72,69844,2,0,P|368:32|304:44,1,107.999996704102
172,136,70183,5,0,0:0:0:0:
312,328,70353,1,0,0:0:0:0:
312,328,70437,1,0,0:0:0:0:
312,328,70522,1,0,0:0:0:0:
80,200,70692,1,0,0:0:0:0:
264,72,70861,2,0,L|296:48,6,26.9999991760254
336,44,71200,5,0,0:0:0:0:
384,48,71285,1,0,0:0:0:0:
420,80,71369,1,0,0:0:0:0:
440,124,71454,1,0,0:0:0:0:
436,172,71539,2,0,P|408:220|348:224,1,107.999996704102
176,192,71878,1,0,0:0:0:0:
264,72,72047,5,0,0:0:0:0:
64,136,72217,1,0,0:0:0:0:
296,204,72386,1,0,0:0:0:0:
424,216,72556,5,0,0:0:0:0:
400,264,72641,1,0,0:0:0:0:
360,296,72725,1,0,0:0:0:0:
308,304,72810,1,0,0:0:0:0:
256,296,72895,1,0,0:0:0:0:
212,264,72980,1,0,0:0:0:0:
184,220,73064,1,0,0:0:0:0:
164,168,73149,1,0,0:0:0:0:
136,96,73234,6,0,L|116:40,1,53.9999983520508
352,104,73403,2,0,L|370:53,1,53.9999983520508
260,192,73573,2,0,L|240:136,1,53.9999983520508
456,128,73742,2,0,L|474:77,1,53.9999983520508
424,216,73912,5,0,0:0:0:0:
404,260,73997,1,0,0:0:0:0:
368,292,74081,1,0,0:0:0:0:
320,296,74166,1,0,0:0:0:0:
276,276,74251,1,0,0:0:0:0:
136,96,74420,1,0,0:0:0:0:
136,96,74505,1,0,0:0:0:0:
136,96,74590,1,0,0:0:0:0:
320,48,74759,5,0,0:0:0:0:
232,344,74929,1,0,0:0:0:0:
360,164,75098,1,0,0:0:0:0:
396,116,75183,1,0,0:0:0:0:
428,64,75268,1,0,0:0:0:0:
224,152,75437,1,0,0:0:0:0:
188,200,75522,1,0,0:0:0:0:
152,248,75607,1,0,0:0:0:0:
136,96,75776,5,0,0:0:0:0:
264,244,75946,1,0,0:0:0:0:
308,284,76030,1,0,0:0:0:0:
364,300,76115,1,0,0:0:0:0:
420,284,76200,1,0,0:0:0:0:
468,248,76285,2,0,P|500:172|488:136,1,107.999996704102
360,48,76624,5,0,0:0:0:0:
316,88,76708,1,0,0:0:0:0:
260,112,76793,1,0,0:0:0:0:
200,108,76878,1,0,0:0:0:0:
144,88,76963,1,0,0:0:0:0:
172,260,77132,1,0,0:0:0:0:
308,316,77302,5,0,0:0:0:0:
352,324,77386,1,0,0:0:0:0:
396,316,77471,1,0,0:0:0:0:
432,292,77556,1,0,0:0:0:0:
384,204,77641,1,0,0:0:0:0:
344,188,77725,1,0,0:0:0:0:
300,192,77810,1,0,0:0:0:0:
260,204,77895,1,0,0:0:0:0:
172,260,77980,5,0,0:0:0:0:
108,248,78064,1,0,0:0:0:0:
68,196,78149,1,0,0:0:0:0:
76,132,78234,1,0,0:0:0:0:
120,84,78319,2,0,P|168:56|176:40,1,53.9999983520508
284,104,78488,2,0,P|320:60|324:40,1,53.9999983520508
456,124,78658,6,0,L|480:88,4,26.9999991760254
304,280,78997,2,0,L|284:312,6,31.4999990386963
284,104,79336,1,0,0:0:0:0:
200,120,82047,6,0,L|212:84,2,26.9999991760254
140,172,82217,1,0,0:0:0:0:
216,304,82386,5,0,0:0:0:0:
376,164,82556,2,0,L|388:128,2,26.9999991760254
316,216,82725,1,0,0:0:0:0:
216,304,82895,5,0,0:0:0:0:
200,120,83064,2,0,L|212:84,2,26.9999991760254
140,172,83234,1,0,0:0:0:0:
448,108,83403,6,0,P|460:188|412:260,2,161.999995056153
256,192,84081,12,0,84675,0:0:0:0:
100,132,84759,5,0,0:0:0:0:
128,100,84844,1,0,0:0:0:0:
168,88,84929,1,0,0:0:0:0:
212,92,85014,1,0,0:0:0:0:
248,116,85098,1,0,0:0:0:0:
376,288,85268,1,0,0:0:0:0:
376,288,85353,5,0,0:0:0:0:
376,288,85437,1,0,0:0:0:0:
328,72,85607,1,0,0:0:0:0:
480,216,85776,1,0,0:0:0:0:
248,316,85946,1,0,0:0:0:0:
212,316,86030,1,0,0:0:0:0:
176,288,86115,5,0,0:0:0:0:
160,248,86200,1,0,0:0:0:0:
160,204,86285,1,0,0:0:0:0:
180,160,86369,1,0,0:0:0:0:
212,124,86454,1,0,0:0:0:0:
420,56,86624,1,0,0:0:0:0:
420,56,86708,1,0,0:0:0:0:
420,56,86793,1,0,0:0:0:0:
260,220,86963,1,0,0:0:0:0:
260,220,87132,1,0,0:0:0:0:
392,192,87302,1,0,0:0:0:0:
280,80,87471,6,0,L|172:76,1,107.999996704102
124,72,87725,1,0,0:0:0:0:
76,68,87810,1,0,0:0:0:0:
164,272,87980,1,0,0:0:0:0:
312,296,88149,2,0,B|360:276|360:276|404:188,1,107.999996704102
208,176,88488,6,0,L|100:172,1,107.999996704102
52,168,88742,1,0,0:0:0:0:
4,164,88827,1,0,0:0:0:0:
92,368,88997,1,0,0:0:0:0:
312,296,89166,2,0,B|360:276|360:276|404:188,1,107.999996704102
440,96,89505,5,0,0:0:0:0:
396,116,89590,1,0,0:0:0:0:
352,136,89675,1,0,0:0:0:0:
308,156,89759,1,0,0:0:0:0:
264,176,89844,2,0,P|188:172|208:72,1,161.999995056153
204,48,90183,5,0,0:0:0:0:
148,64,90268,1,0,0:0:0:0:
116,116,90353,1,0,0:0:0:0:
120,176,90437,1,0,0:0:0:0:
156,224,90522,1,0,0:0:0:0:
360,328,90692,1,0,0:0:0:0:
360,328,90776,5,0,0:0:0:0:
360,328,90861,1,0,0:0:0:0:
96,276,91030,1,0,0:0:0:0:
208,140,91200,1,0,0:0:0:0:
240,332,91369,1,0,0:0:0:0:
240,332,91454,1,0,0:0:0:0:
252,284,91539,5,0,0:0:0:0:
264,236,91624,1,0,0:0:0:0:
276,188,91708,1,0,0:0:0:0:
288,140,91793,1,0,0:0:0:0:
300,92,91878,1,0,0:0:0:0:
152,212,92047,1,0,0:0:0:0:
152,212,92132,1,0,0:0:0:0:
152,212,92217,1,0,0:0:0:0:
400,80,92386,1,0,0:0:0:0:
448,204,92556,6,0,B|464:264|464:264|432:332|432:328,1,107.999996704102
284,264,92895,1,0,0:0:0:0:
104,240,93064,1,0,0:0:0:0:
124,280,93149,1,0,0:0:0:0:
144,316,93234,1,0,0:0:0:0:
284,264,93403,5,0,0:0:0:0:
180,112,93573,1,0,0:0:0:0:
168,152,93658,1,0,0:0:0:0:
156,192,93742,1,0,0:0:0:0:
284,264,93912,5,0,0:0:0:0:
320,84,94081,1,0,0:0:0:0:
284,104,94166,1,0,0:0:0:0:
248,124,94251,2,0,P|212:152|200:184,1,53.9999983520508
363,188,94420,2,0,P|389:182|412:168,1,53.9999983520508
372,328,94590,2,0,P|400:336|436:328,1,53.9999983520508
232,252,94759,2,0,P|176:260|156:240,1,53.9999983520508
60,168,94929,5,0,0:0:0:0:
384,244,95098,1,0,0:0:0:0:
384,244,95183,1,0,0:0:0:0:
384,244,95268,1,0,0:0:0:0:
188,344,95437,1,0,0:0:0:0:
152,208,95607,5,0,0:0:0:0:
160,160,95692,1,0,0:0:0:0:
192,124,95776,1,0,0:0:0:0:
240,112,95861,1,0,0:0:0:0:
288,120,95946,1,0,0:0:0:0:
476,208,96115,1,0,0:0:0:0:
476,208,96200,1,0,0:0:0:0:
476,208,96285,2,0,P|484:276|444:312,1,107.999996704102
340,368,96624,1,0,0:0:0:0:
264,216,96793,5,0,0:0:0:0:
264,216,96878,1,0,0:0:0:0:
312,228,96963,1,0,0:0:0:0:
356,212,97047,1,0,0:0:0:0:
384,172,97132,1,0,0:0:0:0:
392,124,97217,1,0,0:0:0:0:
368,80,97302,1,0,0:0:0:0:
212,24,97471,2,0,L|156:8,2,53.9999983520508
72,168,97810,1,0,0:0:0:0:
152,300,97980,6,0,B|188:328|188:328|300:320,1,107.999996704102
448,304,98319,1,0,0:0:0:0:
368,80,98488,1,0,0:0:0:0:
368,80,98573,1,0,0:0:0:0:
368,80,98658,1,0,0:0:0:0:
248,148,98827,1,0,0:0:0:0:
336,244,98997,2,0,B|360:284|360:284|352:360,1,107.999996704102
200,224,99336,5,0,0:0:0:0:
280,64,99505,2,0,P|304:32|360:32,1,53.9999983520508
280,64,99675,2,0,P|240:32|236:16,3,53.9999983520508
200,80,100014,2,0,P|168:72|156:52,6,35.9999989013672
120,108,100437,2,0,P|104:112|88:112,7,22.5
144,260,101031,5,0,0:0:0:0:
180,280,101115,1,0,0:0:0:0:
220,284,101200,1,0,0:0:0:0:
256,268,101285,1,0,0:0:0:0:
280,236,101369,1,0,0:0:0:0:
352,8,101539,1,0,0:0:0:0:
352,8,101624,1,0,0:0:0:0:
352,8,101708,1,0,0:0:0:0:
436,136,101878,1,0,0:0:0:0:
284,76,102047,2,0,P|224:64|176:92,1,90
100,168,102386,5,0,0:0:0:0:
68,196,102471,1,0,0:0:0:0:
48,236,102556,1,0,0:0:0:0:
52,280,102641,1,0,0:0:0:0:
76,316,102725,1,0,0:0:0:0:
224,160,102895,1,0,0:0:0:0:
224,160,102980,1,0,0:0:0:0:
224,160,103064,1,0,0:0:0:0:
308,344,103234,1,0,0:0:0:0:
408,220,103403,6,0,P|432:172|404:112,1,90
360,44,103742,5,0,0:0:0:0:
324,72,103827,1,0,0:0:0:0:
280,84,103912,1,0,0:0:0:0:
236,76,103997,1,0,0:0:0:0:
196,56,104081,1,0,0:0:0:0:
332,168,104251,1,0,0:0:0:0:
232,236,104420,5,0,0:0:0:0:
196,252,104505,1,0,0:0:0:0:
156,256,104590,1,0,0:0:0:0:
120,240,104675,1,0,0:0:0:0:
32,192,104759,1,0,0:0:0:0:
60,164,104844,5,0,0:0:0:0:
100,152,104929,1,0,0:0:0:0:
140,160,105014,1,0,0:0:0:0:
252,324,105098,1,0,0:0:0:0:
296,340,105183,1,0,0:0:0:0:
340,332,105268,1,0,0:0:0:0:
376,304,105353,1,0,0:0:0:0:
396,264,105437,1,0,0:0:0:0:
400,220,105522,1,0,0:0:0:0:
384,176,105607,1,0,0:0:0:0:
352,144,105692,1,0,0:0:0:0:
316,120,105776,6,0,P|284:80|284:68,1,45
300,248,105946,2,0,P|260:220|256:196,1,45
156,232,106115,2,0,P|128:212|120:196,1,45
192,120,106285,2,0,P|160:80|160:72,1,45
128,24,106454,5,0,0:0:0:0:
92,48,107132,5,0,0:0:0:0:
68,64,107810,5,0,0:0:0:0:
44,80,108149,1,0,0:0:0:0:
24,96,108488,2,0,L|-12:72,7,22.5
80,148,108827,2,0,L|60:132,7,22.5
104,220,109166,6,0,P|144:260|208:256,1,90
272,312,109505,2,0,P|288:256|252:196,1,90
208,148,109844,2,0,P|260:120|324:136,1,90
384,68,110183,2,0,P|408:108|384:172,1,90
348,316,110522,1,0,0:0:0:0:
289,120,110861,6,0,P|243:128|191:168,1,90
279,226,111200,2,0,P|288:270|272:312,1,90
175,265,111539,2,0,P|132:253|104:220,1,90
76,144,111878,5,0,0:0:0:0:
64,132,111963,1,0,0:0:0:0:
124,120,112047,1,0,0:0:0:0:
120,104,112132,1,0,0:0:0:0:
180,116,112217,1,0,0:0:0:0:
180,100,112302,1,0,0:0:0:0:
232,128,112386,1,0,0:0:0:0:
236,112,112471,1,0,0:0:0:0:
280,156,112556,1,0,0:0:0:0:
288,140,112641,1,0,0:0:0:0:
312,196,112725,1,0,0:0:0:0:
328,184,112810,1,0,0:0:0:0:
320,248,112895,1,0,0:0:0:0:
344,248,112980,1,0,0:0:0:0:
308,304,113064,1,0,0:0:0:0:
328,312,113149,1,0,0:0:0:0:
232,348,113234,5,0,0:0:0:0:
384,56,113573,1,0,0:0:0:0:
456,276,113912,1,0,0:0:0:0:
184,140,114251,5,0,0:0:0:0:
