osu file format v14

[General]
AudioFilename: Electronic Sound Lab.mp3
AudioLeadIn: 0
PreviewTime: 64347
Countdown: 0
SampleSet: Normal
StackLeniency: 0.7
Mode: 3
LetterboxInBreaks: 0
SpecialStyle: 0
WidescreenStoryboard: 1

[Editor]
DistanceSpacing: 1.2
BeatDivisor: 4
GridSize: 4
TimelineZoom: 2.500001

[Metadata]
Title:Electronic Sound Lab
TitleUnicode:Electronic Sound Lab
Artist:Yooh
ArtistUnicode:Yooh
Creator:XeoStyle
Version:NM
Source:
Tags:SV Change Yooh mania
BeatmapID:673991
BeatmapSetID:299842

[Difficulty]
HPDrainRate:7
CircleSize:4
OverallDifficulty:7
ApproachRate:5
SliderMultiplier:1.90000000596046
SliderTickRate:1

[Events]
//Background and Video events
0,0,"ElectronicSoundLab.jpg",0,0
//Break Periods
//Storyboard Layer 0 (Background)
//Storyboard Layer 1 (Fail)
//Storyboard Layer 2 (Pass)
//Storyboard Layer 3 (Foreground)
//Storyboard Sound Samples

[TimingPoints]
0,434.782608695652,4,1,0,5,1,0
0,-100,4,1,0,5,0,0
108,-200,4,1,0,5,0,0
217,-50,4,1,0,5,0,0
326,-200,4,1,0,5,0,0
434,-50,4,1,0,5,0,0
543,-200,4,1,0,5,0,0
652,-50,4,1,0,5,0,0
760,-200,4,1,0,5,0,0
869,-50,4,1,0,5,0,0
978,-200,4,1,0,5,0,0
1086,-50,4,1,0,5,0,0
1195,-200,4,1,0,5,0,0
1304,-50,4,1,0,5,0,0
1413,-200,4,1,0,5,0,0
1521,-50,4,1,0,5,0,0
1630,-200,4,1,0,5,0,0
1739,-50,4,1,0,5,0,0
1847,-200,4,1,0,5,0,0
1956,-50,4,1,0,5,0,0
2065,-200,4,1,0,5,0,0
2173,-50,4,1,0,5,0,0
2282,-200,4,1,0,5,0,0
2391,-50,4,1,0,5,0,0
2499,-200,4,1,0,5,0,0
2608,-50,4,1,0,5,0,0
2717,-200,4,1,0,5,0,0
2826,-50,4,1,0,5,0,0
2934,-200,4,1,0,5,0,0
3043,-50,4,1,0,5,0,0
3152,-200,4,1,0,5,0,0
3260,-50,4,1,0,5,0,0
3369,-200,4,1,0,5,0,0
3478,-50,4,1,0,5,0,0
3586,-200,4,1,0,5,0,0
3695,-50,4,1,0,5,0,0
3804,-200,4,1,0,5,0,0
3913,-50,4,1,0,5,0,0
4021,-200,4,1,0,5,0,0
4130,-50,4,1,0,5,0,0
4239,-200,4,1,0,5,0,0
4347,-50,4,1,0,5,0,0
4456,-200,4,1,0,5,0,0
4565,-50,4,1,0,5,0,0
4673,-200,4,1,0,5,0,0
4782,-50,4,1,0,5,0,0
4891,-200,4,1,0,5,0,0
4999,-50,4,1,0,5,0,0
5108,-200,4,1,0,5,0,0
5217,-1000,4,1,0,5,0,0
6304,-100,4,1,0,5,0,0
6521,-50,4,1,0,5,0,0
6847,-500,4,1,0,5,0,0
6956,-100,4,1,0,5,0,0
7173,-50,4,1,0,5,0,0
7282,-500,4,1,0,5,0,0
7391,-100,4,1,0,5,0,0
7608,-50,4,1,0,5,0,0
7717,-500,4,1,0,5,0,0
7826,-100,4,1,0,5,0,0
8043,-50,4,1,0,5,0,0
8152,-500,4,1,0,5,0,0
8260,-100,4,1,0,5,0,0
8478,-50,4,1,0,5,0,0
8586,-500,4,1,0,5,0,0
8695,-100,4,1,0,5,0,0
8913,-50,4,1,0,5,0,0
9021,-500,4,1,0,5,0,0
9130,-100,4,1,0,5,0,0
9347,-50,4,1,0,5,0,0
9456,-500,4,1,0,5,0,0
9565,-100,4,1,0,5,0,0
9782,-50,4,1,0,5,0,0
9891,-500,4,1,0,5,0,0
9999,-100,4,1,0,5,0,0
10217,-50,4,1,0,5,0,0
10326,-500,4,1,0,5,0,0
10434,-100,4,1,0,5,0,0
10652,-50,4,1,0,5,0,0
10760,-500,4,1,0,5,0,0
10869,-100,4,1,0,5,0,0
11086,-50,4,1,0,5,0,0
11195,-500,4,1,0,5,0,0
11304,-100,4,1,0,5,0,0
11521,-50,4,1,0,5,0,0
11630,-500,4,1,0,5,0,0
11739,-100,4,1,0,5,0,0
11956,-50,4,1,0,5,0,0
12065,-500,4,1,0,5,0,0
12173,-100,4,1,0,5,0,0
12391,-50,4,1,0,5,0,0
12499,-500,4,1,0,5,0,0
12608,-100,4,1,0,5,0,0
12826,-50,4,1,0,5,0,0
12934,-500,4,1,0,5,0,0
13043,-100,4,1,0,5,0,0
13260,-50,4,1,0,5,0,0
13368,-500,4,1,0,5,0,0
13478,-100,4,1,0,5,0,0
13696,-50,4,1,0,5,0,0
13804,-500,4,1,0,5,0,0
13913,-100,4,1,0,5,0,0
14130,-50,4,1,0,5,0,0
14239,-500,4,1,0,5,0,0
14347,-100,4,1,0,5,0,0
14565,-50,4,1,0,5,0,0
14673,-500,4,1,0,5,0,0
14782,-100,4,1,0,5,0,0
14999,-50,4,1,0,5,0,0
15108,-500,4,1,0,5,0,0
15217,-100,4,1,0,5,0,0
15434,-50,4,1,0,5,0,0
15543,-500,4,1,0,5,0,0
15652,-100,4,1,0,5,0,0
15869,-50,4,1,0,5,0,0
15978,-500,4,1,0,5,0,0
16086,-100,4,1,0,5,0,0
16304,-50,4,1,0,5,0,0
16413,-500,4,1,0,5,0,0
16521,-100,4,1,0,5,0,0
16739,-50,4,1,0,5,0,0
16847,-500,4,1,0,5,0,0
16956,-100,4,1,0,5,0,0
17173,-50,4,1,0,5,0,0
17282,-500,4,1,0,5,0,0
17391,-100,4,1,0,5,0,0
17608,-50,4,1,0,5,0,0
17717,-500,4,1,0,5,0,0
17826,-100,4,1,0,5,0,0
18043,-50,4,1,0,5,0,0
18152,-500,4,1,0,5,0,0
18260,-100,4,1,0,5,0,0
18478,-50,4,1,0,5,0,0
18586,-500,4,1,0,5,0,0
18695,-100,4,1,0,5,0,0
18913,-50,4,1,0,5,0,0
19021,-500,4,1,0,5,0,0
19130,-50,4,1,0,5,0,0
19239,-200,4,1,0,5,0,0
19347,-50,4,1,0,5,0,0
19456,-200,4,1,0,5,0,0
19565,-50,4,1,0,5,0,0
19673,-200,4,1,0,5,0,0
19782,-50,4,1,0,5,0,0
19999,-1000,4,1,0,5,0,0
20108,-100,4,1,0,5,0,0
34782,-50,4,1,0,5,0,0
34891,-200,4,1,0,5,0,0
34999,-50,4,1,0,5,0,0
35108,-200,4,1,0,5,0,0
35217,-50,4,1,0,5,0,0
35326,-200,4,1,0,5,0,0
35434,-50,4,1,0,5,0,0
35543,-200,4,1,0,5,0,0
35652,-50,4,1,0,5,0,0
35978,-500,4,1,0,5,0,0
36086,-50,4,1,0,5,0,0
36195,-200,4,1,0,5,0,0
36304,-50,4,1,0,5,0,0
36413,-200,4,1,0,5,0,0
36521,-50,4,1,0,5,0,0
36630,-200,4,1,0,5,0,0
36739,-50,4,1,0,5,0,0
36847,-200,4,1,0,5,0,0
36956,-50,4,1,0,5,0,0
37282,-500,4,1,0,5,0,0
37391,-50,4,1,0,5,0,0
37499,-200,4,1,0,5,0,0
37608,-50,4,1,0,5,0,0
37717,-200,4,1,0,5,0,0
37826,-50,4,1,0,5,0,0
37934,-200,4,1,0,5,0,0
38043,-100,4,1,0,5,0,0
38260,-50,4,1,0,5,0,0
38369,-200,4,1,0,5,0,0
38478,-50,4,1,0,5,0,0
38586,-200,4,1,0,5,0,0
38695,-50,4,1,0,5,0,0
38804,-200,4,1,0,5,0,0
38913,-50,4,1,0,5,0,0
39021,-200,4,1,0,5,0,0
39130,-50,4,1,0,5,0,0
39456,-500,4,1,0,5,0,0
39565,-50,4,1,0,5,0,0
39673,-200,4,1,0,5,0,0
39782,-50,4,1,0,5,0,0
39891,-200,4,1,0,5,0,0
39999,-50,4,1,0,5,0,0
40108,-200,4,1,0,5,0,0
40217,-50,4,1,0,5,0,0
40326,-200,4,1,0,5,0,0
40434,-50,4,1,0,5,0,0
40760,-500,4,1,0,5,0,0
40869,-50,4,1,0,5,0,0
40978,-200,4,1,0,5,0,0
41086,-50,4,1,0,5,0,0
41195,-200,4,1,0,5,0,0
41304,-100,4,1,0,5,0,0
41739,-50,4,1,0,5,0,0
41847,-200,4,1,0,5,0,0
41956,-50,4,1,0,5,0,0
42065,-200,4,1,0,5,0,0
42173,-50,4,1,0,5,0,0
42282,-200,4,1,0,5,0,0
42391,-50,4,1,0,5,0,0
42499,-200,4,1,0,5,0,0
42608,-50,4,1,0,5,0,0
42934,-500,4,1,0,5,0,0
43043,-50,4,1,0,5,0,0
43152,-200,4,1,0,5,0,0
43260,-50,4,1,0,5,0,0
43369,-200,4,1,0,5,0,0
43478,-50,4,1,0,5,0,0
43586,-200,4,1,0,5,0,0
43695,-50,4,1,0,5,0,0
43804,-200,4,1,0,5,0,0
43913,-50,4,1,0,5,0,0
44239,-500,4,1,0,5,0,0
44347,-50,4,1,0,5,0,0
44456,-200,4,1,0,5,0,0
44565,-50,4,1,0,5,0,0
44673,-200,4,1,0,5,0,0
44782,-100,4,1,0,5,0,0
45217,-50,4,1,0,5,0,0
45326,-200,4,1,0,5,0,0
45434,-50,4,1,0,5,0,0
45543,-200,4,1,0,5,0,0
45652,-50,4,1,0,5,0,0
45760,-200,4,1,0,5,0,0
45869,-50,4,1,0,5,0,0
45978,-200,4,1,0,5,0,0
46086,-50,4,1,0,5,0,0
46413,-500,4,1,0,5,0,0
46521,-50,4,1,0,5,0,0
46630,-200,4,1,0,5,0,0
46739,-50,4,1,0,5,0,0
46847,-200,4,1,0,5,0,0
46956,-50,4,1,0,5,0,0
47065,-200,4,1,0,5,0,0
47173,-50,4,1,0,5,0,0
47282,-200,4,1,0,5,0,0
47391,-50,4,1,0,5,0,0
47717,-500,4,1,0,5,0,0
47826,-50,4,1,0,5,0,0
47934,-200,4,1,0,5,0,0
48043,-50,4,1,0,5,0,0
48152,-200,4,1,0,5,0,0
48260,-100,4,1,0,5,0,0
48695,-50,4,1,0,5,0,0
48804,-200,4,1,0,5,0,0
48913,-50,4,1,0,5,0,0
49021,-200,4,1,0,5,0,0
49130,-50,4,1,0,5,0,0
49239,-200,4,1,0,5,0,0
49347,-100,4,1,0,5,0,0
49565,-50,4,1,0,5,0,0
49673,-200,4,1,0,5,0,0
49782,-50,4,1,0,5,0,0
49891,-200,4,1,0,5,0,0
49999,-50,4,1,0,5,0,0
50108,-200,4,1,0,5,0,0
50217,-50,4,1,0,5,0,0
50326,-200,4,1,0,5,0,0
50434,-50,4,1,0,5,0,0
50543,-200,4,1,0,5,0,0
50652,-100,4,1,0,5,0,0
50869,-50,4,1,0,5,0,0
50978,-200,4,1,0,5,0,0
51086,-50,4,1,0,5,0,0
51195,-200,4,1,0,5,0,0
51304,-50,4,1,0,5,0,0
51413,-200,4,1,0,5,0,0
51521,-50,4,1,0,5,0,0
51630,-200,4,1,0,5,0,0
51739,-50,4,1,0,5,0,0
51847,-200,4,1,0,5,0,0
51956,-100,4,1,0,5,0,0
52173,-50,4,1,0,5,0,0
52282,-200,4,1,0,5,0,0
52391,-50,4,1,0,5,0,0
52499,-200,4,1,0,5,0,0
52608,-50,4,1,0,5,0,0
52717,-200,4,1,0,5,0,0
52826,-100,4,1,0,5,0,0
53043,-50,4,1,0,5,0,0
53152,-200,4,1,0,5,0,0
53260,-50,4,1,0,5,0,0
53369,-200,4,1,0,5,0,0
53478,-50,4,1,0,5,0,0
53586,-200,4,1,0,5,0,0
53695,-50,4,1,0,5,0,0
53804,-200,4,1,0,5,0,0
53913,-50,4,1,0,5,0,0
54021,-200,4,1,0,5,0,0
54130,-100,4,1,0,5,0,0
54347,-50,4,1,0,5,0,0
54456,-200,4,1,0,5,0,0
54565,-50,4,1,0,5,0,0
54673,-200,4,1,0,5,0,0
54782,-50,4,1,0,5,0,0
54891,-200,4,1,0,5,0,0
54999,-100,4,1,0,5,0,0
55652,-50,4,1,0,5,0,0
55760,-200,4,1,0,5,0,0
55869,-50,4,1,0,5,0,0
55978,-200,4,1,0,5,0,0
56086,-50,4,1,0,5,0,0
56195,-200,4,1,0,5,0,0
56304,-100,4,1,0,5,0,0
56521,-50,4,1,0,5,0,0
56630,-200,4,1,0,5,0,0
56739,-50,4,1,0,5,0,0
56847,-200,4,1,0,5,0,0
56956,-50,4,1,0,5,0,0
57065,-200,4,1,0,5,0,0
57173,-50,4,1,0,5,0,0
57282,-200,4,1,0,5,0,0
57391,-50,4,1,0,5,0,0
57499,-200,4,1,0,5,0,0
57608,-100,4,1,0,5,0,0
57826,-50,4,1,0,5,0,0
57934,-200,4,1,0,5,0,0
58043,-50,4,1,0,5,0,0
58152,-200,4,1,0,5,0,0
58260,-50,4,1,0,5,0,0
58369,-200,4,1,0,5,0,0
58478,-50,4,1,0,5,0,0
58586,-200,4,1,0,5,0,0
58695,-50,4,1,0,5,0,0
58804,-200,4,1,0,5,0,0
58913,-100,4,1,0,5,0,0
59130,-50,4,1,0,5,0,0
59239,-200,4,1,0,5,0,0
59347,-50,4,1,0,5,0,0
59456,-200,4,1,0,5,0,0
59565,-50,4,1,0,5,0,0
59673,-200,4,1,0,5,0,0
59782,-100,4,1,0,5,0,0
59999,-50,4,1,0,5,0,0
60108,-200,4,1,0,5,0,0
60217,-50,4,1,0,5,0,0
60326,-200,4,1,0,5,0,0
60434,-50,4,1,0,5,0,0
60543,-200,4,1,0,5,0,0
60652,-50,4,1,0,5,0,0
60760,-200,4,1,0,5,0,0
60869,-50,4,1,0,5,0,0
60978,-200,4,1,0,5,0,0
61086,-100,4,1,0,5,0,0
61304,-50,4,1,0,5,0,0
61413,-200,4,1,0,5,0,0
61521,-50,4,1,0,5,0,0
61630,-200,4,1,0,5,0,0
61739,-100,4,1,0,5,0,0
64347,-1000,4,1,0,5,0,0
65434,-100,4,1,0,5,0,0
65652,-50,4,1,0,5,0,0
65869,-200,4,1,0,5,0,0
66086,-100,4,1,0,5,0,1
93913,-50,4,1,0,5,0,0
94021,-200,4,1,0,5,0,0
94130,-50,4,1,0,5,0,0
94239,-200,4,1,0,5,0,0
94347,-50,4,1,0,5,0,0
94456,-200,4,1,0,5,0,0
94565,-50,4,1,0,5,0,0
94673,-200,4,1,0,5,0,0
94782,-50,4,1,0,5,0,0
94891,-200,4,1,0,5,0,0
94999,-50,4,1,0,5,0,0
95108,-200,4,1,0,5,0,0
95217,-50,4,1,0,5,0,0
95326,-200,4,1,0,5,0,0
95434,-50,4,1,0,5,0,0
95543,-200,4,1,0,5,0,0
95652,-50,4,1,0,5,0,0
95760,-200,4,1,0,5,0,0
95869,-50,4,1,0,5,0,0
95978,-200,4,1,0,5,0,0
96086,-50,4,1,0,5,0,0
96195,-200,4,1,0,5,0,0
96304,-50,4,1,0,5,0,0
96413,-200,4,1,0,5,0,0
96521,-50,4,1,0,5,0,0
96630,-200,4,1,0,5,0,0
96739,-50,4,1,0,5,0,0
96847,-200,4,1,0,5,0,0
96956,-50,4,1,0,5,0,0
97065,-200,4,1,0,5,0,0
97173,-50,4,1,0,5,0,0
97282,-200,4,1,0,5,0,0
97391,-50,4,1,0,5,0,0
97499,-200,4,1,0,5,0,0
97608,-50,4,1,0,5,0,0
97717,-200,4,1,0,5,0,0
97826,-50,4,1,0,5,0,0
97934,-200,4,1,0,5,0,0
98043,-50,4,1,0,5,0,0
98152,-200,4,1,0,5,0,0
98260,-50,4,1,0,5,0,0
98369,-200,4,1,0,5,0,0
98478,-50,4,1,0,5,0,0
98586,-200,4,1,0,5,0,0
98695,-50,4,1,0,5,0,0
98804,-200,4,1,0,5,0,0
98913,-50,4,1,0,5,0,0
99021,-200,4,1,0,5,0,0
99130,-50,4,1,0,5,0,0
99239,-200,4,1,0,5,0,0
99347,-50,4,1,0,5,0,0
99456,-200,4,1,0,5,0,0
99565,-50,4,1,0,5,0,0
99673,-200,4,1,0,5,0,0
99782,-50,4,1,0,5,0,0
99891,-200,4,1,0,5,0,0
99999,-100,4,1,0,5,0,0
100869,-50,4,1,0,5,0,0
101086,-250,4,1,0,5,0,0
101195,-100,4,1,0,5,0,0
101739,-50,4,1,0,5,0,0
101956,-250,4,1,0,5,0,0
102065,-100,4,1,0,5,0,0
102608,-50,4,1,0,5,0,0
102826,-250,4,1,0,5,0,0
102934,-100,4,1,0,5,0,0
106086,-50,4,1,0,5,0,0
106304,-500,4,1,0,5,0,0
106413,-50,4,1,0,5,0,0
106630,-500,4,1,0,5,0,0
106739,-50,4,1,0,5,0,0
106956,-500,4,1,0,5,0,0
107065,-50,4,1,0,5,0,0
107282,-500,4,1,0,5,0,0
107391,-50,4,1,0,5,0,0
107499,-200,4,1,0,5,0,0
107608,-50,4,1,0,5,0,0
107717,-200,4,1,0,5,0,0
107826,-100,4,1,0,5,0,0

[HitObjects]
64,192,0,5,0,0:0:0:0:
192,192,0,1,0,0:0:0:0:
320,192,434,1,0,0:0:0:0:
192,192,434,1,0,0:0:0:0:
448,192,869,1,0,0:0:0:0:
192,192,869,1,0,0:0:0:0:
448,192,1304,1,0,0:0:0:0:
64,192,1304,1,0,0:0:0:0:
64,192,1739,1,0,0:0:0:0:
320,192,1739,1,0,0:0:0:0:
448,192,2173,1,0,0:0:0:0:
64,192,2173,1,0,0:0:0:0:
192,192,2608,1,0,0:0:0:0:
448,192,2608,1,0,0:0:0:0:
320,192,3043,1,0,0:0:0:0:
448,192,3043,1,0,0:0:0:0:
64,192,3478,1,0,0:0:0:0:
192,192,3478,1,0,0:0:0:0:
64,192,3913,1,0,0:0:0:0:
448,192,3913,1,0,0:0:0:0:
320,192,4347,1,0,0:0:0:0:
448,192,4347,1,0,0:0:0:0:
320,192,4782,1,0,0:0:0:0:
64,192,4782,1,0,0:0:0:0:
64,192,5217,128,0,6521:0:0:0:0:
320,192,6521,1,0,0:0:0:0:
64,192,6956,1,0,0:0:0:0:
320,192,7173,1,0,0:0:0:0:
192,192,7173,1,0,0:0:0:0:
448,192,7391,1,0,0:0:0:0:
64,192,7608,1,0,0:0:0:0:
192,192,7608,1,0,0:0:0:0:
320,192,7826,1,0,0:0:0:0:
448,192,8043,1,0,0:0:0:0:
320,192,8043,1,0,0:0:0:0:
64,192,8260,1,0,0:0:0:0:
192,192,8478,1,0,0:0:0:0:
64,192,8478,1,0,0:0:0:0:
448,192,8695,1,0,0:0:0:0:
320,192,8913,1,0,0:0:0:0:
448,192,8913,1,0,0:0:0:0:
192,192,9130,1,0,0:0:0:0:
64,192,9347,1,0,0:0:0:0:
192,192,9347,1,0,0:0:0:0:
448,192,9565,1,0,0:0:0:0:
64,192,9782,1,0,0:0:0:0:
192,192,9782,1,0,0:0:0:0:
448,192,9999,1,0,0:0:0:0:
192,192,10217,1,0,0:0:0:0:
320,192,10217,1,0,0:0:0:0:
192,192,10434,1,0,0:0:0:0:
320,192,10652,1,0,0:0:0:0:
448,192,10652,1,0,0:0:0:0:
192,192,10869,1,0,0:0:0:0:
64,192,11086,1,0,0:0:0:0:
192,192,11086,1,0,0:0:0:0:
448,192,11304,1,0,0:0:0:0:
320,192,11521,1,0,0:0:0:0:
448,192,11521,1,0,0:0:0:0:
192,192,11739,1,0,0:0:0:0:
192,192,11956,1,0,0:0:0:0:
64,192,11956,1,0,0:0:0:0:
320,192,12173,1,0,0:0:0:0:
320,192,12391,1,0,0:0:0:0:
448,192,12391,1,0,0:0:0:0:
64,192,12608,1,0,0:0:0:0:
192,192,12826,1,0,0:0:0:0:
64,192,12826,1,0,0:0:0:0:
448,192,13043,1,0,0:0:0:0:
192,192,13260,1,0,0:0:0:0:
320,192,13260,1,0,0:0:0:0:
64,192,13478,1,0,0:0:0:0:
64,192,13695,1,0,0:0:0:0:
192,192,13695,1,0,0:0:0:0:
320,192,13913,1,0,0:0:0:0:
320,192,14130,1,0,0:0:0:0:
192,192,14130,1,0,0:0:0:0:
448,192,14347,1,0,0:0:0:0:
448,192,14565,1,0,0:0:0:0:
320,192,14565,1,0,0:0:0:0:
192,192,14782,1,0,0:0:0:0:
64,192,14999,1,0,0:0:0:0:
192,192,14999,1,0,0:0:0:0:
448,192,15217,1,0,0:0:0:0:
192,192,15434,1,0,0:0:0:0:
320,192,15434,1,0,0:0:0:0:
448,192,15652,1,0,0:0:0:0:
320,192,15869,1,0,0:0:0:0:
448,192,15869,1,0,0:0:0:0:
64,192,16086,1,0,0:0:0:0:
64,192,16304,1,0,0:0:0:0:
192,192,16304,1,0,0:0:0:0:
320,192,16521,1,0,0:0:0:0:
320,192,16739,1,0,0:0:0:0:
448,192,16739,1,0,0:0:0:0:
64,192,16956,1,0,0:0:0:0:
64,192,17173,1,0,0:0:0:0:
192,192,17173,1,0,0:0:0:0:
448,192,17391,1,0,0:0:0:0:
320,192,17608,1,0,0:0:0:0:
448,192,17608,1,0,0:0:0:0:
64,192,17826,1,0,0:0:0:0:
192,192,18043,1,0,0:0:0:0:
320,192,18043,1,0,0:0:0:0:
448,192,18260,1,0,0:0:0:0:
192,192,18478,1,0,0:0:0:0:
320,192,18478,1,0,0:0:0:0:
64,192,18695,1,0,0:0:0:0:
192,192,18913,1,0,0:0:0:0:
64,192,18913,1,0,0:0:0:0:
448,192,19130,1,0,0:0:0:0:
192,192,19347,1,0,0:0:0:0:
320,192,19347,1,0,0:0:0:0:
448,192,19565,1,0,0:0:0:0:
64,192,19782,1,0,0:0:0:0:
192,192,19782,1,0,0:0:0:0:
448,192,20108,128,0,20326:0:0:0:0:
192,192,20326,128,0,20543:0:0:0:0:
320,192,20543,128,0,20869:0:0:0:0:
192,192,20869,1,0,0:0:0:0:
64,192,20869,1,0,0:0:0:0:
448,192,20978,1,0,0:0:0:0:
320,192,21086,1,0,0:0:0:0:
192,192,21195,1,0,0:0:0:0:
64,192,21304,1,0,0:0:0:0:
320,192,21413,1,0,0:0:0:0:
192,192,21521,1,0,0:0:0:0:
64,192,21630,1,0,0:0:0:0:
192,192,21847,1,0,0:0:0:0:
320,192,21956,1,0,0:0:0:0:
448,192,22065,1,0,0:0:0:0:
192,192,22173,1,0,0:0:0:0:
64,192,22282,1,0,0:0:0:0:
192,192,22391,1,0,0:0:0:0:
320,192,22499,1,0,0:0:0:0:
64,192,22717,1,0,0:0:0:0:
192,192,22826,1,0,0:0:0:0:
320,192,22934,1,0,0:0:0:0:
448,192,23043,1,0,0:0:0:0:
320,192,23152,1,0,0:0:0:0:
192,192,23260,1,0,0:0:0:0:
64,192,23369,1,0,0:0:0:0:
448,192,23586,1,0,0:0:0:0:
320,192,23695,1,0,0:0:0:0:
64,192,23804,1,0,0:0:0:0:
192,192,23913,1,0,0:0:0:0:
448,192,24021,1,0,0:0:0:0:
320,192,24130,1,0,0:0:0:0:
192,192,24239,1,0,0:0:0:0:
448,192,24456,1,0,0:0:0:0:
320,192,24565,1,0,0:0:0:0:
192,192,24673,1,0,0:0:0:0:
64,192,24782,1,0,0:0:0:0:
192,192,24891,1,0,0:0:0:0:
320,192,24999,1,0,0:0:0:0:
448,192,25108,1,0,0:0:0:0:
320,192,25326,1,0,0:0:0:0:
192,192,25434,1,0,0:0:0:0:
64,192,25543,1,0,0:0:0:0:
192,192,25652,1,0,0:0:0:0:
448,192,25760,1,0,0:0:0:0:
320,192,25869,1,0,0:0:0:0:
192,192,25978,1,0,0:0:0:0:
320,192,26195,1,0,0:0:0:0:
192,192,26304,1,0,0:0:0:0:
64,192,26413,1,0,0:0:0:0:
448,192,26521,1,0,0:0:0:0:
320,192,26630,1,0,0:0:0:0:
192,192,26739,1,0,0:0:0:0:
320,192,26847,1,0,0:0:0:0:
320,192,27065,1,0,0:0:0:0:
448,192,27173,1,0,0:0:0:0:
192,192,27282,1,0,0:0:0:0:
64,192,27391,1,0,0:0:0:0:
192,192,27499,1,0,0:0:0:0:
320,192,27608,1,0,0:0:0:0:
448,192,27717,1,0,0:0:0:0:
64,192,27826,128,0,28260:0:0:0:0:
320,192,28260,1,0,0:0:0:0:
448,192,28369,1,0,0:0:0:0:
192,192,28478,1,0,0:0:0:0:
64,192,28586,1,0,0:0:0:0:
448,192,28804,1,0,0:0:0:0:
320,192,28913,1,0,0:0:0:0:
192,192,29021,1,0,0:0:0:0:
64,192,29130,1,0,0:0:0:0:
192,192,29239,1,0,0:0:0:0:
320,192,29347,1,0,0:0:0:0:
192,192,29456,1,0,0:0:0:0:
64,192,29673,1,0,0:0:0:0:
192,192,29782,1,0,0:0:0:0:
320,192,29891,1,0,0:0:0:0:
448,192,29999,1,0,0:0:0:0:
320,192,30108,1,0,0:0:0:0:
192,192,30217,1,0,0:0:0:0:
320,192,30326,1,0,0:0:0:0:
320,192,30543,1,0,0:0:0:0:
192,192,30652,1,0,0:0:0:0:
64,192,30760,1,0,0:0:0:0:
448,192,30869,1,0,0:0:0:0:
320,192,30978,1,0,0:0:0:0:
192,192,31086,1,0,0:0:0:0:
64,192,31195,1,0,0:0:0:0:
64,192,31413,1,0,0:0:0:0:
192,192,31521,1,0,0:0:0:0:
320,192,31630,1,0,0:0:0:0:
64,192,31739,1,0,0:0:0:0:
192,192,31847,1,0,0:0:0:0:
320,192,31956,1,0,0:0:0:0:
448,192,32065,1,0,0:0:0:0:
64,192,32282,1,0,0:0:0:0:
192,192,32391,1,0,0:0:0:0:
320,192,32499,1,0,0:0:0:0:
448,192,32608,1,0,0:0:0:0:
64,192,32717,1,0,0:0:0:0:
192,192,32826,1,0,0:0:0:0:
320,192,32934,1,0,0:0:0:0:
448,192,33152,1,0,0:0:0:0:
320,192,33260,1,0,0:0:0:0:
192,192,33369,1,0,0:0:0:0:
64,192,33478,1,0,0:0:0:0:
448,192,33586,1,0,0:0:0:0:
320,192,33695,1,0,0:0:0:0:
192,192,33804,1,0,0:0:0:0:
320,192,34021,1,0,0:0:0:0:
192,192,34130,1,0,0:0:0:0:
64,192,34239,1,0,0:0:0:0:
192,192,34347,1,0,0:0:0:0:
320,192,34456,1,0,0:0:0:0:
448,192,34565,1,0,0:0:0:0:
320,192,34673,1,0,0:0:0:0:
192,192,34782,1,0,0:0:0:0:
448,192,35217,1,0,0:0:0:0:
320,192,35217,1,0,0:0:0:0:
448,192,35652,1,0,0:0:0:0:
192,192,35652,1,0,0:0:0:0:
64,192,36086,1,0,0:0:0:0:
192,192,36086,1,0,0:0:0:0:
448,192,36521,1,0,0:0:0:0:
320,192,36521,1,0,0:0:0:0:
448,192,36956,1,0,0:0:0:0:
64,192,36956,1,0,0:0:0:0:
448,192,37391,1,0,0:0:0:0:
64,192,37391,1,0,0:0:0:0:
320,192,37826,1,0,0:0:0:0:
448,192,37826,1,0,0:0:0:0:
320,192,38152,1,0,0:0:0:0:
64,192,38260,1,0,0:0:0:0:
192,192,38260,1,0,0:0:0:0:
192,192,38695,1,0,0:0:0:0:
448,192,38695,1,0,0:0:0:0:
448,192,39130,1,0,0:0:0:0:
320,192,39130,1,0,0:0:0:0:
192,192,39565,1,0,0:0:0:0:
64,192,39565,1,0,0:0:0:0:
192,192,39999,1,0,0:0:0:0:
320,192,39999,1,0,0:0:0:0:
192,192,40434,1,0,0:0:0:0:
448,192,40434,1,0,0:0:0:0:
64,192,40869,1,0,0:0:0:0:
320,192,40869,1,0,0:0:0:0:
192,192,41304,1,0,0:0:0:0:
320,192,41304,1,0,0:0:0:0:
192,192,41630,1,0,0:0:0:0:
320,192,41739,1,0,0:0:0:0:
448,192,41739,1,0,0:0:0:0:
192,192,42173,1,0,0:0:0:0:
320,192,42173,1,0,0:0:0:0:
192,192,42608,1,0,0:0:0:0:
64,192,42608,1,0,0:0:0:0:
448,192,43043,1,0,0:0:0:0:
320,192,43043,1,0,0:0:0:0:
64,192,43478,1,0,0:0:0:0:
320,192,43478,1,0,0:0:0:0:
64,192,43913,1,0,0:0:0:0:
192,192,43913,1,0,0:0:0:0:
64,192,44347,1,0,0:0:0:0:
448,192,44347,1,0,0:0:0:0:
448,192,44782,1,0,0:0:0:0:
320,192,44782,1,0,0:0:0:0:
320,192,45108,1,0,0:0:0:0:
64,192,45217,1,0,0:0:0:0:
192,192,45217,1,0,0:0:0:0:
448,192,45652,1,0,0:0:0:0:
320,192,45652,1,0,0:0:0:0:
64,192,46086,1,0,0:0:0:0:
320,192,46086,1,0,0:0:0:0:
448,192,46521,1,0,0:0:0:0:
320,192,46521,1,0,0:0:0:0:
64,192,46956,1,0,0:0:0:0:
320,192,46956,1,0,0:0:0:0:
64,192,47391,1,0,0:0:0:0:
192,192,47391,1,0,0:0:0:0:
192,192,47826,1,0,0:0:0:0:
448,192,47826,1,0,0:0:0:0:
64,192,48260,1,0,0:0:0:0:
192,192,48260,1,0,0:0:0:0:
192,192,48586,1,0,0:0:0:0:
448,192,48695,1,0,0:0:0:0:
320,192,48695,1,0,0:0:0:0:
320,192,49130,1,0,0:0:0:0:
64,192,49130,1,0,0:0:0:0:
320,192,49456,1,0,0:0:0:0:
64,192,49565,1,0,0:0:0:0:
192,192,49565,1,0,0:0:0:0:
320,192,49999,1,0,0:0:0:0:
64,192,49999,1,0,0:0:0:0:
320,192,50434,1,0,0:0:0:0:
192,192,50434,1,0,0:0:0:0:
192,192,50760,1,0,0:0:0:0:
320,192,50869,1,0,0:0:0:0:
448,192,50869,1,0,0:0:0:0:
448,192,51304,1,0,0:0:0:0:
192,192,51304,1,0,0:0:0:0:
320,192,51739,1,0,0:0:0:0:
192,192,51739,1,0,0:0:0:0:
448,192,52065,1,0,0:0:0:0:
192,192,52173,1,0,0:0:0:0:
64,192,52173,1,0,0:0:0:0:
192,192,52608,1,0,0:0:0:0:
448,192,52608,1,0,0:0:0:0:
448,192,53043,1,0,0:0:0:0:
320,192,53043,1,0,0:0:0:0:
448,192,53478,1,0,0:0:0:0:
64,192,53478,1,0,0:0:0:0:
64,192,53913,1,0,0:0:0:0:
320,192,53913,1,0,0:0:0:0:
64,192,54239,1,0,0:0:0:0:
320,192,54347,1,0,0:0:0:0:
192,192,54347,1,0,0:0:0:0:
64,192,54782,1,0,0:0:0:0:
192,192,54782,1,0,0:0:0:0:
320,192,54999,1,0,0:0:0:0:
64,192,55144,1,0,0:0:0:0:
192,192,55289,1,0,0:0:0:0:
448,192,55434,1,0,0:0:0:0:
64,192,55579,1,0,0:0:0:0:
320,192,55652,1,0,0:0:0:0:
448,192,55652,1,0,0:0:0:0:
192,192,56086,1,0,0:0:0:0:
320,192,56086,1,0,0:0:0:0:
448,192,56413,1,0,0:0:0:0:
192,192,56521,1,0,0:0:0:0:
64,192,56521,1,0,0:0:0:0:
448,192,56956,1,0,0:0:0:0:
192,192,56956,1,0,0:0:0:0:
64,192,57391,1,0,0:0:0:0:
192,192,57391,1,0,0:0:0:0:
64,192,57717,1,0,0:0:0:0:
320,192,57826,1,0,0:0:0:0:
448,192,57826,1,0,0:0:0:0:
64,192,58260,1,0,0:0:0:0:
320,192,58260,1,0,0:0:0:0:
192,192,58695,1,0,0:0:0:0:
320,192,58695,1,0,0:0:0:0:
448,192,59021,1,0,0:0:0:0:
192,192,59130,1,0,0:0:0:0:
64,192,59130,1,0,0:0:0:0:
320,192,59565,1,0,0:0:0:0:
448,192,59565,1,0,0:0:0:0:
320,192,59891,1,0,0:0:0:0:
192,192,59999,1,0,0:0:0:0:
64,192,59999,1,0,0:0:0:0:
448,192,60434,1,0,0:0:0:0:
320,192,60434,1,0,0:0:0:0:
192,192,60869,1,0,0:0:0:0:
320,192,60869,1,0,0:0:0:0:
64,192,61195,1,0,0:0:0:0:
320,192,61304,1,0,0:0:0:0:
448,192,61304,1,0,0:0:0:0:
192,192,61739,1,0,0:0:0:0:
320,192,61884,1,0,0:0:0:0:
192,192,62028,1,0,0:0:0:0:
320,192,62173,1,0,0:0:0:0:
192,192,62318,1,0,0:0:0:0:
320,192,62463,1,0,0:0:0:0:
448,192,64347,128,0,65652:0:0:0:0:
192,192,65652,1,0,0:0:0:0:
448,192,66086,128,0,66304:0:0:0:0:
64,192,66304,128,0,66521:0:0:0:0:
448,192,66521,128,0,66739:0:0:0:0:
64,192,66739,128,0,66956:0:0:0:0:
448,192,66956,128,0,67173:0:0:0:0:
320,192,67282,128,0,67499:0:0:0:0:
192,192,67608,128,0,67826:0:0:0:0:
448,192,67826,128,0,68043:0:0:0:0:
192,192,68043,128,0,68260:0:0:0:0:
320,192,68260,128,0,68478:0:0:0:0:
64,192,68478,128,0,68695:0:0:0:0:
448,192,68695,128,0,68913:0:0:0:0:
192,192,68913,128,0,69130:0:0:0:0:
448,192,69130,128,0,69347:0:0:0:0:
320,192,69347,128,0,69565:0:0:0:0:
64,192,69565,128,0,69782:0:0:0:0:
448,192,69782,128,0,69999:0:0:0:0:
64,192,69999,128,0,70217:0:0:0:0:
448,192,70217,128,0,70434:0:0:0:0:
64,192,70434,128,0,70652:0:0:0:0:
192,192,70760,128,0,70978:0:0:0:0:
320,192,71086,128,0,71304:0:0:0:0:
64,192,71304,128,0,71521:0:0:0:0:
448,192,71521,128,0,71739:0:0:0:0:
192,192,71739,128,0,71956:0:0:0:0:
320,192,71956,128,0,72173:0:0:0:0:
64,192,72173,128,0,72391:0:0:0:0:
192,192,72391,128,0,72608:0:0:0:0:
448,192,72608,128,0,72826:0:0:0:0:
320,192,72826,128,0,73043:0:0:0:0:
64,192,73043,128,0,73260:0:0:0:0:
448,192,73260,128,0,73478:0:0:0:0:
64,192,73478,128,0,73695:0:0:0:0:
448,192,73695,128,0,73913:0:0:0:0:
320,192,73913,128,0,74130:0:0:0:0:
64,192,74239,128,0,74456:0:0:0:0:
448,192,74565,128,0,74782:0:0:0:0:
64,192,74782,128,0,74999:0:0:0:0:
192,192,74999,128,0,75217:0:0:0:0:
448,192,75217,128,0,75434:0:0:0:0:
320,192,75434,128,0,75652:0:0:0:0:
64,192,75652,128,0,75869:0:0:0:0:
320,192,75869,128,0,76086:0:0:0:0:
64,192,76086,128,0,76304:0:0:0:0:
448,192,76304,128,0,76521:0:0:0:0:
320,192,76521,128,0,76739:0:0:0:0:
192,192,76739,128,0,76956:0:0:0:0:
320,192,76956,128,0,77173:0:0:0:0:
192,192,77173,128,0,77391:0:0:0:0:
64,192,77391,128,0,77608:0:0:0:0:
192,192,77717,128,0,77934:0:0:0:0:
448,192,78043,128,0,78260:0:0:0:0:
64,192,78260,128,0,78478:0:0:0:0:
192,192,78478,128,0,78695:0:0:0:0:
320,192,78695,128,0,78913:0:0:0:0:
448,192,78913,128,0,79130:0:0:0:0:
320,192,79130,128,0,79347:0:0:0:0:
192,192,79347,128,0,79565:0:0:0:0:
64,192,79565,128,0,79782:0:0:0:0:
448,192,79782,128,0,79999:0:0:0:0:
64,192,79999,128,0,80217:0:0:0:0:
448,192,80217,128,0,80434:0:0:0:0:
64,192,80434,128,0,80652:0:0:0:0:
448,192,80652,128,0,80869:0:0:0:0:
64,192,80869,128,0,81086:0:0:0:0:
192,192,81195,128,0,81413:0:0:0:0:
320,192,81521,128,0,81739:0:0:0:0:
64,192,81739,128,0,81956:0:0:0:0:
448,192,81956,128,0,82173:0:0:0:0:
192,192,82173,128,0,82391:0:0:0:0:
320,192,82391,128,0,82608:0:0:0:0:
448,192,82608,128,0,82826:0:0:0:0:
64,192,82826,128,0,83043:0:0:0:0:
320,192,83043,128,0,83260:0:0:0:0:
192,192,83260,128,0,83478:0:0:0:0:
448,192,83478,128,0,83695:0:0:0:0:
64,192,83695,128,0,83913:0:0:0:0:
448,192,83913,128,0,84130:0:0:0:0:
64,192,84130,128,0,84347:0:0:0:0:
448,192,84347,128,0,84565:0:0:0:0:
320,192,84673,128,0,84891:0:0:0:0:
192,192,84999,128,0,85217:0:0:0:0:
64,192,85217,128,0,85434:0:0:0:0:
320,192,85434,128,0,85652:0:0:0:0:
448,192,85652,128,0,85869:0:0:0:0:
192,192,85869,128,0,86086:0:0:0:0:
64,192,86086,128,0,86304:0:0:0:0:
448,192,86304,128,0,86521:0:0:0:0:
192,192,86521,128,0,86739:0:0:0:0:
320,192,86739,128,0,86956:0:0:0:0:
64,192,86956,128,0,87173:0:0:0:0:
448,192,87173,128,0,87391:0:0:0:0:
64,192,87391,128,0,87608:0:0:0:0:
448,192,87608,128,0,87826:0:0:0:0:
192,192,87826,128,0,88043:0:0:0:0:
448,192,88152,128,0,88369:0:0:0:0:
320,192,88478,128,0,88695:0:0:0:0:
448,192,88695,128,0,88913:0:0:0:0:
192,192,88913,128,0,89130:0:0:0:0:
320,192,89130,128,0,89347:0:0:0:0:
64,192,89347,128,0,89565:0:0:0:0:
448,192,89565,128,0,89782:0:0:0:0:
192,192,89782,128,0,89999:0:0:0:0:
64,192,89999,128,0,90217:0:0:0:0:
448,192,90217,128,0,90434:0:0:0:0:
320,192,90434,128,0,90652:0:0:0:0:
192,192,90652,128,0,90869:0:0:0:0:
320,192,90869,128,0,91086:0:0:0:0:
192,192,91086,128,0,91304:0:0:0:0:
448,192,91304,128,0,91521:0:0:0:0:
64,192,91521,128,0,91739:0:0:0:0:
448,192,91739,128,0,91956:0:0:0:0:
64,192,91956,128,0,92173:0:0:0:0:
448,192,92173,128,0,92391:0:0:0:0:
192,192,92391,128,0,92608:0:0:0:0:
320,192,92608,128,0,92826:0:0:0:0:
64,192,92826,128,0,93043:0:0:0:0:
192,192,93043,128,0,93260:0:0:0:0:
320,192,93260,128,0,93478:0:0:0:0:
448,192,93478,128,0,93695:0:0:0:0:
320,192,93695,128,0,93913:0:0:0:0:
64,192,93913,1,0,0:0:0:0:
448,192,94130,1,0,0:0:0:0:
64,192,94347,1,0,0:0:0:0:
192,192,94347,1,0,0:0:0:0:
192,192,94565,1,0,0:0:0:0:
320,192,94782,1,0,0:0:0:0:
448,192,94782,1,0,0:0:0:0:
320,192,94999,1,0,0:0:0:0:
192,192,95217,1,0,0:0:0:0:
64,192,95217,1,0,0:0:0:0:
320,192,95434,1,0,0:0:0:0:
64,192,95652,1,0,0:0:0:0:
192,192,95652,1,0,0:0:0:0:
448,192,95869,1,0,0:0:0:0:
192,192,96086,1,0,0:0:0:0:
320,192,96086,1,0,0:0:0:0:
64,192,96304,1,0,0:0:0:0:
448,192,96521,1,0,0:0:0:0:
320,192,96521,1,0,0:0:0:0:
320,192,96739,1,0,0:0:0:0:
192,192,96956,1,0,0:0:0:0:
64,192,96956,1,0,0:0:0:0:
64,192,97173,1,0,0:0:0:0:
448,192,97391,1,0,0:0:0:0:
320,192,97391,1,0,0:0:0:0:
192,192,97608,1,0,0:0:0:0:
448,192,97826,1,0,0:0:0:0:
320,192,97826,1,0,0:0:0:0:
320,192,98043,1,0,0:0:0:0:
64,192,98260,1,0,0:0:0:0:
192,192,98260,1,0,0:0:0:0:
448,192,98478,1,0,0:0:0:0:
64,192,98695,1,0,0:0:0:0:
192,192,98695,1,0,0:0:0:0:
192,192,98913,1,0,0:0:0:0:
448,192,99130,1,0,0:0:0:0:
320,192,99130,1,0,0:0:0:0:
320,192,99347,1,0,0:0:0:0:
192,192,99565,1,0,0:0:0:0:
64,192,99565,1,0,0:0:0:0:
448,192,99782,1,0,0:0:0:0:
192,192,99999,1,0,0:0:0:0:
320,192,99999,1,0,0:0:0:0:
320,192,100217,1,0,0:0:0:0:
64,192,100362,1,0,0:0:0:0:
192,192,100507,1,0,0:0:0:0:
448,192,100652,1,0,0:0:0:0:
64,192,100797,1,0,0:0:0:0:
448,192,100869,1,0,0:0:0:0:
320,192,100869,1,0,0:0:0:0:
64,192,101195,1,0,0:0:0:0:
192,192,101195,1,0,0:0:0:0:
192,192,101630,1,0,0:0:0:0:
320,192,101739,1,0,0:0:0:0:
448,192,101739,1,0,0:0:0:0:
448,192,102065,1,0,0:0:0:0:
192,192,102065,1,0,0:0:0:0:
64,192,102499,1,0,0:0:0:0:
192,192,102608,1,0,0:0:0:0:
320,192,102608,1,0,0:0:0:0:
448,192,102934,1,0,0:0:0:0:
64,192,102934,1,0,0:0:0:0:
320,192,103369,1,0,0:0:0:0:
64,192,103478,1,0,0:0:0:0:
192,192,103478,1,0,0:0:0:0:
64,192,103804,1,0,0:0:0:0:
320,192,103913,1,0,0:0:0:0:
448,192,103913,1,0,0:0:0:0:
448,192,104239,1,0,0:0:0:0:
320,192,104347,1,0,0:0:0:0:
192,192,104347,1,0,0:0:0:0:
192,192,104565,1,0,0:0:0:0:
448,192,104782,1,0,0:0:0:0:
192,192,104891,1,0,0:0:0:0:
320,192,104999,1,0,0:0:0:0:
192,192,105217,1,0,0:0:0:0:
64,192,105434,1,0,0:0:0:0:
320,192,105543,1,0,0:0:0:0:
192,192,105652,1,0,0:0:0:0:
448,192,105869,1,0,0:0:0:0:
320,192,106086,1,0,0:0:0:0:
64,192,106413,1,0,0:0:0:0:
448,192,106739,1,0,0:0:0:0:
64,192,107065,1,0,0:0:0:0:
192,192,107391,1,0,0:0:0:0:
320,192,107608,1,0,0:0:0:0:
192,192,107826,1,0,0:0:0:0:
