osu file format v14

[General]
AudioFilename: dynasty.mp3
AudioLeadIn: 0
PreviewTime: 36655
Countdown: 0
SampleSet: Soft
StackLeniency: 0.7
Mode: 3
LetterboxInBreaks: 0
SpecialStyle: 0
WidescreenStoryboard: 1

[Editor]
DistanceSpacing: 1.1
BeatDivisor: 4
GridSize: 16
TimelineZoom: 1

[Metadata]
Title:Dynasty
TitleUnicode:Dynasty
Artist:Yooh
ArtistUnicode:Yooh
Creator:Maou - sama
Version:ADVANCED
Source:SOUND VOLTEX BOOTH
Tags:SDVX DrawdeX
BeatmapID:535400
BeatmapSetID:230125

[Difficulty]
HPDrainRate:7
CircleSize:4
OverallDifficulty:8
ApproachRate:5
SliderMultiplier:1.4
SliderTickRate:1

[Events]
//Background and Video events
0,0,"Space-BG.jpg",0,0
//Break Periods
//Storyboard Layer 0 (Background)
//Storyboard Layer 1 (Fail)
//Storyboard Layer 2 (Pass)
//Storyboard Layer 3 (Foreground)
//Storyboard Sound Samples

[TimingPoints]
775,317.460317460317,4,2,0,40,1,0
36965,-100,4,2,0,40,0,1
52203,-100,4,2,0,40,0,0
66489,-303.030303030303,4,2,0,40,0,0
66727,-75.187969924812,4,2,0,40,0,0
66806,-303.030303030303,4,2,0,40,0,0
67044,-125,4,2,0,40,0,0
67759,-100,4,2,0,40,0,0
68076,-100,4,2,0,40,0,1
83314,-100,4,2,0,40,0,0
111886,-200,4,2,0,40,0,0

[HitObjects]
320,192,457,128,0,775:0:0:0:0:
64,192,775,5,0,0:0:0:0:
448,192,775,1,0,0:0:0:0:
192,192,1251,1,0,0:0:0:0:
320,192,1251,1,0,0:0:0:0:
64,192,1727,1,0,0:0:0:0:
448,192,1727,1,0,0:0:0:0:
192,192,2203,1,0,0:0:0:0:
448,192,2203,1,0,0:0:0:0:
448,192,2679,1,0,0:0:0:0:
192,192,2679,1,0,0:0:0:0:
320,192,2997,1,0,0:0:0:0:
64,192,2997,1,0,0:0:0:0:
448,192,3314,1,0,0:0:0:0:
192,192,3314,1,0,0:0:0:0:
192,192,3790,1,0,0:0:0:0:
320,192,3790,1,0,0:0:0:0:
448,192,4267,1,0,0:0:0:0:
64,192,4267,1,0,0:0:0:0:
320,192,4743,1,0,0:0:0:0:
192,192,4743,1,0,0:0:0:0:
64,192,5219,1,0,0:0:0:0:
320,192,5219,1,0,0:0:0:0:
448,192,5536,1,0,0:0:0:0:
192,192,5536,1,0,0:0:0:0:
320,192,5854,1,0,0:0:0:0:
448,192,5854,1,0,0:0:0:0:
64,192,6330,1,0,0:0:0:0:
448,192,6330,1,0,0:0:0:0:
320,192,6806,1,0,0:0:0:0:
192,192,6806,1,0,0:0:0:0:
64,192,7282,1,0,0:0:0:0:
448,192,7282,1,0,0:0:0:0:
192,192,7759,1,0,0:0:0:0:
448,192,7759,1,0,0:0:0:0:
64,192,8076,1,0,0:0:0:0:
320,192,8076,1,0,0:0:0:0:
192,192,8394,1,0,0:0:0:0:
448,192,8394,1,0,0:0:0:0:
320,192,8870,1,0,0:0:0:0:
64,192,8870,1,0,0:0:0:0:
192,192,9346,1,0,0:0:0:0:
448,192,9346,1,0,0:0:0:0:
320,192,9822,1,0,0:0:0:0:
64,192,9822,1,0,0:0:0:0:
192,192,9981,1,0,0:0:0:0:
320,192,10140,1,0,0:0:0:0:
448,192,10298,1,0,0:0:0:0:
192,192,10298,1,0,0:0:0:0:
320,192,10457,1,0,0:0:0:0:
192,192,10616,1,0,0:0:0:0:
64,192,10616,1,0,0:0:0:0:
320,192,10933,1,0,0:0:0:0:
192,192,10933,1,0,0:0:0:0:
448,192,10933,1,0,0:0:0:0:
448,192,11251,1,0,0:0:0:0:
320,192,11251,1,0,0:0:0:0:
64,192,11409,1,0,0:0:0:0:
320,192,11568,1,0,0:0:0:0:
192,192,11727,1,0,0:0:0:0:
64,192,11886,1,0,0:0:0:0:
448,192,11886,1,0,0:0:0:0:
192,192,12203,1,0,0:0:0:0:
448,192,12203,1,0,0:0:0:0:
64,192,12362,1,0,0:0:0:0:
320,192,12362,1,0,0:0:0:0:
320,192,12679,1,0,0:0:0:0:
448,192,12838,1,0,0:0:0:0:
192,192,12838,1,0,0:0:0:0:
192,192,13155,1,0,0:0:0:0:
320,192,13155,1,0,0:0:0:0:
64,192,13473,1,0,0:0:0:0:
320,192,13473,1,0,0:0:0:0:
192,192,13632,1,0,0:0:0:0:
320,192,13790,1,0,0:0:0:0:
448,192,13790,1,0,0:0:0:0:
192,192,13949,1,0,0:0:0:0:
448,192,14108,1,0,0:0:0:0:
64,192,14108,1,0,0:0:0:0:
320,192,14267,1,0,0:0:0:0:
192,192,14425,1,0,0:0:0:0:
448,192,14425,1,0,0:0:0:0:
64,192,14743,1,0,0:0:0:0:
320,192,14743,1,0,0:0:0:0:
192,192,14901,1,0,0:0:0:0:
448,192,14901,1,0,0:0:0:0:
64,192,15378,1,0,0:0:0:0:
448,192,15378,1,0,0:0:0:0:
320,192,15378,1,0,0:0:0:0:
320,192,15695,1,0,0:0:0:0:
192,192,15695,1,0,0:0:0:0:
64,192,16013,1,0,0:0:0:0:
192,192,16013,1,0,0:0:0:0:
448,192,16013,1,0,0:0:0:0:
192,192,16330,1,0,0:0:0:0:
448,192,16330,1,0,0:0:0:0:
320,192,16489,1,0,0:0:0:0:
64,192,16489,1,0,0:0:0:0:
448,192,16806,1,0,0:0:0:0:
192,192,16965,1,0,0:0:0:0:
64,192,16965,1,0,0:0:0:0:
320,192,17282,1,0,0:0:0:0:
192,192,17441,1,0,0:0:0:0:
64,192,17441,1,0,0:0:0:0:
320,192,17759,1,0,0:0:0:0:
448,192,17917,1,0,0:0:0:0:
192,192,17917,1,0,0:0:0:0:
64,192,18076,1,0,0:0:0:0:
320,192,18076,1,0,0:0:0:0:
192,192,18235,1,0,0:0:0:0:
64,192,18235,1,0,0:0:0:0:
448,192,18394,1,0,0:0:0:0:
320,192,18394,1,0,0:0:0:0:
448,192,18552,1,0,0:0:0:0:
64,192,18552,1,0,0:0:0:0:
448,192,18711,1,0,0:0:0:0:
192,192,18711,1,0,0:0:0:0:
320,192,18870,1,0,0:0:0:0:
64,192,18870,1,0,0:0:0:0:
192,192,19028,1,0,0:0:0:0:
320,192,19108,1,0,0:0:0:0:
448,192,19187,1,0,0:0:0:0:
192,192,19187,1,0,0:0:0:0:
320,192,19267,1,0,0:0:0:0:
64,192,19267,1,0,0:0:0:0:
192,192,19346,1,0,0:0:0:0:
320,192,19425,1,0,0:0:0:0:
448,192,19505,1,0,0:0:0:0:
320,192,19584,1,0,0:0:0:0:
192,192,19663,1,0,0:0:0:0:
64,192,19743,1,0,0:0:0:0:
192,192,19822,1,0,0:0:0:0:
320,192,19822,1,0,0:0:0:0:
192,192,21727,1,0,0:0:0:0:
64,192,21806,1,0,0:0:0:0:
192,192,21886,1,0,0:0:0:0:
448,192,22044,1,0,0:0:0:0:
320,192,22203,1,0,0:0:0:0:
64,192,22362,1,0,0:0:0:0:
320,192,22521,1,0,0:0:0:0:
192,192,22679,1,0,0:0:0:0:
448,192,22679,1,0,0:0:0:0:
192,192,22997,1,0,0:0:0:0:
320,192,22997,1,0,0:0:0:0:
64,192,23314,1,0,0:0:0:0:
320,192,23314,1,0,0:0:0:0:
448,192,23632,1,0,0:0:0:0:
320,192,23711,1,0,0:0:0:0:
448,192,23790,1,0,0:0:0:0:
64,192,23949,1,0,0:0:0:0:
320,192,24108,1,0,0:0:0:0:
192,192,24267,1,0,0:0:0:0:
448,192,24425,1,0,0:0:0:0:
64,192,24584,1,0,0:0:0:0:
320,192,24584,1,0,0:0:0:0:
192,192,24901,1,0,0:0:0:0:
320,192,24901,1,0,0:0:0:0:
192,192,25219,1,0,0:0:0:0:
448,192,25219,1,0,0:0:0:0:
64,192,25536,1,0,0:0:0:0:
192,192,25616,1,0,0:0:0:0:
64,192,25695,1,0,0:0:0:0:
448,192,25854,1,0,0:0:0:0:
320,192,26013,1,0,0:0:0:0:
64,192,26171,1,0,0:0:0:0:
192,192,26330,1,0,0:0:0:0:
64,192,26489,1,0,0:0:0:0:
320,192,26489,1,0,0:0:0:0:
448,192,26648,1,0,0:0:0:0:
192,192,26806,1,0,0:0:0:0:
320,192,26806,1,0,0:0:0:0:
64,192,26965,1,0,0:0:0:0:
192,192,27124,1,0,0:0:0:0:
448,192,27124,1,0,0:0:0:0:
320,192,27282,1,0,0:0:0:0:
448,192,27441,1,0,0:0:0:0:
64,192,27441,128,0,27759:0:0:0:0:
448,192,27759,128,0,28076:0:0:0:0:
192,192,27759,1,0,0:0:0:0:
192,192,28076,128,0,28394:0:0:0:0:
320,192,28076,1,0,0:0:0:0:
64,192,28394,128,0,28711:0:0:0:0:
448,192,28394,1,0,0:0:0:0:
320,192,28711,128,0,29028:0:0:0:0:
448,192,28711,1,0,0:0:0:0:
192,192,29028,1,0,0:0:0:0:
64,192,29028,1,0,0:0:0:0:
448,192,29346,1,0,0:0:0:0:
320,192,29425,1,0,0:0:0:0:
448,192,29505,1,0,0:0:0:0:
64,192,29663,1,0,0:0:0:0:
192,192,29663,1,0,0:0:0:0:
320,192,29822,1,0,0:0:0:0:
192,192,29981,1,0,0:0:0:0:
448,192,29981,1,0,0:0:0:0:
64,192,30140,1,0,0:0:0:0:
320,192,30298,1,0,0:0:0:0:
448,192,30298,1,0,0:0:0:0:
192,192,30457,1,0,0:0:0:0:
320,192,30616,1,0,0:0:0:0:
64,192,30616,1,0,0:0:0:0:
448,192,30774,1,0,0:0:0:0:
320,192,30933,1,0,0:0:0:0:
64,192,30933,1,0,0:0:0:0:
192,192,31251,1,0,0:0:0:0:
64,192,31330,1,0,0:0:0:0:
192,192,31409,1,0,0:0:0:0:
320,192,31568,1,0,0:0:0:0:
448,192,31568,1,0,0:0:0:0:
192,192,31727,1,0,0:0:0:0:
64,192,31886,1,0,0:0:0:0:
320,192,31886,1,0,0:0:0:0:
192,192,32044,1,0,0:0:0:0:
448,192,32203,1,0,0:0:0:0:
320,192,32203,1,0,0:0:0:0:
64,192,32362,1,0,0:0:0:0:
192,192,32521,1,0,0:0:0:0:
320,192,32521,1,0,0:0:0:0:
448,192,32679,1,0,0:0:0:0:
320,192,32838,1,0,0:0:0:0:
64,192,32838,1,0,0:0:0:0:
192,192,32997,1,0,0:0:0:0:
320,192,33155,1,0,0:0:0:0:
64,192,33155,1,0,0:0:0:0:
192,192,33473,1,0,0:0:0:0:
448,192,33473,1,0,0:0:0:0:
320,192,33632,1,0,0:0:0:0:
192,192,33790,1,0,0:0:0:0:
448,192,33790,1,0,0:0:0:0:
320,192,34108,1,0,0:0:0:0:
64,192,34108,1,0,0:0:0:0:
192,192,34267,1,0,0:0:0:0:
320,192,34425,1,0,0:0:0:0:
448,192,34425,1,0,0:0:0:0:
192,192,34743,1,0,0:0:0:0:
448,192,34743,1,0,0:0:0:0:
320,192,34901,1,0,0:0:0:0:
448,192,35060,1,0,0:0:0:0:
64,192,35060,128,0,36330:0:0:0:0:
320,192,35219,1,0,0:0:0:0:
192,192,35378,1,0,0:0:0:0:
448,192,35378,1,0,0:0:0:0:
320,192,35536,1,0,0:0:0:0:
448,192,35695,1,0,0:0:0:0:
192,192,35854,1,0,0:0:0:0:
320,192,36013,1,0,0:0:0:0:
448,192,36171,1,0,0:0:0:0:
192,192,36330,1,0,0:0:0:0:
320,192,36489,1,0,0:0:0:0:
448,192,36648,1,0,0:0:0:0:
192,192,36806,1,0,0:0:0:0:
320,192,36965,1,0,0:0:0:0:
64,192,36965,128,0,37124:0:0:0:0:
192,192,37282,1,0,0:0:0:0:
448,192,37441,128,0,37600:0:0:0:0:
320,192,37441,1,0,0:0:0:0:
320,192,37759,1,0,0:0:0:0:
192,192,37917,1,0,0:0:0:0:
64,192,37917,128,0,38076:0:0:0:0:
448,192,38235,1,0,0:0:0:0:
320,192,38235,128,0,38394:0:0:0:0:
192,192,38552,1,0,0:0:0:0:
448,192,38552,1,0,0:0:0:0:
320,192,38711,1,0,0:0:0:0:
192,192,38870,1,0,0:0:0:0:
64,192,38870,128,0,39028:0:0:0:0:
320,192,39028,1,0,0:0:0:0:
448,192,39187,1,0,0:0:0:0:
192,192,39187,1,0,0:0:0:0:
320,192,39346,1,0,0:0:0:0:
64,192,39346,128,0,39505:0:0:0:0:
448,192,39505,1,0,0:0:0:0:
192,192,39663,1,0,0:0:0:0:
320,192,39822,1,0,0:0:0:0:
448,192,39822,128,0,39981:0:0:0:0:
64,192,40140,1,0,0:0:0:0:
192,192,40140,128,0,40298:0:0:0:0:
448,192,40457,1,0,0:0:0:0:
192,192,40616,1,0,0:0:0:0:
64,192,40774,1,0,0:0:0:0:
320,192,40774,128,0,40933:0:0:0:0:
448,192,40933,1,0,0:0:0:0:
448,192,41092,1,0,0:0:0:0:
192,192,41251,128,0,41409:0:0:0:0:
64,192,41251,1,0,0:0:0:0:
320,192,41409,1,0,0:0:0:0:
320,192,41568,1,0,0:0:0:0:
64,192,41727,128,0,41886:0:0:0:0:
448,192,41727,1,0,0:0:0:0:
192,192,41886,1,0,0:0:0:0:
320,192,42044,1,0,0:0:0:0:
448,192,42044,128,0,42203:0:0:0:0:
192,192,42203,1,0,0:0:0:0:
64,192,42362,1,0,0:0:0:0:
320,192,42362,128,0,42521:0:0:0:0:
448,192,42521,1,0,0:0:0:0:
192,192,42679,1,0,0:0:0:0:
64,192,42679,128,0,42838:0:0:0:0:
320,192,42838,1,0,0:0:0:0:
320,192,42997,1,0,0:0:0:0:
448,192,43155,128,0,43314:0:0:0:0:
192,192,43155,1,0,0:0:0:0:
64,192,43314,1,0,0:0:0:0:
64,192,43473,1,0,0:0:0:0:
320,192,43632,128,0,43790:0:0:0:0:
192,192,43632,1,0,0:0:0:0:
64,192,43949,1,0,0:0:0:0:
192,192,43949,128,0,44108:0:0:0:0:
320,192,44267,128,0,44425:0:0:0:0:
448,192,44267,1,0,0:0:0:0:
192,192,44425,1,0,0:0:0:0:
448,192,44584,1,0,0:0:0:0:
64,192,44584,128,0,44743:0:0:0:0:
320,192,44743,1,0,0:0:0:0:
320,192,44901,1,0,0:0:0:0:
192,192,45060,128,0,45219:0:0:0:0:
448,192,45060,1,0,0:0:0:0:
64,192,45219,1,0,0:0:0:0:
64,192,45378,1,0,0:0:0:0:
192,192,45536,1,0,0:0:0:0:
448,192,45536,128,0,45695:0:0:0:0:
320,192,45854,1,0,0:0:0:0:
64,192,45854,128,0,46013:0:0:0:0:
192,192,46013,1,0,0:0:0:0:
448,192,46171,128,0,46330:0:0:0:0:
320,192,46330,128,0,46489:0:0:0:0:
64,192,46489,128,0,46648:0:0:0:0:
192,192,46648,1,0,0:0:0:0:
192,192,46806,1,0,0:0:0:0:
320,192,46965,1,0,0:0:0:0:
448,192,46965,128,0,47124:0:0:0:0:
64,192,47124,1,0,0:0:0:0:
64,192,47282,1,0,0:0:0:0:
192,192,47441,1,0,0:0:0:0:
448,192,47441,128,0,47600:0:0:0:0:
64,192,47759,1,0,0:0:0:0:
320,192,47759,128,0,47917:0:0:0:0:
192,192,47917,1,0,0:0:0:0:
448,192,48076,1,0,0:0:0:0:
192,192,48235,1,0,0:0:0:0:
320,192,48394,1,0,0:0:0:0:
448,192,48394,128,0,48552:0:0:0:0:
192,192,48552,1,0,0:0:0:0:
64,192,48711,1,0,0:0:0:0:
320,192,48711,128,0,48870:0:0:0:0:
448,192,48870,1,0,0:0:0:0:
192,192,49028,1,0,0:0:0:0:
64,192,49028,128,0,49187:0:0:0:0:
320,192,49187,1,0,0:0:0:0:
192,192,49346,1,0,0:0:0:0:
448,192,49346,128,0,49505:0:0:0:0:
320,192,49505,1,0,0:0:0:0:
64,192,49663,1,0,0:0:0:0:
192,192,49663,128,0,49822:0:0:0:0:
320,192,49822,1,0,0:0:0:0:
448,192,49981,128,0,50140:0:0:0:0:
64,192,49981,1,0,0:0:0:0:
192,192,50140,1,0,0:0:0:0:
320,192,50298,1,0,0:0:0:0:
64,192,50298,128,0,50457:0:0:0:0:
448,192,50457,1,0,0:0:0:0:
192,192,50616,1,0,0:0:0:0:
320,192,50616,1,0,0:0:0:0:
64,192,50774,1,0,0:0:0:0:
192,192,50933,128,0,51092:0:0:0:0:
320,192,51092,128,0,51251:0:0:0:0:
448,192,51251,128,0,51409:0:0:0:0:
192,192,51409,128,0,51568:0:0:0:0:
64,192,51568,128,0,51727:0:0:0:0:
448,192,51727,128,0,51886:0:0:0:0:
320,192,51886,128,0,52044:0:0:0:0:
64,192,52044,128,0,52203:0:0:0:0:
192,192,52044,1,0,0:0:0:0:
448,192,52203,1,0,0:0:0:0:
192,192,52521,1,0,0:0:0:0:
320,192,52521,1,0,0:0:0:0:
448,192,52838,1,0,0:0:0:0:
320,192,52838,1,0,0:0:0:0:
448,192,53155,1,0,0:0:0:0:
64,192,53155,128,0,53473:0:0:0:0:
192,192,53473,1,0,0:0:0:0:
320,192,53473,128,0,53790:0:0:0:0:
64,192,53790,1,0,0:0:0:0:
448,192,53790,128,0,54108:0:0:0:0:
320,192,54108,1,0,0:0:0:0:
64,192,54108,128,0,54425:0:0:0:0:
192,192,54425,1,0,0:0:0:0:
320,192,54425,128,0,54743:0:0:0:0:
448,192,54743,1,0,0:0:0:0:
64,192,54743,128,0,55060:0:0:0:0:
448,192,55060,1,0,0:0:0:0:
192,192,55060,128,0,55378:0:0:0:0:
320,192,55378,128,0,55695:0:0:0:0:
448,192,55378,1,0,0:0:0:0:
64,192,55695,1,0,0:0:0:0:
192,192,55695,1,0,0:0:0:0:
448,192,56013,1,0,0:0:0:0:
320,192,56013,1,0,0:0:0:0:
192,192,56171,1,0,0:0:0:0:
64,192,56171,1,0,0:0:0:0:
320,192,56489,1,0,0:0:0:0:
64,192,56489,1,0,0:0:0:0:
192,192,56648,1,0,0:0:0:0:
448,192,56648,1,0,0:0:0:0:
64,192,56965,1,0,0:0:0:0:
320,192,56965,128,0,57282:0:0:0:0:
448,192,57282,1,0,0:0:0:0:
192,192,57282,1,0,0:0:0:0:
64,192,57600,1,0,0:0:0:0:
192,192,57600,128,0,57917:0:0:0:0:
320,192,57759,1,0,0:0:0:0:
448,192,57917,1,0,0:0:0:0:
64,192,58076,1,0,0:0:0:0:
192,192,58235,1,0,0:0:0:0:
448,192,58394,1,0,0:0:0:0:
192,192,58552,1,0,0:0:0:0:
448,192,58711,1,0,0:0:0:0:
192,192,58870,1,0,0:0:0:0:
64,192,58870,1,0,0:0:0:0:
192,192,59187,1,0,0:0:0:0:
448,192,59187,1,0,0:0:0:0:
320,192,59505,1,0,0:0:0:0:
64,192,59505,128,0,59822:0:0:0:0:
192,192,59822,1,0,0:0:0:0:
448,192,59822,1,0,0:0:0:0:
448,192,60140,1,0,0:0:0:0:
192,192,60140,1,0,0:0:0:0:
320,192,60457,1,0,0:0:0:0:
64,192,60774,1,0,0:0:0:0:
320,192,60774,1,0,0:0:0:0:
192,192,60933,1,0,0:0:0:0:
64,192,61092,1,0,0:0:0:0:
448,192,61092,1,0,0:0:0:0:
320,192,61251,1,0,0:0:0:0:
192,192,61409,1,0,0:0:0:0:
448,192,61409,1,0,0:0:0:0:
64,192,61568,1,0,0:0:0:0:
192,192,61727,1,0,0:0:0:0:
448,192,61727,1,0,0:0:0:0:
192,192,62044,1,0,0:0:0:0:
448,192,62044,1,0,0:0:0:0:
64,192,62362,1,0,0:0:0:0:
192,192,62362,1,0,0:0:0:0:
320,192,62679,1,0,0:0:0:0:
448,192,62679,1,0,0:0:0:0:
192,192,62838,1,0,0:0:0:0:
320,192,62997,1,0,0:0:0:0:
64,192,62997,1,0,0:0:0:0:
448,192,63155,1,0,0:0:0:0:
320,192,63314,1,0,0:0:0:0:
192,192,63314,1,0,0:0:0:0:
64,192,63473,1,0,0:0:0:0:
192,192,63632,1,0,0:0:0:0:
448,192,63632,1,0,0:0:0:0:
320,192,63949,1,0,0:0:0:0:
192,192,64108,1,0,0:0:0:0:
64,192,64267,1,0,0:0:0:0:
320,192,64267,1,0,0:0:0:0:
192,192,64584,1,0,0:0:0:0:
448,192,64584,1,0,0:0:0:0:
64,192,64901,1,0,0:0:0:0:
320,192,64901,128,0,65219:0:0:0:0:
448,192,65219,1,0,0:0:0:0:
192,192,65219,1,0,0:0:0:0:
192,192,65536,128,0,65854:0:0:0:0:
448,192,65536,1,0,0:0:0:0:
320,192,65854,128,0,66171:0:0:0:0:
64,192,66171,1,0,0:0:0:0:
448,192,66171,1,0,0:0:0:0:
192,192,66489,1,0,0:0:0:0:
320,192,66489,1,0,0:0:0:0:
448,192,66489,1,0,0:0:0:0:
64,192,66489,1,0,0:0:0:0:
320,192,66806,1,0,0:0:0:0:
192,192,66806,1,0,0:0:0:0:
192,192,67124,1,0,0:0:0:0:
320,192,67124,1,0,0:0:0:0:
64,192,67124,1,0,0:0:0:0:
448,192,67124,1,0,0:0:0:0:
448,192,67759,1,0,0:0:0:0:
192,192,67917,1,0,0:0:0:0:
64,192,68076,1,0,0:0:0:0:
320,192,68076,1,0,0:0:0:0:
448,192,68235,1,0,0:0:0:0:
192,192,68394,1,0,0:0:0:0:
320,192,68394,1,0,0:0:0:0:
64,192,68552,1,0,0:0:0:0:
320,192,68711,1,0,0:0:0:0:
192,192,68870,1,0,0:0:0:0:
64,192,69028,1,0,0:0:0:0:
320,192,69028,128,0,69187:0:0:0:0:
192,192,69346,1,0,0:0:0:0:
448,192,69346,128,0,69505:0:0:0:0:
192,192,69663,128,0,69822:0:0:0:0:
64,192,69663,1,0,0:0:0:0:
320,192,69822,1,0,0:0:0:0:
448,192,69981,1,0,0:0:0:0:
192,192,70140,128,0,70298:0:0:0:0:
320,192,70140,1,0,0:0:0:0:
448,192,70298,1,0,0:0:0:0:
64,192,70298,128,0,70457:0:0:0:0:
320,192,70457,1,0,0:0:0:0:
192,192,70616,1,0,0:0:0:0:
448,192,70616,128,0,70774:0:0:0:0:
320,192,70774,1,0,0:0:0:0:
64,192,70933,128,0,71092:0:0:0:0:
192,192,70933,1,0,0:0:0:0:
448,192,71251,1,0,0:0:0:0:
192,192,71251,128,0,71409:0:0:0:0:
320,192,71568,128,0,71727:0:0:0:0:
448,192,71568,1,0,0:0:0:0:
448,192,71886,1,0,0:0:0:0:
64,192,71886,1,0,0:0:0:0:
192,192,71965,1,0,0:0:0:0:
320,192,72044,1,0,0:0:0:0:
192,192,72124,1,0,0:0:0:0:
64,192,72203,1,0,0:0:0:0:
320,192,72203,1,0,0:0:0:0:
448,192,72282,1,0,0:0:0:0:
320,192,72362,1,0,0:0:0:0:
192,192,72441,1,0,0:0:0:0:
64,192,72521,1,0,0:0:0:0:
320,192,72521,1,0,0:0:0:0:
192,192,72600,1,0,0:0:0:0:
64,192,72679,1,0,0:0:0:0:
192,192,72759,1,0,0:0:0:0:
320,192,72838,1,0,0:0:0:0:
448,192,72838,1,0,0:0:0:0:
64,192,72917,1,0,0:0:0:0:
192,192,72997,1,0,0:0:0:0:
320,192,73076,1,0,0:0:0:0:
192,192,73155,1,0,0:0:0:0:
448,192,73155,1,0,0:0:0:0:
64,192,73235,1,0,0:0:0:0:
192,192,73314,1,0,0:0:0:0:
320,192,73394,1,0,0:0:0:0:
192,192,73473,1,0,0:0:0:0:
448,192,73473,1,0,0:0:0:0:
320,192,73552,1,0,0:0:0:0:
192,192,73632,1,0,0:0:0:0:
64,192,73711,1,0,0:0:0:0:
192,192,73790,1,0,0:0:0:0:
320,192,73870,1,0,0:0:0:0:
448,192,73949,1,0,0:0:0:0:
320,192,74028,1,0,0:0:0:0:
192,192,74108,128,0,74267:0:0:0:0:
64,192,74267,128,0,74425:0:0:0:0:
320,192,74425,128,0,74584:0:0:0:0:
448,192,74584,128,0,74743:0:0:0:0:
192,192,74743,128,0,74901:0:0:0:0:
64,192,74743,1,0,0:0:0:0:
320,192,75060,1,0,0:0:0:0:
448,192,75060,128,0,75219:0:0:0:0:
192,192,75378,1,0,0:0:0:0:
64,192,75378,128,0,75536:0:0:0:0:
320,192,75695,128,0,75854:0:0:0:0:
448,192,75695,1,0,0:0:0:0:
192,192,75854,1,0,0:0:0:0:
64,192,76013,1,0,0:0:0:0:
192,192,76171,1,0,0:0:0:0:
320,192,76171,128,0,76330:0:0:0:0:
64,192,76330,1,0,0:0:0:0:
448,192,76330,128,0,76489:0:0:0:0:
192,192,76489,1,0,0:0:0:0:
64,192,76648,128,0,76806:0:0:0:0:
320,192,76648,1,0,0:0:0:0:
192,192,76806,1,0,0:0:0:0:
448,192,76965,128,0,77124:0:0:0:0:
320,192,76965,1,0,0:0:0:0:
64,192,77282,1,0,0:0:0:0:
320,192,77282,128,0,77441:0:0:0:0:
192,192,77441,1,0,0:0:0:0:
448,192,77600,1,0,0:0:0:0:
192,192,77759,128,0,77917:0:0:0:0:
320,192,77759,1,0,0:0:0:0:
64,192,77917,128,0,78076:0:0:0:0:
448,192,77917,1,0,0:0:0:0:
320,192,78076,1,0,0:0:0:0:
192,192,78235,1,0,0:0:0:0:
320,192,78394,1,0,0:0:0:0:
448,192,78394,128,0,78552:0:0:0:0:
192,192,78552,1,0,0:0:0:0:
64,192,78552,128,0,78711:0:0:0:0:
320,192,78711,1,0,0:0:0:0:
448,192,78870,128,0,79028:0:0:0:0:
192,192,78870,1,0,0:0:0:0:
64,192,79187,1,0,0:0:0:0:
320,192,79187,128,0,79346:0:0:0:0:
64,192,79505,1,0,0:0:0:0:
192,192,79505,1,0,0:0:0:0:
320,192,79584,1,0,0:0:0:0:
448,192,79663,1,0,0:0:0:0:
320,192,79743,1,0,0:0:0:0:
192,192,79822,1,0,0:0:0:0:
448,192,79822,1,0,0:0:0:0:
320,192,79901,1,0,0:0:0:0:
192,192,79981,1,0,0:0:0:0:
64,192,80060,1,0,0:0:0:0:
192,192,80140,1,0,0:0:0:0:
448,192,80140,1,0,0:0:0:0:
320,192,80219,1,0,0:0:0:0:
192,192,80298,1,0,0:0:0:0:
64,192,80378,1,0,0:0:0:0:
192,192,80457,1,0,0:0:0:0:
320,192,80457,1,0,0:0:0:0:
448,192,80536,1,0,0:0:0:0:
320,192,80616,1,0,0:0:0:0:
192,192,80695,1,0,0:0:0:0:
64,192,80774,1,0,0:0:0:0:
320,192,80774,1,0,0:0:0:0:
192,192,80854,1,0,0:0:0:0:
64,192,80933,1,0,0:0:0:0:
192,192,81013,1,0,0:0:0:0:
320,192,81092,1,0,0:0:0:0:
448,192,81092,1,0,0:0:0:0:
64,192,81171,1,0,0:0:0:0:
192,192,81251,1,0,0:0:0:0:
320,192,81330,1,0,0:0:0:0:
448,192,81409,1,0,0:0:0:0:
64,192,81409,1,0,0:0:0:0:
192,192,81568,1,0,0:0:0:0:
320,192,81727,1,0,0:0:0:0:
192,192,81886,1,0,0:0:0:0:
64,192,81886,1,0,0:0:0:0:
320,192,82044,1,0,0:0:0:0:
448,192,82044,128,0,82203:0:0:0:0:
192,192,82203,128,0,82362:0:0:0:0:
64,192,82362,128,0,82521:0:0:0:0:
448,192,82521,128,0,82679:0:0:0:0:
320,192,82679,128,0,82838:0:0:0:0:
64,192,82838,128,0,82997:0:0:0:0:
192,192,82838,1,0,0:0:0:0:
448,192,82997,128,0,83155:0:0:0:0:
64,192,83155,128,0,83314:0:0:0:0:
192,192,83314,1,0,0:0:0:0:
448,192,83314,1,0,0:0:0:0:
320,192,83473,1,0,0:0:0:0:
192,192,83632,1,0,0:0:0:0:
64,192,83632,1,0,0:0:0:0:
320,192,83790,1,0,0:0:0:0:
448,192,83949,1,0,0:0:0:0:
192,192,83949,128,0,84108:0:0:0:0:
64,192,84108,128,0,84267:0:0:0:0:
448,192,84267,128,0,84425:0:0:0:0:
320,192,84267,1,0,0:0:0:0:
64,192,84584,1,0,0:0:0:0:
320,192,84584,128,0,84743:0:0:0:0:
64,192,84901,1,0,0:0:0:0:
192,192,84901,128,0,85060:0:0:0:0:
448,192,85219,1,0,0:0:0:0:
320,192,85219,1,0,0:0:0:0:
192,192,85378,1,0,0:0:0:0:
320,192,85536,1,0,0:0:0:0:
64,192,85536,1,0,0:0:0:0:
448,192,85695,1,0,0:0:0:0:
192,192,85854,128,0,86013:0:0:0:0:
64,192,86013,128,0,86171:0:0:0:0:
448,192,86171,128,0,86330:0:0:0:0:
192,192,86489,128,0,86648:0:0:0:0:
320,192,86806,128,0,86965:0:0:0:0:
448,192,87124,1,0,0:0:0:0:
64,192,87124,1,0,0:0:0:0:
192,192,87203,1,0,0:0:0:0:
320,192,87282,1,0,0:0:0:0:
192,192,87362,1,0,0:0:0:0:
320,192,87441,1,0,0:0:0:0:
64,192,87441,1,0,0:0:0:0:
448,192,87521,1,0,0:0:0:0:
320,192,87600,1,0,0:0:0:0:
192,192,87679,1,0,0:0:0:0:
64,192,87759,1,0,0:0:0:0:
320,192,87759,1,0,0:0:0:0:
192,192,87838,1,0,0:0:0:0:
64,192,87917,1,0,0:0:0:0:
192,192,87997,1,0,0:0:0:0:
448,192,88076,1,0,0:0:0:0:
320,192,88076,1,0,0:0:0:0:
192,192,88155,1,0,0:0:0:0:
64,192,88235,1,0,0:0:0:0:
320,192,88314,1,0,0:0:0:0:
448,192,88394,1,0,0:0:0:0:
192,192,88394,1,0,0:0:0:0:
64,192,88473,1,0,0:0:0:0:
192,192,88552,1,0,0:0:0:0:
320,192,88632,1,0,0:0:0:0:
448,192,88711,1,0,0:0:0:0:
192,192,88711,1,0,0:0:0:0:
320,192,88790,1,0,0:0:0:0:
192,192,88870,1,0,0:0:0:0:
64,192,88949,1,0,0:0:0:0:
320,192,89028,1,0,0:0:0:0:
192,192,89028,1,0,0:0:0:0:
448,192,89108,1,0,0:0:0:0:
320,192,89187,1,0,0:0:0:0:
192,192,89267,1,0,0:0:0:0:
64,192,89346,1,0,0:0:0:0:
320,192,89346,1,0,0:0:0:0:
192,192,89425,1,0,0:0:0:0:
64,192,89505,1,0,0:0:0:0:
192,192,89584,1,0,0:0:0:0:
448,192,89663,1,0,0:0:0:0:
320,192,89663,1,0,0:0:0:0:
192,192,89743,1,0,0:0:0:0:
64,192,89822,1,0,0:0:0:0:
448,192,89901,1,0,0:0:0:0:
320,192,89981,1,0,0:0:0:0:
192,192,89981,1,0,0:0:0:0:
64,192,90060,1,0,0:0:0:0:
192,192,90140,1,0,0:0:0:0:
320,192,90219,1,0,0:0:0:0:
64,192,90298,1,0,0:0:0:0:
448,192,90298,1,0,0:0:0:0:
192,192,90378,1,0,0:0:0:0:
320,192,90457,1,0,0:0:0:0:
192,192,90536,1,0,0:0:0:0:
64,192,90616,1,0,0:0:0:0:
320,192,90616,1,0,0:0:0:0:
448,192,90695,1,0,0:0:0:0:
320,192,90774,1,0,0:0:0:0:
192,192,90854,1,0,0:0:0:0:
64,192,90933,1,0,0:0:0:0:
320,192,90933,1,0,0:0:0:0:
192,192,91092,1,0,0:0:0:0:
448,192,91251,1,0,0:0:0:0:
320,192,91251,128,0,91409:0:0:0:0:
192,192,91409,128,0,91568:0:0:0:0:
64,192,91568,128,0,91727:0:0:0:0:
320,192,91727,128,0,91886:0:0:0:0:
448,192,91886,128,0,92044:0:0:0:0:
64,192,91886,1,0,0:0:0:0:
320,192,92203,1,0,0:0:0:0:
64,192,92203,128,0,92362:0:0:0:0:
192,192,92521,1,0,0:0:0:0:
448,192,92521,128,0,92679:0:0:0:0:
320,192,92679,1,0,0:0:0:0:
192,192,92838,1,0,0:0:0:0:
64,192,92838,128,0,92997:0:0:0:0:
320,192,92997,1,0,0:0:0:0:
448,192,93155,1,0,0:0:0:0:
192,192,93155,128,0,93314:0:0:0:0:
64,192,93314,128,0,93473:0:0:0:0:
448,192,93473,128,0,93632:0:0:0:0:
192,192,93632,128,0,93790:0:0:0:0:
320,192,93790,128,0,93949:0:0:0:0:
64,192,94108,128,0,94267:0:0:0:0:
448,192,94425,128,0,94584:0:0:0:0:
320,192,94425,1,0,0:0:0:0:
192,192,94584,1,0,0:0:0:0:
64,192,94743,1,0,0:0:0:0:
320,192,94743,128,0,94901:0:0:0:0:
192,192,95060,128,0,95219:0:0:0:0:
448,192,95060,1,0,0:0:0:0:
320,192,95378,1,0,0:0:0:0:
64,192,95378,128,0,95536:0:0:0:0:
448,192,95536,1,0,0:0:0:0:
320,192,95695,1,0,0:0:0:0:
192,192,95695,128,0,95854:0:0:0:0:
64,192,96013,1,0,0:0:0:0:
448,192,96013,128,0,96171:0:0:0:0:
320,192,96330,128,0,96489:0:0:0:0:
64,192,96330,1,0,0:0:0:0:
64,192,96648,1,0,0:0:0:0:
192,192,96648,128,0,96806:0:0:0:0:
448,192,96965,1,0,0:0:0:0:
192,192,97124,1,0,0:0:0:0:
320,192,97282,1,0,0:0:0:0:
64,192,97282,1,0,0:0:0:0:
448,192,97441,1,0,0:0:0:0:
320,192,97600,1,0,0:0:0:0:
64,192,97600,128,0,97759:0:0:0:0:
448,192,97917,1,0,0:0:0:0:
192,192,97917,128,0,98076:0:0:0:0:
320,192,98235,128,0,98394:0:0:0:0:
64,192,98552,128,0,98711:0:0:0:0:
448,192,98870,128,0,99028:0:0:0:0:
192,192,99187,128,0,99346:0:0:0:0:
64,192,99505,1,0,0:0:0:0:
448,192,99505,128,0,99663:0:0:0:0:
320,192,99822,128,0,99981:0:0:0:0:
192,192,100140,128,0,100298:0:0:0:0:
64,192,100457,128,0,100616:0:0:0:0:
448,192,100457,1,0,0:0:0:0:
320,192,100774,1,0,0:0:0:0:
192,192,100933,1,0,0:0:0:0:
64,192,101092,1,0,0:0:0:0:
320,192,101092,1,0,0:0:0:0:
448,192,101251,1,0,0:0:0:0:
64,192,101409,1,0,0:0:0:0:
320,192,101409,128,0,101568:0:0:0:0:
192,192,101568,1,0,0:0:0:0:
448,192,101727,1,0,0:0:0:0:
192,192,101886,1,0,0:0:0:0:
320,192,102044,1,0,0:0:0:0:
64,192,102044,1,0,0:0:0:0:
192,192,102203,1,0,0:0:0:0:
320,192,102362,1,0,0:0:0:0:
448,192,102362,128,0,102521:0:0:0:0:
64,192,102521,1,0,0:0:0:0:
192,192,102679,1,0,0:0:0:0:
320,192,102679,1,0,0:0:0:0:
448,192,102838,1,0,0:0:0:0:
192,192,102997,1,0,0:0:0:0:
448,192,103155,1,0,0:0:0:0:
64,192,103155,1,0,0:0:0:0:
320,192,103314,1,0,0:0:0:0:
192,192,103314,128,0,103473:0:0:0:0:
448,192,103473,1,0,0:0:0:0:
320,192,103632,1,0,0:0:0:0:
64,192,103632,1,0,0:0:0:0:
192,192,103790,1,0,0:0:0:0:
448,192,103949,1,0,0:0:0:0:
192,192,104108,1,0,0:0:0:0:
64,192,104267,1,0,0:0:0:0:
320,192,104267,128,0,104425:0:0:0:0:
448,192,104425,1,0,0:0:0:0:
192,192,104584,1,0,0:0:0:0:
64,192,104743,1,0,0:0:0:0:
192,192,104901,1,0,0:0:0:0:
448,192,104901,1,0,0:0:0:0:
320,192,105060,1,0,0:0:0:0:
192,192,105219,1,0,0:0:0:0:
64,192,105219,128,0,105378:0:0:0:0:
448,192,105378,1,0,0:0:0:0:
320,192,105536,1,0,0:0:0:0:
64,192,105695,1,0,0:0:0:0:
448,192,105854,1,0,0:0:0:0:
192,192,105854,1,0,0:0:0:0:
320,192,106013,1,0,0:0:0:0:
448,192,106171,1,0,0:0:0:0:
192,192,106171,128,0,106330:0:0:0:0:
320,192,106489,1,0,0:0:0:0:
192,192,106648,1,0,0:0:0:0:
320,192,106806,1,0,0:0:0:0:
64,192,106806,1,0,0:0:0:0:
448,192,106965,1,0,0:0:0:0:
64,192,107124,1,0,0:0:0:0:
320,192,107124,128,0,107282:0:0:0:0:
192,192,107441,1,0,0:0:0:0:
64,192,107600,1,0,0:0:0:0:
320,192,107759,1,0,0:0:0:0:
192,192,107917,1,0,0:0:0:0:
448,192,108076,128,0,109981:0:0:0:0:
192,192,109981,128,0,111886:0:0:0:0:
64,192,111886,128,0,114743:0:0:0:0:
320,192,111886,1,0,0:0:0:0:
448,192,111886,1,0,0:0:0:0:
