osu file format v14

[General]
AudioFilename: Sound_Voltex_-_Dynasty.mp3
AudioLeadIn: 0
PreviewTime: 37884
Countdown: 0
SampleSet: Normal
StackLeniency: 0.7
Mode: 3
LetterboxInBreaks: 0
SpecialStyle: 0
WidescreenStoryboard: 1

[Editor]
DistanceSpacing: 0.8
BeatDivisor: 4
GridSize: 32
TimelineZoom: 3.099999

[Metadata]
Title:Dynasty
TitleUnicode:Dynasty
Artist:Yooh
ArtistUnicode:Yooh
Creator:Jaya Umbara
Version:ADV+
Source:SOUND VOLTEX BOOTH
Tags:SDVX rhalp10
BeatmapID:698979
BeatmapSetID:312602

[Difficulty]
HPDrainRate:8
CircleSize:4
OverallDifficulty:8
ApproachRate:5
SliderMultiplier:1.4
SliderTickRate:1

[Events]
//Background and Video events
0,0,"YOOH.jpg",0,0
//Break Periods
//Storyboard Layer 0 (Background)
//Storyboard Layer 1 (Fail)
//Storyboard Layer 2 (Pass)
//Storyboard Layer 3 (Foreground)
//Storyboard Sound Samples

[TimingPoints]
1375,317.460317460317,4,1,1,30,1,0
22169,-100,4,2,1,10,0,0
37882,-100,4,1,1,30,0,1
53121,-100,4,1,1,30,0,0
68676,-100,4,1,1,30,0,1
108994,-100,4,2,1,10,0,0

[HitObjects]
448,192,1375,5,0,0:0:0:0:
320,192,1454,1,0,0:0:0:0:
192,192,1533,1,0,0:0:0:0:
64,192,1613,1,0,0:0:0:0:
448,192,1692,128,0,2009:0:0:0:0:
320,192,1692,1,0,0:0:0:0:
192,192,2168,1,0,0:0:0:0:
64,192,2168,1,0,0:0:0:0:
320,192,2644,1,0,0:0:0:0:
448,192,2644,1,0,0:0:0:0:
64,192,3121,1,0,0:0:0:0:
448,192,3121,1,0,0:0:0:0:
192,192,3597,1,0,0:0:0:0:
320,192,3597,1,0,0:0:0:0:
192,192,3914,1,0,0:0:0:0:
320,192,3914,1,0,0:0:0:0:
64,192,4232,1,0,0:0:0:0:
448,192,4232,1,0,0:0:0:0:
448,192,4708,1,0,0:0:0:0:
192,192,4708,1,0,0:0:0:0:
320,192,5184,1,0,0:0:0:0:
64,192,5184,1,0,0:0:0:0:
448,192,5660,1,0,0:0:0:0:
320,192,5660,1,0,0:0:0:0:
64,192,6136,1,0,0:0:0:0:
192,192,6136,1,0,0:0:0:0:
64,192,6454,1,0,0:0:0:0:
320,192,6454,1,0,0:0:0:0:
320,192,6771,1,0,0:0:0:0:
448,192,6771,1,0,0:0:0:0:
64,192,7248,1,0,0:0:0:0:
192,192,7248,1,0,0:0:0:0:
320,192,7724,1,0,0:0:0:0:
448,192,7724,1,0,0:0:0:0:
192,192,8200,1,0,0:0:0:0:
320,192,8200,1,0,0:0:0:0:
64,192,8676,1,0,0:0:0:0:
448,192,8676,1,0,0:0:0:0:
64,192,8994,1,0,0:0:0:0:
448,192,8994,1,0,0:0:0:0:
192,192,9311,1,0,0:0:0:0:
320,192,9311,1,0,0:0:0:0:
64,192,9787,1,0,0:0:0:0:
448,192,9787,1,0,0:0:0:0:
320,192,10263,1,0,0:0:0:0:
64,192,10263,1,0,0:0:0:0:
448,192,10740,1,0,0:0:0:0:
64,192,10898,1,0,0:0:0:0:
320,192,11057,1,0,0:0:0:0:
192,192,11216,1,0,0:0:0:0:
448,192,11374,1,0,0:0:0:0:
64,192,11533,1,0,0:0:0:0:
192,192,11613,1,0,0:0:0:0:
320,192,11692,1,0,0:0:0:0:
448,192,11771,1,0,0:0:0:0:
64,192,11851,1,0,0:0:0:0:
192,192,11851,1,0,0:0:0:0:
64,192,12168,1,0,0:0:0:0:
320,192,12168,1,0,0:0:0:0:
448,192,12327,1,0,0:0:0:0:
192,192,12486,1,0,0:0:0:0:
320,192,12486,1,0,0:0:0:0:
192,192,12803,1,0,0:0:0:0:
448,192,12803,1,0,0:0:0:0:
64,192,13121,1,0,0:0:0:0:
448,192,13121,1,0,0:0:0:0:
320,192,13279,1,0,0:0:0:0:
192,192,13438,1,0,0:0:0:0:
448,192,13438,1,0,0:0:0:0:
192,192,13755,1,0,0:0:0:0:
320,192,13755,1,0,0:0:0:0:
64,192,14073,1,0,0:0:0:0:
320,192,14073,1,0,0:0:0:0:
64,192,14390,1,0,0:0:0:0:
448,192,14390,1,0,0:0:0:0:
448,192,14708,1,0,0:0:0:0:
192,192,14708,1,0,0:0:0:0:
320,192,14867,1,0,0:0:0:0:
320,192,15025,1,0,0:0:0:0:
448,192,15025,1,0,0:0:0:0:
64,192,15343,1,0,0:0:0:0:
192,192,15343,1,0,0:0:0:0:
64,192,15660,1,0,0:0:0:0:
448,192,15660,1,0,0:0:0:0:
192,192,15819,1,0,0:0:0:0:
320,192,15978,1,0,0:0:0:0:
64,192,15978,1,0,0:0:0:0:
448,192,16216,1,0,0:0:0:0:
320,192,16295,1,0,0:0:0:0:
192,192,16374,1,0,0:0:0:0:
64,192,16454,1,0,0:0:0:0:
192,192,16613,1,0,0:0:0:0:
320,192,16613,1,0,0:0:0:0:
64,192,16771,1,0,0:0:0:0:
448,192,16771,1,0,0:0:0:0:
320,192,16930,1,0,0:0:0:0:
192,192,17009,1,0,0:0:0:0:
320,192,17089,1,0,0:0:0:0:
64,192,17248,1,0,0:0:0:0:
192,192,17248,1,0,0:0:0:0:
448,192,17406,1,0,0:0:0:0:
320,192,17486,1,0,0:0:0:0:
448,192,17565,1,0,0:0:0:0:
192,192,17724,1,0,0:0:0:0:
64,192,17724,1,0,0:0:0:0:
64,192,17882,1,0,0:0:0:0:
192,192,17962,1,0,0:0:0:0:
320,192,18041,1,0,0:0:0:0:
64,192,18200,1,0,0:0:0:0:
448,192,18200,1,0,0:0:0:0:
448,192,18359,1,0,0:0:0:0:
320,192,18438,1,0,0:0:0:0:
192,192,18517,1,0,0:0:0:0:
64,192,18676,1,0,0:0:0:0:
448,192,18676,1,0,0:0:0:0:
192,192,18835,1,0,0:0:0:0:
320,192,18835,1,0,0:0:0:0:
192,192,18994,1,0,0:0:0:0:
448,192,18994,1,0,0:0:0:0:
320,192,19152,1,0,0:0:0:0:
64,192,19152,1,0,0:0:0:0:
192,192,19311,1,0,0:0:0:0:
448,192,19311,1,0,0:0:0:0:
64,192,19470,1,0,0:0:0:0:
448,192,19470,1,0,0:0:0:0:
192,192,19628,1,0,0:0:0:0:
320,192,19628,1,0,0:0:0:0:
448,192,19787,1,0,0:0:0:0:
64,192,19787,1,0,0:0:0:0:
192,192,19867,1,0,0:0:0:0:
320,192,19946,1,0,0:0:0:0:
448,192,20025,1,0,0:0:0:0:
320,192,20105,1,0,0:0:0:0:
192,192,20184,1,0,0:0:0:0:
64,192,20263,1,0,0:0:0:0:
192,192,20343,1,0,0:0:0:0:
320,192,20422,1,0,0:0:0:0:
448,192,20501,1,0,0:0:0:0:
320,192,20581,1,0,0:0:0:0:
192,192,20660,1,0,0:0:0:0:
64,192,20740,1,0,0:0:0:0:
448,192,22168,128,0,22644:0:0:0:0:
64,192,22644,1,0,0:0:0:0:
192,192,22697,1,0,0:0:0:0:
320,192,22750,1,0,0:0:0:0:
448,192,22803,1,0,0:0:0:0:
64,192,22962,1,0,0:0:0:0:
192,192,23121,1,0,0:0:0:0:
320,192,23279,1,0,0:0:0:0:
448,192,23438,1,0,0:0:0:0:
64,192,23597,1,0,0:0:0:0:
448,192,23755,1,0,0:0:0:0:
192,192,23914,1,0,0:0:0:0:
448,192,24073,1,0,0:0:0:0:
64,192,24232,1,0,0:0:0:0:
192,192,24390,1,0,0:0:0:0:
448,192,24549,1,0,0:0:0:0:
320,192,24602,1,0,0:0:0:0:
192,192,24655,1,0,0:0:0:0:
64,192,24708,1,0,0:0:0:0:
448,192,24867,1,0,0:0:0:0:
320,192,25025,1,0,0:0:0:0:
192,192,25184,1,0,0:0:0:0:
64,192,25343,1,0,0:0:0:0:
448,192,25501,1,0,0:0:0:0:
64,192,25660,1,0,0:0:0:0:
320,192,25819,1,0,0:0:0:0:
64,192,25978,1,0,0:0:0:0:
448,192,26136,1,0,0:0:0:0:
320,192,26295,1,0,0:0:0:0:
448,192,26454,1,0,0:0:0:0:
320,192,26507,1,0,0:0:0:0:
192,192,26560,1,0,0:0:0:0:
64,192,26613,1,0,0:0:0:0:
64,192,26771,1,0,0:0:0:0:
448,192,26930,1,0,0:0:0:0:
192,192,27089,1,0,0:0:0:0:
320,192,27248,1,0,0:0:0:0:
448,192,27406,1,0,0:0:0:0:
192,192,27565,1,0,0:0:0:0:
320,192,27724,1,0,0:0:0:0:
64,192,27882,1,0,0:0:0:0:
192,192,28041,1,0,0:0:0:0:
448,192,28200,1,0,0:0:0:0:
64,192,28359,1,0,0:0:0:0:
320,192,28517,1,0,0:0:0:0:
192,192,28676,1,0,0:0:0:0:
448,192,28835,1,0,0:0:0:0:
320,192,28994,1,0,0:0:0:0:
64,192,29152,1,0,0:0:0:0:
448,192,29311,1,0,0:0:0:0:
192,192,29470,1,0,0:0:0:0:
320,192,29628,1,0,0:0:0:0:
448,192,29787,1,0,0:0:0:0:
64,192,29946,128,0,30263:0:0:0:0:
448,192,30263,1,0,0:0:0:0:
320,192,30316,1,0,0:0:0:0:
192,192,30369,1,0,0:0:0:0:
64,192,30422,1,0,0:0:0:0:
320,192,30581,1,0,0:0:0:0:
448,192,30740,1,0,0:0:0:0:
320,192,30898,1,0,0:0:0:0:
192,192,31057,1,0,0:0:0:0:
448,192,31216,1,0,0:0:0:0:
64,192,31374,1,0,0:0:0:0:
320,192,31533,1,0,0:0:0:0:
64,192,31692,1,0,0:0:0:0:
448,192,31851,1,0,0:0:0:0:
192,192,32009,1,0,0:0:0:0:
64,192,32168,1,0,0:0:0:0:
192,192,32221,1,0,0:0:0:0:
320,192,32274,1,0,0:0:0:0:
448,192,32327,1,0,0:0:0:0:
192,192,32486,1,0,0:0:0:0:
64,192,32644,1,0,0:0:0:0:
192,192,32803,1,0,0:0:0:0:
320,192,32962,1,0,0:0:0:0:
64,192,33121,1,0,0:0:0:0:
448,192,33279,1,0,0:0:0:0:
192,192,33438,1,0,0:0:0:0:
448,192,33597,1,0,0:0:0:0:
320,192,33755,1,0,0:0:0:0:
64,192,33914,1,0,0:0:0:0:
448,192,34073,1,0,0:0:0:0:
320,192,34390,1,0,0:0:0:0:
192,192,34708,1,0,0:0:0:0:
64,192,35025,1,0,0:0:0:0:
192,192,35343,1,0,0:0:0:0:
320,192,35660,1,0,0:0:0:0:
448,192,35978,1,0,0:0:0:0:
320,192,36057,1,0,0:0:0:0:
192,192,36136,1,0,0:0:0:0:
64,192,36295,1,0,0:0:0:0:
192,192,36374,1,0,0:0:0:0:
320,192,36454,1,0,0:0:0:0:
448,192,36613,1,0,0:0:0:0:
320,192,36692,1,0,0:0:0:0:
192,192,36771,1,0,0:0:0:0:
64,192,36851,1,0,0:0:0:0:
448,192,36930,1,0,0:0:0:0:
320,192,37009,1,0,0:0:0:0:
192,192,37089,1,0,0:0:0:0:
64,192,37168,1,0,0:0:0:0:
192,192,37248,1,0,0:0:0:0:
320,192,37327,1,0,0:0:0:0:
448,192,37406,1,0,0:0:0:0:
64,192,37486,1,0,0:0:0:0:
192,192,37565,1,0,0:0:0:0:
320,192,37644,1,0,0:0:0:0:
448,192,37724,1,0,0:0:0:0:
320,192,37803,1,0,0:0:0:0:
192,192,37882,128,0,38041:0:0:0:0:
448,192,37882,1,0,0:0:0:0:
64,192,38041,1,0,0:0:0:0:
448,192,38200,128,0,38359:0:0:0:0:
320,192,38200,1,0,0:0:0:0:
320,192,38359,128,0,38517:0:0:0:0:
192,192,38517,1,0,0:0:0:0:
320,192,38676,128,0,38835:0:0:0:0:
192,192,38835,128,0,38994:0:0:0:0:
64,192,38835,1,0,0:0:0:0:
320,192,39152,128,0,39311:0:0:0:0:
448,192,39152,1,0,0:0:0:0:
64,192,39311,1,0,0:0:0:0:
448,192,39470,128,0,39628:0:0:0:0:
192,192,39470,1,0,0:0:0:0:
64,192,39628,128,0,39787:0:0:0:0:
320,192,39787,1,0,0:0:0:0:
448,192,39946,128,0,40105:0:0:0:0:
320,192,40105,1,0,0:0:0:0:
64,192,40263,128,0,40422:0:0:0:0:
192,192,40422,1,0,0:0:0:0:
448,192,40581,128,0,40740:0:0:0:0:
320,192,40740,128,0,40898:0:0:0:0:
64,192,40740,1,0,0:0:0:0:
192,192,41057,128,0,41216:0:0:0:0:
448,192,41057,1,0,0:0:0:0:
320,192,41374,128,0,41533:0:0:0:0:
64,192,41374,1,0,0:0:0:0:
192,192,41533,128,0,41692:0:0:0:0:
448,192,41692,1,0,0:0:0:0:
64,192,41692,128,0,41851:0:0:0:0:
320,192,41851,128,0,42009:0:0:0:0:
192,192,42009,1,0,0:0:0:0:
448,192,42168,128,0,42327:0:0:0:0:
320,192,42327,1,0,0:0:0:0:
64,192,42486,128,0,42644:0:0:0:0:
320,192,42644,1,0,0:0:0:0:
192,192,42803,128,0,42962:0:0:0:0:
448,192,42962,1,0,0:0:0:0:
320,192,43121,128,0,43279:0:0:0:0:
192,192,43279,1,0,0:0:0:0:
448,192,43438,128,0,43597:0:0:0:0:
64,192,43597,1,0,0:0:0:0:
192,192,43755,128,0,43914:0:0:0:0:
320,192,43914,1,0,0:0:0:0:
64,192,44073,128,0,44232:0:0:0:0:
192,192,44232,1,0,0:0:0:0:
448,192,44549,1,0,0:0:0:0:
320,192,44628,1,0,0:0:0:0:
192,192,44708,1,0,0:0:0:0:
64,192,44867,1,0,0:0:0:0:
192,192,45025,1,0,0:0:0:0:
320,192,45184,1,0,0:0:0:0:
448,192,45343,1,0,0:0:0:0:
64,192,45501,1,0,0:0:0:0:
192,192,45501,1,0,0:0:0:0:
320,192,45819,1,0,0:0:0:0:
448,192,45819,1,0,0:0:0:0:
192,192,46136,1,0,0:0:0:0:
64,192,46136,1,0,0:0:0:0:
320,192,46454,1,0,0:0:0:0:
448,192,46454,1,0,0:0:0:0:
64,192,46771,1,0,0:0:0:0:
448,192,46771,1,0,0:0:0:0:
192,192,47089,1,0,0:0:0:0:
320,192,47089,128,0,47248:0:0:0:0:
448,192,47248,128,0,47406:0:0:0:0:
64,192,47406,1,0,0:0:0:0:
64,192,47724,1,0,0:0:0:0:
320,192,47724,1,0,0:0:0:0:
192,192,48041,1,0,0:0:0:0:
448,192,48041,1,0,0:0:0:0:
192,192,48359,1,0,0:0:0:0:
320,192,48359,1,0,0:0:0:0:
64,192,48676,1,0,0:0:0:0:
448,192,48676,1,0,0:0:0:0:
192,192,48994,128,0,49152:0:0:0:0:
320,192,48994,1,0,0:0:0:0:
64,192,49152,128,0,49311:0:0:0:0:
448,192,49311,1,0,0:0:0:0:
320,192,49470,1,0,0:0:0:0:
192,192,49628,1,0,0:0:0:0:
64,192,49787,1,0,0:0:0:0:
192,192,49946,1,0,0:0:0:0:
320,192,50105,1,0,0:0:0:0:
448,192,50263,1,0,0:0:0:0:
320,192,50422,1,0,0:0:0:0:
192,192,50581,1,0,0:0:0:0:
64,192,50740,1,0,0:0:0:0:
192,192,50898,1,0,0:0:0:0:
320,192,51057,1,0,0:0:0:0:
448,192,51216,1,0,0:0:0:0:
320,192,51295,1,0,0:0:0:0:
192,192,51374,1,0,0:0:0:0:
64,192,51454,1,0,0:0:0:0:
192,192,51533,1,0,0:0:0:0:
320,192,51613,1,0,0:0:0:0:
448,192,51692,1,0,0:0:0:0:
320,192,51771,1,0,0:0:0:0:
192,192,51851,1,0,0:0:0:0:
64,192,52009,128,0,52168:0:0:0:0:
448,192,52168,1,0,0:0:0:0:
192,192,52168,128,0,52327:0:0:0:0:
320,192,52327,128,0,52486:0:0:0:0:
448,192,52486,128,0,52644:0:0:0:0:
320,192,52644,128,0,52803:0:0:0:0:
192,192,52803,128,0,52962:0:0:0:0:
64,192,52962,128,0,53121:0:0:0:0:
448,192,53121,1,0,0:0:0:0:
192,192,53121,1,0,0:0:0:0:
320,192,53438,1,0,0:0:0:0:
448,192,53438,1,0,0:0:0:0:
192,192,53755,1,0,0:0:0:0:
320,192,53755,1,0,0:0:0:0:
64,192,54073,1,0,0:0:0:0:
192,192,54073,1,0,0:0:0:0:
64,192,54390,1,0,0:0:0:0:
448,192,54390,1,0,0:0:0:0:
192,192,54708,1,0,0:0:0:0:
448,192,54708,1,0,0:0:0:0:
448,192,55025,1,0,0:0:0:0:
320,192,55025,1,0,0:0:0:0:
64,192,55343,1,0,0:0:0:0:
320,192,55343,1,0,0:0:0:0:
64,192,55660,1,0,0:0:0:0:
448,192,55660,1,0,0:0:0:0:
64,192,55978,1,0,0:0:0:0:
192,192,55978,1,0,0:0:0:0:
192,192,56295,1,0,0:0:0:0:
320,192,56295,1,0,0:0:0:0:
320,192,56613,1,0,0:0:0:0:
448,192,56613,1,0,0:0:0:0:
64,192,56930,1,0,0:0:0:0:
448,192,56930,1,0,0:0:0:0:
192,192,57248,1,0,0:0:0:0:
320,192,57248,1,0,0:0:0:0:
192,192,57565,1,0,0:0:0:0:
448,192,57565,1,0,0:0:0:0:
64,192,57882,1,0,0:0:0:0:
320,192,57882,1,0,0:0:0:0:
192,192,58200,1,0,0:0:0:0:
320,192,58200,1,0,0:0:0:0:
64,192,58517,1,0,0:0:0:0:
448,192,58517,1,0,0:0:0:0:
448,192,58835,1,0,0:0:0:0:
192,192,58835,1,0,0:0:0:0:
320,192,59152,1,0,0:0:0:0:
64,192,59152,1,0,0:0:0:0:
64,192,59470,1,0,0:0:0:0:
448,192,59470,1,0,0:0:0:0:
448,192,59787,1,0,0:0:0:0:
320,192,59867,1,0,0:0:0:0:
192,192,59946,1,0,0:0:0:0:
64,192,60105,1,0,0:0:0:0:
192,192,60263,1,0,0:0:0:0:
320,192,60422,1,0,0:0:0:0:
448,192,60581,128,0,60740:0:0:0:0:
64,192,60740,1,0,0:0:0:0:
320,192,60740,1,0,0:0:0:0:
192,192,61057,1,0,0:0:0:0:
320,192,61057,1,0,0:0:0:0:
448,192,61374,1,0,0:0:0:0:
64,192,61374,1,0,0:0:0:0:
320,192,61692,1,0,0:0:0:0:
64,192,61692,1,0,0:0:0:0:
448,192,62009,1,0,0:0:0:0:
192,192,62009,1,0,0:0:0:0:
320,192,62168,1,0,0:0:0:0:
64,192,62327,1,0,0:0:0:0:
192,192,62327,1,0,0:0:0:0:
320,192,62486,1,0,0:0:0:0:
192,192,62644,1,0,0:0:0:0:
448,192,62644,1,0,0:0:0:0:
64,192,62962,1,0,0:0:0:0:
192,192,62962,1,0,0:0:0:0:
192,192,63279,1,0,0:0:0:0:
320,192,63279,1,0,0:0:0:0:
320,192,63597,1,0,0:0:0:0:
448,192,63597,1,0,0:0:0:0:
192,192,63914,1,0,0:0:0:0:
448,192,63914,1,0,0:0:0:0:
64,192,64232,1,0,0:0:0:0:
320,192,64232,1,0,0:0:0:0:
192,192,64390,1,0,0:0:0:0:
320,192,64549,1,0,0:0:0:0:
448,192,64549,1,0,0:0:0:0:
192,192,64708,1,0,0:0:0:0:
64,192,64867,1,0,0:0:0:0:
320,192,64867,1,0,0:0:0:0:
448,192,65025,1,0,0:0:0:0:
192,192,65184,1,0,0:0:0:0:
64,192,65184,1,0,0:0:0:0:
320,192,65343,1,0,0:0:0:0:
192,192,65501,1,0,0:0:0:0:
448,192,65501,1,0,0:0:0:0:
64,192,65660,1,0,0:0:0:0:
192,192,65819,1,0,0:0:0:0:
448,192,65819,1,0,0:0:0:0:
320,192,65978,1,0,0:0:0:0:
64,192,66136,1,0,0:0:0:0:
448,192,66136,1,0,0:0:0:0:
320,192,66295,1,0,0:0:0:0:
64,192,66454,1,0,0:0:0:0:
192,192,66533,1,0,0:0:0:0:
320,192,66613,1,0,0:0:0:0:
448,192,66692,1,0,0:0:0:0:
64,192,66771,1,0,0:0:0:0:
192,192,66851,1,0,0:0:0:0:
320,192,66930,1,0,0:0:0:0:
448,192,67009,1,0,0:0:0:0:
320,192,67089,1,0,0:0:0:0:
192,192,67168,1,0,0:0:0:0:
64,192,67248,1,0,0:0:0:0:
192,192,67327,1,0,0:0:0:0:
320,192,67406,1,0,0:0:0:0:
448,192,67406,1,0,0:0:0:0:
64,192,67724,1,0,0:0:0:0:
192,192,67724,1,0,0:0:0:0:
64,192,68041,1,0,0:0:0:0:
448,192,68041,1,0,0:0:0:0:
448,192,68676,1,0,0:0:0:0:
320,192,68755,1,0,0:0:0:0:
192,192,68835,1,0,0:0:0:0:
64,192,68914,1,0,0:0:0:0:
448,192,68994,1,0,0:0:0:0:
320,192,69046,1,0,0:0:0:0:
192,192,69099,1,0,0:0:0:0:
64,192,69152,1,0,0:0:0:0:
448,192,69311,1,0,0:0:0:0:
320,192,69311,128,0,69470:0:0:0:0:
192,192,69470,128,0,69628:0:0:0:0:
64,192,69628,1,0,0:0:0:0:
192,192,69787,128,0,69946:0:0:0:0:
448,192,69946,1,0,0:0:0:0:
320,192,69946,128,0,70105:0:0:0:0:
64,192,70263,1,0,0:0:0:0:
192,192,70263,128,0,70422:0:0:0:0:
192,192,70581,128,0,70740:0:0:0:0:
320,192,70581,1,0,0:0:0:0:
64,192,70740,128,0,70898:0:0:0:0:
448,192,70898,1,0,0:0:0:0:
320,192,70951,1,0,0:0:0:0:
192,192,71004,1,0,0:0:0:0:
64,192,71057,128,0,71216:0:0:0:0:
320,192,71216,1,0,0:0:0:0:
320,192,71374,128,0,71533:0:0:0:0:
448,192,71533,1,0,0:0:0:0:
192,192,71533,128,0,71692:0:0:0:0:
64,192,71692,128,0,71851:0:0:0:0:
320,192,71851,1,0,0:0:0:0:
448,192,71851,128,0,72009:0:0:0:0:
64,192,72168,128,0,72327:0:0:0:0:
192,192,72168,1,0,0:0:0:0:
320,192,72486,128,0,72644:0:0:0:0:
64,192,72486,1,0,0:0:0:0:
448,192,72803,1,0,0:0:0:0:
320,192,72882,1,0,0:0:0:0:
192,192,72962,1,0,0:0:0:0:
64,192,73041,1,0,0:0:0:0:
448,192,73121,1,0,0:0:0:0:
320,192,73200,1,0,0:0:0:0:
192,192,73279,1,0,0:0:0:0:
64,192,73359,1,0,0:0:0:0:
320,192,73438,1,0,0:0:0:0:
192,192,73517,1,0,0:0:0:0:
64,192,73597,1,0,0:0:0:0:
192,192,73676,1,0,0:0:0:0:
320,192,73755,1,0,0:0:0:0:
64,192,73835,1,0,0:0:0:0:
192,192,73914,1,0,0:0:0:0:
320,192,73994,1,0,0:0:0:0:
448,192,74073,1,0,0:0:0:0:
320,192,74152,1,0,0:0:0:0:
192,192,74232,1,0,0:0:0:0:
64,192,74311,1,0,0:0:0:0:
320,192,74390,1,0,0:0:0:0:
192,192,74470,1,0,0:0:0:0:
320,192,74549,1,0,0:0:0:0:
448,192,74628,1,0,0:0:0:0:
64,192,74708,1,0,0:0:0:0:
192,192,74761,1,0,0:0:0:0:
320,192,74814,1,0,0:0:0:0:
448,192,74867,1,0,0:0:0:0:
64,192,75025,1,0,0:0:0:0:
192,192,75025,1,0,0:0:0:0:
448,192,75025,128,0,75184:0:0:0:0:
320,192,75184,128,0,75343:0:0:0:0:
64,192,75343,128,0,75501:0:0:0:0:
192,192,75501,128,0,75660:0:0:0:0:
448,192,75660,1,0,0:0:0:0:
320,192,75740,1,0,0:0:0:0:
192,192,75819,1,0,0:0:0:0:
64,192,75978,1,0,0:0:0:0:
192,192,76136,1,0,0:0:0:0:
320,192,76295,1,0,0:0:0:0:
448,192,76454,128,0,76613:0:0:0:0:
64,192,76613,1,0,0:0:0:0:
192,192,76666,1,0,0:0:0:0:
320,192,76718,1,0,0:0:0:0:
448,192,76771,1,0,0:0:0:0:
448,192,76930,1,0,0:0:0:0:
64,192,76930,128,0,77089:0:0:0:0:
192,192,77089,128,0,77248:0:0:0:0:
320,192,77248,128,0,77406:0:0:0:0:
448,192,77248,1,0,0:0:0:0:
448,192,77406,128,0,77565:0:0:0:0:
64,192,77565,1,0,0:0:0:0:
320,192,77565,128,0,77724:0:0:0:0:
192,192,77882,128,0,78041:0:0:0:0:
320,192,77882,1,0,0:0:0:0:
320,192,78200,1,0,0:0:0:0:
192,192,78200,128,0,78359:0:0:0:0:
64,192,78359,128,0,78517:0:0:0:0:
448,192,78517,1,0,0:0:0:0:
320,192,78570,1,0,0:0:0:0:
192,192,78623,1,0,0:0:0:0:
64,192,78676,1,0,0:0:0:0:
64,192,78835,1,0,0:0:0:0:
448,192,78835,128,0,78994:0:0:0:0:
320,192,78994,128,0,79152:0:0:0:0:
448,192,79152,1,0,0:0:0:0:
192,192,79152,128,0,79311:0:0:0:0:
64,192,79311,128,0,79470:0:0:0:0:
320,192,79470,1,0,0:0:0:0:
192,192,79470,128,0,79628:0:0:0:0:
64,192,79787,128,0,79946:0:0:0:0:
448,192,79787,1,0,0:0:0:0:
448,192,80105,128,0,80263:0:0:0:0:
64,192,80105,1,0,0:0:0:0:
448,192,80422,1,0,0:0:0:0:
320,192,80501,1,0,0:0:0:0:
192,192,80581,1,0,0:0:0:0:
64,192,80660,1,0,0:0:0:0:
192,192,80740,1,0,0:0:0:0:
320,192,80819,1,0,0:0:0:0:
192,192,80898,1,0,0:0:0:0:
64,192,80978,1,0,0:0:0:0:
192,192,81057,1,0,0:0:0:0:
320,192,81136,1,0,0:0:0:0:
448,192,81216,1,0,0:0:0:0:
320,192,81295,1,0,0:0:0:0:
192,192,81374,1,0,0:0:0:0:
320,192,81454,1,0,0:0:0:0:
448,192,81533,1,0,0:0:0:0:
320,192,81613,1,0,0:0:0:0:
192,192,81692,1,0,0:0:0:0:
64,192,81771,1,0,0:0:0:0:
192,192,81851,1,0,0:0:0:0:
320,192,81930,1,0,0:0:0:0:
448,192,82009,1,0,0:0:0:0:
320,192,82089,1,0,0:0:0:0:
192,192,82168,1,0,0:0:0:0:
64,192,82248,1,0,0:0:0:0:
192,192,82327,1,0,0:0:0:0:
320,192,82486,1,0,0:0:0:0:
448,192,82644,1,0,0:0:0:0:
64,192,82803,128,0,82962:0:0:0:0:
448,192,82962,1,0,0:0:0:0:
320,192,83041,1,0,0:0:0:0:
192,192,83121,1,0,0:0:0:0:
320,192,83200,1,0,0:0:0:0:
64,192,83279,1,0,0:0:0:0:
448,192,83438,128,0,83597:0:0:0:0:
320,192,83597,128,0,83755:0:0:0:0:
64,192,83597,1,0,0:0:0:0:
192,192,83755,128,0,83914:0:0:0:0:
64,192,83914,128,0,84073:0:0:0:0:
448,192,83914,1,0,0:0:0:0:
192,192,84073,128,0,84232:0:0:0:0:
448,192,84232,1,0,0:0:0:0:
320,192,84291,1,0,0:0:0:0:
192,192,84337,1,0,0:0:0:0:
64,192,84390,1,0,0:0:0:0:
448,192,84549,1,0,0:0:0:0:
320,192,84628,1,0,0:0:0:0:
192,192,84708,1,0,0:0:0:0:
64,192,84787,1,0,0:0:0:0:
192,192,84867,128,0,85025:0:0:0:0:
448,192,84867,1,0,0:0:0:0:
320,192,85025,128,0,85184:0:0:0:0:
192,192,85184,1,0,0:0:0:0:
448,192,85184,128,0,85343:0:0:0:0:
320,192,85501,128,0,85660:0:0:0:0:
64,192,85501,1,0,0:0:0:0:
192,192,85819,128,0,85978:0:0:0:0:
448,192,85819,1,0,0:0:0:0:
64,192,85978,128,0,86136:0:0:0:0:
448,192,86136,1,0,0:0:0:0:
320,192,86216,1,0,0:0:0:0:
192,192,86295,1,0,0:0:0:0:
64,192,86454,1,0,0:0:0:0:
192,192,86533,1,0,0:0:0:0:
320,192,86613,1,0,0:0:0:0:
192,192,86692,1,0,0:0:0:0:
64,192,86771,1,0,0:0:0:0:
64,192,86930,128,0,87089:0:0:0:0:
448,192,87089,1,0,0:0:0:0:
320,192,87168,1,0,0:0:0:0:
192,192,87248,1,0,0:0:0:0:
448,192,87327,1,0,0:0:0:0:
64,192,87406,1,0,0:0:0:0:
192,192,87486,1,0,0:0:0:0:
320,192,87565,1,0,0:0:0:0:
64,192,87644,1,0,0:0:0:0:
448,192,87724,128,0,87882:0:0:0:0:
320,192,87724,1,0,0:0:0:0:
64,192,88041,1,0,0:0:0:0:
192,192,88121,1,0,0:0:0:0:
320,192,88200,1,0,0:0:0:0:
192,192,88279,1,0,0:0:0:0:
64,192,88359,1,0,0:0:0:0:
192,192,88438,1,0,0:0:0:0:
320,192,88517,1,0,0:0:0:0:
448,192,88597,1,0,0:0:0:0:
320,192,88676,1,0,0:0:0:0:
192,192,88755,1,0,0:0:0:0:
64,192,88835,1,0,0:0:0:0:
192,192,88914,1,0,0:0:0:0:
320,192,88994,1,0,0:0:0:0:
192,192,89073,1,0,0:0:0:0:
64,192,89152,1,0,0:0:0:0:
192,192,89232,1,0,0:0:0:0:
320,192,89311,1,0,0:0:0:0:
448,192,89390,1,0,0:0:0:0:
320,192,89470,1,0,0:0:0:0:
192,192,89549,1,0,0:0:0:0:
320,192,89628,1,0,0:0:0:0:
448,192,89708,1,0,0:0:0:0:
320,192,89787,1,0,0:0:0:0:
192,192,89867,1,0,0:0:0:0:
64,192,89946,1,0,0:0:0:0:
192,192,90025,1,0,0:0:0:0:
320,192,90105,1,0,0:0:0:0:
448,192,90184,1,0,0:0:0:0:
192,192,90263,1,0,0:0:0:0:
320,192,90343,1,0,0:0:0:0:
448,192,90422,1,0,0:0:0:0:
320,192,90501,1,0,0:0:0:0:
192,192,90581,1,0,0:0:0:0:
448,192,90660,1,0,0:0:0:0:
320,192,90740,1,0,0:0:0:0:
192,192,90819,1,0,0:0:0:0:
64,192,90898,1,0,0:0:0:0:
192,192,90978,1,0,0:0:0:0:
320,192,91057,1,0,0:0:0:0:
64,192,91136,1,0,0:0:0:0:
448,192,91216,1,0,0:0:0:0:
320,192,91295,1,0,0:0:0:0:
192,192,91374,1,0,0:0:0:0:
448,192,91454,1,0,0:0:0:0:
320,192,91533,1,0,0:0:0:0:
192,192,91613,1,0,0:0:0:0:
64,192,91692,128,0,91851:0:0:0:0:
448,192,91851,1,0,0:0:0:0:
320,192,91930,1,0,0:0:0:0:
192,192,92009,1,0,0:0:0:0:
64,192,92168,1,0,0:0:0:0:
448,192,92168,1,0,0:0:0:0:
192,192,92248,1,0,0:0:0:0:
320,192,92327,1,0,0:0:0:0:
448,192,92406,1,0,0:0:0:0:
320,192,92486,1,0,0:0:0:0:
192,192,92644,128,0,92803:0:0:0:0:
448,192,92803,1,0,0:0:0:0:
64,192,92803,128,0,92962:0:0:0:0:
192,192,92962,128,0,93121:0:0:0:0:
64,192,93121,1,0,0:0:0:0:
320,192,93121,128,0,93279:0:0:0:0:
448,192,93279,128,0,93438:0:0:0:0:
320,192,93438,128,0,93597:0:0:0:0:
192,192,93438,1,0,0:0:0:0:
448,192,93597,128,0,93755:0:0:0:0:
64,192,93755,1,0,0:0:0:0:
192,192,93835,1,0,0:0:0:0:
320,192,93914,1,0,0:0:0:0:
448,192,94073,1,0,0:0:0:0:
64,192,94073,1,0,0:0:0:0:
320,192,94152,1,0,0:0:0:0:
192,192,94232,1,0,0:0:0:0:
64,192,94311,1,0,0:0:0:0:
192,192,94390,128,0,94549:0:0:0:0:
320,192,94549,1,0,0:0:0:0:
448,192,94549,128,0,94708:0:0:0:0:
64,192,94708,1,0,0:0:0:0:
192,192,94787,1,0,0:0:0:0:
320,192,94867,1,0,0:0:0:0:
64,192,94946,1,0,0:0:0:0:
448,192,95025,1,0,0:0:0:0:
320,192,95105,1,0,0:0:0:0:
192,192,95184,1,0,0:0:0:0:
448,192,95263,1,0,0:0:0:0:
64,192,95343,1,0,0:0:0:0:
192,192,95422,1,0,0:0:0:0:
320,192,95501,1,0,0:0:0:0:
448,192,95581,1,0,0:0:0:0:
64,192,95660,128,0,95819:0:0:0:0:
192,192,95660,1,0,0:0:0:0:
448,192,95978,128,0,96136:0:0:0:0:
320,192,95978,1,0,0:0:0:0:
192,192,96295,128,0,96454:0:0:0:0:
64,192,96295,1,0,0:0:0:0:
320,192,96454,128,0,96613:0:0:0:0:
448,192,96613,1,0,0:0:0:0:
192,192,96771,128,0,96930:0:0:0:0:
64,192,96930,1,0,0:0:0:0:
320,192,97089,128,0,97248:0:0:0:0:
448,192,97248,1,0,0:0:0:0:
64,192,97406,128,0,97565:0:0:0:0:
448,192,97565,1,0,0:0:0:0:
320,192,97644,1,0,0:0:0:0:
192,192,97724,1,0,0:0:0:0:
64,192,97803,1,0,0:0:0:0:
192,192,97882,1,0,0:0:0:0:
320,192,97962,1,0,0:0:0:0:
448,192,98041,1,0,0:0:0:0:
64,192,98121,1,0,0:0:0:0:
192,192,98200,1,0,0:0:0:0:
320,192,98279,1,0,0:0:0:0:
448,192,98359,1,0,0:0:0:0:
320,192,98438,1,0,0:0:0:0:
192,192,98517,1,0,0:0:0:0:
64,192,98597,1,0,0:0:0:0:
448,192,98676,128,0,98835:0:0:0:0:
320,192,98835,1,0,0:0:0:0:
192,192,98914,1,0,0:0:0:0:
64,192,98994,128,0,99152:0:0:0:0:
192,192,99152,1,0,0:0:0:0:
320,192,99232,1,0,0:0:0:0:
448,192,99470,1,0,0:0:0:0:
64,192,99470,1,0,0:0:0:0:
192,192,99628,1,0,0:0:0:0:
320,192,99628,1,0,0:0:0:0:
64,192,100422,1,0,0:0:0:0:
448,192,100422,1,0,0:0:0:0:
448,192,101057,128,0,101692:0:0:0:0:
320,192,101374,128,0,101692:0:0:0:0:
64,192,101374,1,0,0:0:0:0:
192,192,101692,1,0,0:0:0:0:
64,192,101930,1,0,0:0:0:0:
192,192,102009,1,0,0:0:0:0:
448,192,102168,1,0,0:0:0:0:
320,192,102327,1,0,0:0:0:0:
192,192,102486,1,0,0:0:0:0:
64,192,102644,1,0,0:0:0:0:
192,192,102724,1,0,0:0:0:0:
320,192,102803,1,0,0:0:0:0:
448,192,102882,1,0,0:0:0:0:
192,192,102962,1,0,0:0:0:0:
320,192,103121,1,0,0:0:0:0:
448,192,103279,1,0,0:0:0:0:
320,192,103359,1,0,0:0:0:0:
192,192,103438,1,0,0:0:0:0:
64,192,103517,1,0,0:0:0:0:
320,192,103597,1,0,0:0:0:0:
192,192,103755,1,0,0:0:0:0:
64,192,103914,1,0,0:0:0:0:
320,192,104073,1,0,0:0:0:0:
448,192,104232,1,0,0:0:0:0:
192,192,104390,1,0,0:0:0:0:
64,192,104549,1,0,0:0:0:0:
448,192,104708,1,0,0:0:0:0:
320,192,104867,1,0,0:0:0:0:
64,192,105025,1,0,0:0:0:0:
192,192,105184,1,0,0:0:0:0:
320,192,105343,1,0,0:0:0:0:
448,192,105501,1,0,0:0:0:0:
320,192,105581,1,0,0:0:0:0:
192,192,105660,1,0,0:0:0:0:
64,192,105740,1,0,0:0:0:0:
192,192,105819,1,0,0:0:0:0:
320,192,105978,1,0,0:0:0:0:
448,192,106136,1,0,0:0:0:0:
320,192,106216,1,0,0:0:0:0:
192,192,106295,1,0,0:0:0:0:
64,192,106374,1,0,0:0:0:0:
448,192,106454,1,0,0:0:0:0:
64,192,106533,1,0,0:0:0:0:
192,192,106613,1,0,0:0:0:0:
320,192,106692,1,0,0:0:0:0:
448,192,106771,1,0,0:0:0:0:
64,192,107089,1,0,0:0:0:0:
192,192,107168,1,0,0:0:0:0:
320,192,107248,1,0,0:0:0:0:
448,192,107327,1,0,0:0:0:0:
64,192,107406,1,0,0:0:0:0:
192,192,107486,1,0,0:0:0:0:
320,192,107565,1,0,0:0:0:0:
448,192,107644,1,0,0:0:0:0:
192,192,107724,1,0,0:0:0:0:
64,192,107882,1,0,0:0:0:0:
192,192,107962,1,0,0:0:0:0:
320,192,108041,1,0,0:0:0:0:
448,192,108200,1,0,0:0:0:0:
320,192,108279,1,0,0:0:0:0:
192,192,108359,1,0,0:0:0:0:
320,192,108517,1,0,0:0:0:0:
192,192,108597,1,0,0:0:0:0:
64,192,108676,1,0,0:0:0:0:
64,192,108994,128,0,110898:0:0:0:0:
448,192,108994,1,0,0:0:0:0:
320,192,109152,1,0,0:0:0:0:
192,192,109311,1,0,0:0:0:0:
320,192,109470,1,0,0:0:0:0:
448,192,109628,1,0,0:0:0:0:
320,192,109787,1,0,0:0:0:0:
192,192,109946,1,0,0:0:0:0:
320,192,110105,1,0,0:0:0:0:
448,192,110263,1,0,0:0:0:0:
320,192,110422,1,0,0:0:0:0:
192,192,110581,1,0,0:0:0:0:
448,192,110740,1,0,0:0:0:0:
320,192,110898,1,0,0:0:0:0:
192,192,111057,1,0,0:0:0:0:
64,192,111216,1,0,0:0:0:0:
192,192,111374,1,0,0:0:0:0:
320,192,111533,1,0,0:0:0:0:
448,192,111692,1,0,0:0:0:0:
320,192,111851,1,0,0:0:0:0:
192,192,112009,1,0,0:0:0:0:
64,192,112168,1,0,0:0:0:0:
192,192,112327,1,0,0:0:0:0:
320,192,112486,1,0,0:0:0:0:
448,192,112644,1,0,0:0:0:0:
192,192,112803,1,0,0:0:0:0:
320,192,112803,1,0,0:0:0:0:
