osu file format v14

[General]
AudioFilename: Yooh - Destroy.mp3
AudioLeadIn: 0
PreviewTime: 70517
Countdown: 0
SampleSet: Soft
StackLeniency: 0.3
Mode: 0
LetterboxInBreaks: 0
WidescreenStoryboard: 0

[Editor]
Bookmarks: 31148,50820
DistanceSpacing: 1.25
BeatDivisor: 4
GridSize: 4
TimelineZoom: 1.2

[Metadata]
Title:Destroy
TitleUnicode:Destroy
Artist:Yooh
ArtistUnicode:Yooh
Creator:Priti
Version:ULTRA
Source:SOUND VOLTEX III GRAVITY WARS
Tags:SDVX 3
BeatmapID:1126351
BeatmapSetID:531505

[Difficulty]
HPDrainRate:7
CircleSize:5
OverallDifficulty:9.6
ApproachRate:9.4
SliderMultiplier:2.1
SliderTickRate:1

[Events]
//Background and Video events
0,0,"D E S T R O Y.jpg",0,0
//Break Periods
2,11641,19516
//Storyboard Layer 0 (Background)
//Storyboard Layer 1 (Fail)
//Storyboard Layer 2 (Pass)
//Storyboard Layer 3 (Foreground)
//Storyboard Sound Samples

[TimingPoints]
1595,307.692307692308,4,3,1,70,1,0
2825,-133.333333333333,4,3,1,70,0,0
4056,-100,4,3,1,70,0,0
5287,-66.6666666666667,4,3,1,70,0,0
6518,-100,4,3,1,70,0,0
8979,-66.6666666666667,4,2,1,70,0,0
11133,-100,4,2,0,70,0,0
20056,-100,4,3,1,70,0,0
21287,-100,4,3,0,70,0,0
26210,-100,4,1,0,70,0,0
28671,-100,4,1,0,80,0,0
29902,-133.333333333333,4,1,0,40,0,0
30005,-133.333333333333,4,1,0,50,0,0
30107,-133.333333333333,4,1,0,60,0,0
30210,-133.333333333333,4,1,0,70,0,0
30312,-133.333333333333,4,1,0,80,0,0
30415,-133.333333333333,4,1,0,90,0,0
30518,-133.333333333333,4,1,0,80,0,0
31133,-66.6666666666667,4,2,0,85,0,0
34825,-100,4,3,1,85,0,0
36056,-66.6666666666667,4,2,0,85,0,0
39748,-100,4,3,1,85,0,0
40979,-66.6666666666667,4,3,0,85,0,0
44671,-100,4,2,1,85,0,0
45902,-66.6666666666667,4,3,0,85,0,0
46210,-166.666666666667,4,3,0,85,0,0
46415,-142.857142857143,4,3,0,85,0,0
46620,-125,4,3,0,85,0,0
46825,-111.111111111111,4,3,0,85,0,0
47030,-100,4,3,0,85,0,0
47236,-90.9090909090909,4,3,0,85,0,0
47441,-83.3333333333333,4,3,0,85,0,0
47646,-76.9230769230769,4,3,0,85,0,0
47851,-71.4285714285714,4,3,0,85,0,0
48056,-66.6666666666667,4,3,0,85,0,0
48364,-100,4,2,1,70,0,0
49595,300,4,2,1,60,1,0
49595,-100,4,2,1,60,0,0
49895,285.714285714286,4,2,1,60,1,0
50180,300,4,2,1,60,1,0
50480,-57.1428571428571,4,2,0,95,0,0
50751,-57.1428571428571,4,2,0,10,0,0
50825,307.692307692308,4,2,1,80,1,0
50825,-80,4,2,1,80,0,0

[Colours]
Combo1 : 133,130,198
Combo2 : 108,159,202
Combo3 : 170,205,215
Combo4 : 103,235,192

[HitObjects]
191,44,1595,6,0,P|208:125|208:269,1,210,4|0,1:2|0:0,0:0:0:0:
184,353,2056,1,4,1:2:0:0:
311,259,2210,1,0,0:0:0:0:
311,259,2287,1,0,0:0:0:0:
311,259,2364,1,0,0:0:0:0:
329,101,2518,2,0,P|273:112|220:116,1,105,4|0,1:2|0:0,0:0:0:0:
52,66,2825,6,0,L|46:148,1,78.7500030040742,6|0,3:0|2:0,0:0:0:0:
32,160,3056,2,0,L|38:242,1,78.7500030040742,6|0,3:0|2:0,0:0:0:0:
51,250,3287,2,0,L|47:291,1,39.3750015020371,6|0,3:0|2:0,0:0:0:0:
96,352,3441,1,2,3:0:0:0:
135,350,3518,1,0,3:0:0:0:
174,348,3595,1,4,3:0:0:0:
214,346,3671,1,0,3:0:0:0:
253,344,3748,1,4,3:0:0:0:
259,295,3825,1,2,3:0:0:0:
265,247,3902,1,4,3:0:0:0:
271,198,3979,1,2,3:0:0:0:
277,149,4056,6,0,B|408:187|346:116|481:153,1,210,4|0,1:2|0:0,0:0:0:0:
453,367,4518,1,4,1:2:0:0:
453,367,4671,2,0,P|429:320|423:269,1,105
277,149,4979,2,0,P|270:200|246:247,1,105,4|0,1:2|0:0,0:0:0:0:
5,123,5287,6,2,B|29:144|58:155|84:133|84:133|113:156|113:156|145:116|145:116|147:147|165:172,1,236.250009012223,6|0,1:3|0:1,0:1:0:0:
207,20,5595,2,2,L|129:10,1,78.7500030040742,2|0,1:3|2:1,0:1:0:0:
309,79,5748,2,2,L|387:68,1,78.7500030040742,2|0,1:3|2:1,0:1:0:0:
492,12,5902,1,10,1:0:0:0:
509,68,5979,1,8,3:0:0:0:
507,126,6056,1,8,3:0:0:0:
486,181,6133,1,8,3:0:0:0:
448,226,6210,1,4,3:0:0:0:
417,202,6287,1,4,3:0:0:0:
380,189,6364,1,4,3:0:0:0:
341,187,6441,1,4,3:0:0:0:
303,198,6518,6,0,L|174:190,1,105,4|0,1:2|0:0,0:0:0:0:
94,180,6825,1,0,0:0:0:0:
164,355,6979,2,0,L|393:343,1,210,4|0,1:2|0:0,0:0:0:0:
507,92,7441,2,0,P|479:160|477:202,1,105,4|0,1:2|0:0,0:0:0:0:
322,40,7748,6,0,P|353:140|363:245,1,210,4|0,1:2|1:0,0:0:0:0:
293,325,8210,1,0,1:0:0:0:
44,217,8364,2,0,L|179:206,1,105,4|0,1:2|0:0,0:0:0:0:
223,35,8671,1,4,1:2:0:0:
118,20,8825,1,0,1:0:0:0:
306,155,8979,6,0,P|366:135|420:140,1,105.000004005432,12|0,1:2|0:0,0:0:0:0:
478,214,9184,2,0,P|465:275|433:320,1,105.000004005432,8|0,1:0|0:0,0:0:0:0:
340,333,9389,2,0,P|292:291|270:241,1,105.000004005432,8|0,1:0|0:0,0:0:0:0:
337,136,9595,6,0,P|400:138|449:161,1,105.000004005432,12|0,1:2|0:0,0:0:0:0:
478,250,9800,2,0,P|445:304|400:335,1,105.000004005432,8|0,1:0|0:0,0:0:0:0:
308,315,10005,2,0,P|278:259|273:205,1,105.000004005432,8|0,1:0|0:0,0:0:0:0:
348,32,10210,5,12,1:2:0:0:
342,84,10312,1,0,1:0:0:0:
337,136,10415,1,0,1:0:0:0:
168,95,10518,5,12,1:2:0:0:
216,74,10620,1,0,1:0:0:0:
263,52,10723,1,0,1:0:0:0:
313,220,10825,5,12,1:2:0:0:
313,220,11133,2,2,L|224:155,1,105,12|0,1:2|0:1,0:1:0:0:
348,32,11441,5,4,1:0:0:0:
348,32,20056,6,0,P|407:53|491:54,2,140,0|0|8,1:0|1:0|1:0,0:0:0:0:
270,103,20671,2,0,P|211:124|127:125,2,140,0|0|8,1:0|1:0|1:0,0:0:0:0:
370,136,21287,6,0,L|359:302,1,140,4|0,1:0|0:0,0:0:0:0:
279,342,21595,2,0,P|214:312|121:327,1,140,8|0,1:2|0:0,0:0:0:0:
49,352,21902,1,0,1:0:0:0:
40,282,22005,1,0,0:0:0:0:
31,212,22107,1,0,0:0:0:0:
64,151,22210,2,0,L|214:163,1,140,8|0,1:2|0:0,0:0:0:0:
298,113,22518,6,0,P|321:197|318:260,1,140,0|0,1:0|0:0,0:0:0:0:
279,342,22825,2,0,L|362:355,1,70,8|0,1:2|0:0,0:0:0:0:
452,369,23030,1,0,0:0:0:0:
500,275,23133,2,0,L|491:205,2,70,0|0|0,1:0|0:0|0:0,0:0:0:0:
405,228,23441,2,0,L|414:152,2,70,8|0|0,1:2|0:0|0:0,0:0:0:0:
306,253,23748,6,0,L|155:259,1,140,0|0,1:0|0:0,0:0:0:0:
76,202,24056,2,0,P|76:277|31:331,1,140,8|0,1:2|0:0,0:0:0:0:
1,119,24364,1,0,1:0:0:0:
70,116,24466,1,0,0:0:0:0:
140,113,24569,1,0,0:0:0:0:
196,154,24671,2,0,P|256:164|331:128,1,140,8|0,1:2|0:0,0:0:0:0:
409,67,24979,6,0,L|399:218,1,140,0|0,1:0|0:0,0:0:0:0:
389,311,25287,1,8,1:2:0:0:
212,230,25492,1,0,0:0:0:0:
258,281,25595,1,0,1:0:0:0:
223,341,25697,1,0,0:0:0:0:
154,327,25800,1,0,0:0:0:0:
147,257,25902,2,0,P|48:268|1:282,1,140,8|0,0:2|0:0,0:0:0:0:
25,150,26210,6,0,P|69:160|99:161,1,70,0|0,0:0|0:0,0:0:0:0:
159,137,26415,1,0,0:0:0:0:
215,95,26518,2,0,P|259:85|289:84,1,70,8|0,0:2|0:0,0:0:0:0:
349,108,26723,1,0,0:0:0:0:
405,150,26825,2,0,L|396:236,2,70
480,75,27133,2,0,L|471:-11,2,70,8|0|0,0:2|0:0|0:0,0:0:0:0:
349,108,27441,6,0,P|314:105|280:96,1,70
220,59,27646,1,0,0:0:0:0:
151,72,27748,2,0,P|140:107|147:165,2,70,8|0|0,0:2|0:0|0:0,0:0:0:0:
46,92,28056,2,0,P|46:57|36:24,2,70
1,199,28364,2,0,L|90:205,1,70,8|0,0:2|0:0,0:0:0:0:
209,179,28569,1,0,0:0:0:0:
161,310,28671,5,4,0:2:0:0:
201,287,28774,1,0,0:0:0:0:
247,278,28877,1,0,0:0:0:0:
293,281,28979,1,8,0:2:0:0:
337,298,29082,1,0,0:0:0:0:
374,326,29184,1,0,0:0:0:0:
401,364,29287,5,4,0:2:0:0:
442,343,29389,1,0,0:0:0:0:
468,305,29492,1,0,0:0:0:0:
472,259,29595,1,8,0:2:0:0:
453,217,29697,1,0,0:0:0:0:
416,189,29800,1,0,0:0:0:0:
370,184,29902,6,0,P|360:145|359:123,5,52.5000020027161
379,55,30518,6,0,L|266:49,1,105.000004005432,4|0,0:2|0:0,0:0:0:0:
203,83,30825,2,2,L|98:88,1,105.000004005432,0|0,0:0|0:0,0:0:0:0:
99,10,31133,6,0,P|22:69|63:157,1,210.000008010865,8|0,1:3|0:0,0:0:0:0:
165,187,31441,2,0,L|156:291,1,105.000004005432,6|0,1:3|0:0,0:0:0:0:
265,153,31646,2,0,L|255:272,1,105.000004005432,6|0,1:3|0:0,0:0:0:0:
365,119,31851,2,0,L|355:238,1,105.000004005432,6|0,1:3|0:0,0:0:0:0:
465,85,32056,2,0,L|455:204,1,105.000004005432,6|0,1:3|2:0,0:0:0:0:
456,189,32364,6,0,P|478:268|368:303,1,210.000008010865,8|0,1:3|0:0,0:0:0:0:
285,257,32671,2,0,P|233:255|187:279,1,105.000004005432,6|0,1:3|0:0,0:0:0:0:
107,350,32877,2,0,P|82:304|84:252,1,105.000004005432,6|0,1:3|0:0,0:0:0:0:
155,174,33082,2,0,P|109:149|57:151,1,105.000004005432,6|0,1:3|0:0,0:0:0:0:
8,57,33287,2,0,P|59:58|105:34,1,105.000004005432,6|0,1:3|2:0,0:0:0:0:
286,95,33492,1,2,1:3:0:0:
286,95,33595,6,0,B|314:197|314:197|228:269,1,210.000008010865,8|0,1:3|0:0,0:0:0:0:
50,181,33902,2,0,L|158:174,1,105.000004005432,6|0,1:3|0:0,0:0:0:0:
133,277,34107,2,0,L|25:270,1,105.000004005432,6|0,1:3|0:0,0:0:0:0:
256,161,34312,2,0,L|364:154,1,105.000004005432,6|0,1:3|0:0,0:0:0:0:
338,270,34518,2,0,L|230:263,1,105.000004005432,6|0,1:3|0:0,0:0:0:0:
233,263,34825,6,0,L|449:253,1,210,2|2,1:3|3:0,0:0:0:0:
464,149,35287,1,2,0:2:0:0:
422,52,35441,2,0,P|382:62|369:70,1,52.5,8|0,1:0|0:0,0:0:0:0:
308,115,35595,2,0,P|268:105|255:97,1,52.5
211,36,35748,1,4,0:0:0:0:
184,35,35825,1,0,0:0:0:0:
158,39,35902,1,0,0:0:0:0:
133,45,35979,1,0,0:0:0:0:
109,55,36056,6,0,B|141:189|76:123|107:261,1,210.000008010865,8|0,1:3|0:0,0:0:0:0:
181,333,36364,2,0,P|237:311|290:318,1,105.000004005432,6|0,1:3|0:0,0:0:0:0:
374,362,36569,2,0,P|430:384|483:377,1,105.000004005432,6|0,1:3|0:0,0:0:0:0:
503,279,36774,2,0,L|493:162,1,105.000004005432,6|0,1:3|0:0,0:0:0:0:
390,149,36979,2,0,L|381:253,1,105.000004005432,6|0,1:3|0:0,0:0:0:0:
380,253,37287,6,0,L|368:24,1,210.000008010865,8|0,1:3|0:0,0:0:0:0:
284,107,37595,2,0,P|232:109|186:85,1,105.000004005432,6|0,1:3|0:0,0:0:0:0:
106,14,37800,2,0,P|81:60|83:112,1,105.000004005432,6|0,1:3|0:0,0:0:0:0:
154,190,38005,2,0,P|108:215|56:213,1,105.000004005432,6|0,1:3|0:0,0:0:0:0:
7,307,38210,2,0,P|58:306|104:330,1,105.000004005432,6|0,1:3|2:0,0:0:0:0:
288,365,38415,1,2,1:3:0:0:
288,365,38518,6,0,P|246:333|268:179,1,210.000008010865,6|0,1:3|0:0,0:0:0:0:
329,266,38825,2,0,L|442:255,1,105.000004005432,6|0,1:3|0:0,0:0:0:0:
455,153,39030,2,0,L|342:142,1,105.000004005432,6|0,1:3|0:0,0:0:0:0:
150,200,39236,2,0,L|263:189,1,105.000004005432,6|0,1:3|0:0,0:0:0:0:
276,87,39441,2,0,L|163:76,2,105.000004005432,6|2|2,1:3|1:2|1:2,0:0:0:0:
362,51,39748,6,0,P|421:40|473:36,1,105,2|0,1:3|0:0,0:0:0:0:
369,222,40056,2,0,L|264:211,1,105,2|0,1:3|2:0,0:0:0:0:
139,77,40364,2,0,P|127:121|111:148,1,52.5,8|0,1:0|2:0,0:0:0:0:
53,208,40518,2,0,P|65:252|81:279,1,52.5,2|0,0:0|2:0,0:0:0:0:
132,339,40671,2,0,L|204:332,1,52.5,2|0,0:0|2:0,0:0:0:0:
280,288,40825,2,0,L|352:295,1,52.5,2|0,0:0|2:0,0:0:0:0:
442,351,40979,6,0,B|473:213|408:279|440:145,1,210.000008010865,4|0,1:0|0:0,0:0:0:0:
454,41,41287,2,0,P|386:68|327:57,1,105.000004005432,6|0,1:3|0:0,0:0:0:0:
261,113,41492,2,0,P|193:86|134:97,1,105.000004005432,6|0,1:3|0:0,0:0:0:0:
77,150,41697,2,0,L|88:269,1,105.000004005432,6|0,1:3|0:0,0:0:0:0:
181,348,41902,2,0,L|191:244,1,105.000004005432,6|0,1:3|0:0,0:0:0:0:
280,188,42107,1,2,1:3:0:0:
383,210,42210,6,0,P|460:228|424:125,1,210.000008010865,8|0,1:3|0:0,0:0:0:0:
348,109,42518,2,0,L|231:113,1,105.000004005432,6|0,1:3|0:0,0:0:0:0:
165,184,42723,2,0,L|48:180,1,105.000004005432,6|0,1:3|0:0,0:0:0:0:
17,84,42928,2,0,L|121:87,1,105.000004005432,6|0,1:3|0:0,0:0:0:0:
200,16,43133,2,0,L|304:12,1,105.000004005432,6|0,1:3|0:0,0:0:0:0:
348,109,43338,1,2,1:3:0:0:
267,177,43441,6,0,P|237:273|301:352,1,210.000008010865,8|0,1:3|0:0,0:0:0:0:
445,247,43748,2,0,L|341:255,1,105.000004005432,6|0,1:3|0:0,0:0:0:0:
162,168,43953,2,0,L|266:176,1,105.000004005432,6|0,1:3|0:0,0:0:0:0:
445,89,44159,2,0,L|341:97,1,105.000004005432,6|0,1:3|0:0,0:0:0:0:
162,10,44364,2,0,L|266:18,2,105.000004005432,6|6|2,1:3|1:3|1:2,0:0:0:0:
60,35,44671,6,0,P|77:78|81:156,1,105,2|0,1:3|0:0,0:0:0:0:
139,269,44979,2,0,P|143:216|162:167,1,105,2|0,0:0|0:0,0:0:0:0:
274,71,45287,2,0,L|399:78,1,105,8|0,1:0|0:0,0:0:0:0:
498,159,45595,2,0,P|488:184|487:217,1,52.5,2|0,3:2|0:0,0:0:0:0:
405,292,45748,2,0,P|402:265|393:241,1,52.5,2|0,3:2|0:0,0:0:0:0:
293,187,45902,6,0,L|60:197,1,210.000008010865,6|0,1:3|0:0,0:0:0:0:
35,91,46210,6,0,P|65:85|86:76,1,41.9999987182618,6|0,1:3|0:0,0:0:0:0:
68,101,46415,2,0,P|95:87|113:74,1,48.9999985046387,6|0,1:3|0:0,0:0:0:0:
184,20,46620,6,0,P|220:27|245:38,1,56,6|0,1:3|0:0,0:0:0:0:
223,8,46825,2,0,P|256:23|278:40,1,62.9999980773926,6|0,1:3|0:0,0:0:0:0:
360,81,47030,6,0,P|403:72|434:59,1,70,6|0,1:3|0:0,0:0:0:0:
390,113,47236,2,0,P|430:93|456:73,1,77.0000023498536,6|0,1:3|0:0,0:0:0:0:
283,112,47441,6,0,P|266:161|261:199,1,83.9999974365235,6|0,1:3|0:0,0:0:0:0:
249,130,47646,2,0,P|244:181|249:220,1,90.9999958343508,6|0,1:3|0:0,0:0:0:0:
121,178,47851,6,0,P|135:236|136:281,1,97.9999970092774,6|0,1:3|0:0,0:0:0:0:
168,203,48056,2,0,P|167:263|158:307,2,105.000004005432,6|6|6,1:3|1:3|1:3,0:0:0:0:
49,122,48364,6,0,L|56:14,1,105,8|0,1:0|0:0,0:0:0:0:
320,156,48671,2,0,L|313:48,1,105,8|0,1:0|0:0,0:0:0:0:
168,203,48979,2,0,L|175:95,1,105,8|0,1:0|0:0,0:0:0:0:
439,237,49287,2,0,L|432:129,1,105,8|0,1:0|0:0,0:0:0:0:
293,320,49595,5,8,1:0:0:0:
320,156,49745,1,8,1:0:0:0:
196,278,49895,5,8,1:0:0:0:
223,114,50037,1,8,1:0:0:0:
99,236,50180,5,8,1:0:0:0:
105,195,50255,1,8,1:0:0:0:
112,154,50330,1,8,1:0:0:0:
118,113,50405,1,8,1:0:0:0:
127,73,50480,6,2,B|137:286|137:286|79:210,1,275.625002628565,8|0,1:0|0:0,0:1:0:0:
172,198,50825,6,0,L|331:203,1,131.25,6|0,1:0|0:0,0:0:0:0:
416,50,51132,2,0,P|351:47|294:15,1,131.25,8|0,1:0|0:0,0:0:0:0:
500,251,51440,2,0,P|435:254|378:286,1,131.25,2|0,1:0|0:0,0:0:0:0:
472,384,51748,1,8,1:0:0:0:
242,357,51901,2,0,L|252:210,1,131.25,2|0,0:1|1:0,0:0:0:0:
179,9,52209,5,2,0:1:0:0:
191,140,52363,1,8,1:0:0:0:
203,271,52517,1,2,0:1:0:0:
367,178,52671,2,0,P|456:180|496:224,1,131.25,2|0,1:0|0:0,0:0:0:0:
390,41,52978,2,0,P|335:75|272:68,1,131.25,10|0,1:0|0:0,0:0:0:0:
65,3,53286,6,0,L|75:137,1,131.25,2|0,1:0|0:0,0:0:0:0:
241,343,53594,2,0,L|250:212,1,131.25,10|0,1:0|0:0,0:0:0:0:
59,328,53901,1,2,1:0:0:0:
320,301,54055,1,2,0:1:0:0:
250,212,54209,1,10,1:0:0:0:
506,266,54363,1,2,0:1:0:0:
424,17,54517,6,0,L|427:99,1,65.625,2|0,1:0|0:0,0:0:0:0:
431,164,54671,2,0,L|434:246,1,65.625,0|2,1:0|0:1,0:0:0:0:
307,171,54825,2,0,P|328:109|330:44,1,131.25,8|2,1:0|1:1,0:0:0:0:
85,0,55132,2,0,P|86:65|107:127,1,131.25,2|2,1:0|0:1,0:0:0:0:
188,108,55363,1,2,1:1:0:0:
164,186,55440,2,0,L|304:180,1,131.25,8|2,1:0|1:1,0:0:0:0:
512,300,55748,6,0,L|368:292,1,131.25,2|0,1:0|0:0,0:0:0:0:
444,250,55978,1,2,0:1:0:0:
450,263,56055,1,8,1:0:0:0:
303,325,56209,2,0,L|374:214,1,131.25,2|0,1:0|0:0,0:0:0:0:
380,293,56440,1,2,0:1:0:0:
366,291,56517,1,0,0:0:0:0:
384,133,56671,2,0,L|443:249,1,131.25,10|0,1:0|1:0,0:0:0:0:
314,198,56901,1,0,1:0:0:0:
304,186,56978,6,0,P|295:96|325:56,1,131.25,2|0,1:0|0:0,0:0:0:0:
388,21,57209,1,2,0:1:0:0:
388,21,57286,1,8,1:0:0:0:
488,176,57440,2,0,P|414:228|364:222,1,131.25,2|0,1:0|0:0,0:0:0:0:
304,186,57671,1,2,0:1:0:0:
304,186,57748,1,0,0:0:0:0:
388,21,57901,2,0,P|470:58|490:104,1,131.25,10|0,1:0|0:0,0:0:0:0:
488,176,58132,1,0,1:0:0:0:
426,228,58209,5,2,1:0:0:0:
377,226,58286,1,0,1:0:0:0:
328,224,58363,1,0,1:0:0:0:
279,221,58440,1,2,1:1:0:0:
230,219,58517,1,8,1:0:0:0:
98,72,58671,1,2,1:0:0:0:
61,340,58825,5,2,1:0:0:0:
110,338,58901,1,0,1:0:0:0:
159,336,58978,1,0,1:0:0:0:
208,333,59055,1,2,1:1:0:0:
257,331,59132,1,8,1:0:0:0:
347,154,59286,1,2,1:0:0:0:
98,72,59440,6,0,P|166:81|229:39,1,131.25,2|0,1:0|1:0,0:0:0:0:
288,7,59671,1,2,0:1:0:0:
369,20,59748,2,0,L|362:107,1,65.625,8|0,1:0|0:0,0:0:0:0:
284,236,59901,2,0,P|275:189|262:166,1,65.625,2|0,1:0|0:0,0:0:0:0:
464,117,60055,1,0,1:0:0:0:
440,159,60132,1,2,1:0:0:0:
429,207,60209,1,0,1:0:0:0:
431,256,60286,1,0,1:0:0:0:
446,303,60363,2,0,L|291:315,1,131.25,10|2,1:0|0:1,0:0:0:0:
56,198,60671,6,0,L|211:210,1,131.25,2|0,1:0|0:0,0:0:0:0:
466,40,60978,2,0,P|430:109|453:179,1,131.25,10|0,1:0|0:0,0:0:0:0:
247,5,61286,2,0,P|250:82|305:131,1,131.25,2|0,1:0|0:0,0:0:0:0:
504,215,61594,1,8,1:0:0:0:
342,376,61748,2,0,L|351:232,1,131.25,2|0,0:1|1:0,0:0:0:0:
331,43,62055,5,2,0:1:0:0:
274,233,62209,1,8,1:0:0:0:
137,88,62363,1,2,0:1:0:0:
302,138,62517,2,0,P|366:128|473:124,1,131.25,2|0,1:0|0:0,0:0:0:0:
182,291,62825,2,0,P|118:281|11:277,1,131.25,10|0,1:0|0:0,0:0:0:0:
342,376,63132,6,0,L|351:232,1,131.25,6|0,1:0|0:0,0:0:0:0:
137,88,63440,2,0,L|153:232,1,131.25,10|0,1:0|0:0,0:0:0:0:
460,116,63748,2,0,B|396:135|396:135|336:80,1,131.25,6|0,1:0|0:0,0:0:0:0:
287,36,63978,1,2,0:1:0:0:
205,49,64055,2,0,L|73:42,1,131.25,8|2,1:0|0:1,0:0:0:0:
20,225,64363,6,0,L|152:218,1,131.25,6|0,1:0|0:0,0:0:0:0:
234,213,64594,1,2,0:1:0:0:
308,246,64671,2,0,P|345:259|389:252,1,65.625,8|0,1:0|0:0,0:0:0:0:
421,138,64825,2,0,P|389:137|359:150,1,65.625,2|0,1:1|0:0,0:0:0:0:
469,333,64978,2,0,L|473:201,1,131.25,2|0,1:0|0:0,0:0:0:0:
421,138,65209,1,2,1:0:0:0:
368,74,65286,1,10,1:0:0:0:
234,213,65440,1,2,1:1:0:0:
64,112,65594,6,0,P|73:160|47:252,1,131.25,6|0,1:0|0:0,0:0:0:0:
28,335,65825,2,0,P|84:322|108:323,1,65.625,2|8,0:1|1:0,0:0:0:0:
227,356,65978,1,0,0:0:0:0:
238,344,66055,2,0,L|233:192,1,131.25,2|0,1:0|0:0,0:0:0:0:
230,129,66286,1,2,1:1:0:0:
226,45,66363,2,0,P|191:59|152:59,1,65.625,0|0,1:0|0:0,0:0:0:0:
359,144,66517,2,0,P|293:144|230:128,1,131.25,10|0,1:0|1:0,0:0:0:0:
20,45,66825,6,0,L|30:196,1,131.25,2|0,1:0|0:0,0:0:0:0:
134,281,67055,2,0,L|143:203,1,65.625,2|8,0:1|1:0,0:0:0:0:
230,129,67209,1,0,0:0:0:0:
242,139,67286,2,0,P|315:172|369:142,1,131.25,2|0,1:0|0:0,0:0:0:0:
384,74,67517,1,2,1:1:0:0:
316,26,67594,2,0,L|307:91,1,65.625,0|0,1:0|0:0,0:0:0:0:
399,204,67748,2,0,L|383:73,1,131.25,10|0,1:0|0:0,0:0:0:0:
