osu file format v12

[General]
AudioFilename: MAD HEAD LOVE.mp3
AudioLeadIn: 0
PreviewTime: 55760
Countdown: 0
SampleSet: Normal
StackLeniency: 0.7
Mode: 1
LetterboxInBreaks: 0
WidescreenStoryboard: 1

[Editor]
DistanceSpacing: 0.5
BeatDivisor: 2
GridSize: 16

[Metadata]
Title:MAD HEAD LOVE
TitleUnicode:MAD HEAD LOVE
Artist:Yonezu Kenshi
ArtistUnicode:米津玄師
Creator:Shino
Version:Futsuu
Source:MAD HEAD LOVE / ポッピンアパシー
Tags:hachi
BeatmapID:303934
BeatmapSetID:118131

[Difficulty]
HPDrainRate:5
CircleSize:5
OverallDifficulty:5
ApproachRate:5
SliderMultiplier:1.2
SliderTickRate:1

[Events]
//Background and Video events
0,0,"MAD HEAD LOVE.png",0,0
Video,0,"MAD HEAD LOVE.avi"
//Break Periods
//Storyboard Layer 0 (Background)
//Storyboard Layer 1 (Fail)
//Storyboard Layer 2 (Pass)
//Storyboard Layer 3 (Foreground)
//Storyboard Sound Samples
//Background Colour Transformations
3,100,163,162,255

[TimingPoints]
8263,282.722809133832,4,1,0,100,1,0
55760,-100,4,1,0,100,0,1
73854,-100,4,1,0,100,0,0
123613,-100,4,1,0,100,0,1
141708,-100,4,1,0,100,0,0
188074,-100,4,1,0,100,0,1
206168,-100,4,1,0,100,0,0

[HitObjects]
256,192,8262,5,4,0:0:0:0:
256,192,8545,1,0,0:0:0:0:
256,192,8687,1,0,0:0:0:0:
256,192,8828,1,0,0:0:0:0:
256,192,9111,1,0,0:0:0:0:
256,192,9393,1,0,0:0:0:0:
256,192,9676,1,8,0:0:0:0:
256,192,9959,1,0,0:0:0:0:
256,192,10524,1,0,0:0:0:0:
256,192,10807,1,0,0:0:0:0:
256,192,10948,1,0,0:0:0:0:
256,192,11090,1,0,0:0:0:0:
256,192,11372,1,0,0:0:0:0:
256,192,11655,1,0,0:0:0:0:
256,192,11938,1,8,0:0:0:0:
256,192,12221,1,8,0:0:0:0:
256,192,12786,5,4,0:0:0:0:
256,192,13069,1,0,0:0:0:0:
256,192,13211,1,0,0:0:0:0:
256,192,13352,1,0,0:0:0:0:
256,192,13635,1,0,0:0:0:0:
256,192,13917,1,0,0:0:0:0:
256,192,14200,1,8,0:0:0:0:
256,192,14483,1,0,0:0:0:0:
256,192,15048,1,0,0:0:0:0:
256,192,15331,1,0,0:0:0:0:
256,192,15472,1,0,0:0:0:0:
256,192,15614,1,0,0:0:0:0:
256,192,15896,1,0,0:0:0:0:
256,192,16179,1,0,0:0:0:0:
256,192,16462,1,8,0:0:0:0:
256,192,16745,1,8,0:0:0:0:
256,192,17310,5,0,0:0:0:0:
256,192,17875,1,0,0:0:0:0:
256,192,18441,1,0,0:0:0:0:
256,192,18582,1,0,0:0:0:0:
256,192,18723,1,0,0:0:0:0:
256,192,19006,1,0,0:0:0:0:
256,192,19571,1,0,0:0:0:0:
256,192,20137,1,0,0:0:0:0:
256,192,20702,1,0,0:0:0:0:
256,192,20844,1,0,0:0:0:0:
256,192,20985,1,0,0:0:0:0:
256,192,21126,1,0,0:0:0:0:
256,192,21268,1,0,0:0:0:0:
256,192,21833,5,8,0:0:0:0:
256,192,22399,1,8,0:0:0:0:
256,192,22964,1,8,0:0:0:0:
256,192,23105,1,8,0:0:0:0:
256,192,23247,1,8,0:0:0:0:
256,192,23530,1,8,0:0:0:0:
256,192,23812,1,8,0:0:0:0:
256,192,24095,1,0,0:0:0:0:
256,192,24660,1,0,0:0:0:0:
256,192,25226,1,0,0:0:0:0:
256,192,25509,1,8,0:0:0:0:
256,192,25650,1,8,0:0:0:0:
256,192,25791,1,8,0:0:0:0:
256,192,26357,5,0,0:0:0:0:
256,192,26639,1,8,0:0:0:0:
256,192,26922,1,0,0:0:0:0:
256,192,27064,1,0,0:0:0:0:
256,192,27205,1,0,0:0:0:0:
256,192,27488,1,0,0:0:0:0:
256,192,27770,1,0,0:0:0:0:
256,192,28053,1,0,0:0:0:0:
256,192,28619,1,0,0:0:0:0:
256,192,28901,1,8,0:0:0:0:
256,192,29184,1,0,0:0:0:0:
256,192,29325,1,0,0:0:0:0:
256,192,29467,1,0,0:0:0:0:
256,192,29749,1,8,0:0:0:0:
256,192,30032,1,8,0:0:0:0:
256,192,30315,1,8,0:0:0:0:
256,192,30880,1,0,0:0:0:0:
256,192,31163,1,8,0:0:0:0:
256,192,31446,1,0,0:0:0:0:
256,192,31728,1,0,0:0:0:0:
256,192,31870,1,0,0:0:0:0:
256,192,32011,1,0,0:0:0:0:
256,192,32294,1,8,0:0:0:0:
256,192,32577,1,0,0:0:0:0:
256,192,33142,1,8,0:0:0:0:
256,192,33708,1,8,0:0:0:0:
256,192,34273,1,8,0:0:0:0:
256,192,34414,1,8,0:0:0:0:
256,192,34556,1,8,0:0:0:0:
256,192,34697,1,8,0:0:0:0:
256,192,34838,1,8,0:0:0:0:
256,192,35404,5,0,0:0:0:0:
256,192,35687,1,0,0:0:0:0:
256,192,35969,1,8,0:0:0:0:
256,192,36535,1,0,0:0:0:0:
256,192,36818,1,0,0:0:0:0:
256,192,37100,1,8,0:0:0:0:
256,192,37666,1,0,0:0:0:0:
256,192,38231,1,8,0:0:0:0:
256,192,38797,1,0,0:0:0:0:
256,192,39079,1,8,0:0:0:0:
256,192,39362,1,0,0:0:0:0:
256,192,39645,1,8,0:0:0:0:
256,192,39927,5,0,0:0:0:0:
256,192,40210,1,0,0:0:0:0:
256,192,40492,1,8,0:0:0:0:
256,192,41058,1,0,0:0:0:0:
256,192,41341,1,0,0:0:0:0:
256,192,41623,1,8,0:0:0:0:
256,192,42189,1,0,0:0:0:0:
256,192,42754,1,8,0:0:0:0:
256,192,43320,1,8,0:0:0:0:
256,192,43602,1,8,0:0:0:0:
256,192,43885,1,0,0:0:0:0:
256,192,44168,1,8,0:0:0:0:
256,192,44451,5,0,0:0:0:0:
256,192,44734,1,0,0:0:0:0:
256,192,45016,1,8,0:0:0:0:
256,192,45582,1,0,0:0:0:0:
256,192,45865,1,0,0:0:0:0:
256,192,46147,1,8,0:0:0:0:
256,192,46713,1,0,0:0:0:0:
256,192,47278,1,8,0:0:0:0:
256,192,47844,1,0,0:0:0:0:
256,192,48126,1,8,0:0:0:0:
256,192,48409,1,0,0:0:0:0:
256,192,48692,1,8,0:0:0:0:
256,192,48975,1,0,0:0:0:0:
256,192,49257,1,0,0:0:0:0:
256,192,49540,1,0,0:0:0:0:
256,192,50105,1,0,0:0:0:0:
256,192,50388,1,0,0:0:0:0:
256,192,50671,1,0,0:0:0:0:
256,192,51236,1,0,0:0:0:0:
256,192,51519,1,8,0:0:0:0:
256,192,51802,1,0,0:0:0:0:
256,192,52085,1,8,0:0:0:0:
256,192,52367,1,0,0:0:0:0:
256,192,52650,1,0,0:0:0:0:
256,192,52933,1,0,0:0:0:0:
256,192,53215,1,0,0:0:0:0:
256,192,53498,1,0,0:0:0:0:
256,192,54064,1,0,0:0:0:0:
256,192,54629,1,0,0:0:0:0:
256,192,54912,1,0,0:0:0:0:
256,192,55194,1,0,0:0:0:0:
256,192,55760,5,4,0:0:0:0:
256,192,56043,1,8,0:0:0:0:
256,192,56325,1,0,0:0:0:0:
256,192,56608,1,8,0:0:0:0:
256,192,56749,1,8,0:0:0:0:
256,192,56891,1,8,0:0:0:0:
256,192,57174,1,8,0:0:0:0:
256,192,57456,1,0,0:0:0:0:
256,192,58022,1,8,0:0:0:0:
256,192,58587,1,0,0:0:0:0:
256,192,58870,1,0,0:0:0:0:
256,192,59011,1,0,0:0:0:0:
256,192,59153,1,0,0:0:0:0:
256,192,59435,1,8,0:0:0:0:
256,192,59718,1,8,0:0:0:0:
256,192,60283,5,0,0:0:0:0:
256,192,60566,1,8,0:0:0:0:
256,192,60848,1,0,0:0:0:0:
256,192,61131,1,8,0:0:0:0:
256,192,61272,1,8,0:0:0:0:
256,192,61414,1,8,0:0:0:0:
256,192,61697,1,0,0:0:0:0:
256,192,61979,1,8,0:0:0:0:
256,192,62545,1,0,0:0:0:0:
256,192,63110,1,0,0:0:0:0:
256,192,63393,1,8,0:0:0:0:
256,192,63534,1,8,0:0:0:0:
256,192,63676,1,8,0:0:0:0:
256,192,63958,1,8,0:0:0:0:
256,192,64241,1,0,0:0:0:0:
256,192,64807,5,0,0:0:0:0:
256,192,65090,1,0,0:0:0:0:
256,192,65373,1,8,0:0:0:0:
256,192,65655,1,8,0:0:0:0:
256,192,65938,1,0,0:0:0:0:
256,192,66221,1,8,0:0:0:0:
256,192,66362,1,0,0:0:0:0:
256,192,66645,1,8,0:0:0:0:
256,192,67069,1,0,0:0:0:0:
256,192,67210,1,0,0:0:0:0:
256,192,67352,1,0,0:0:0:0:
256,192,67634,1,0,0:0:0:0:
256,192,67917,1,0,0:0:0:0:
256,192,68200,1,8,0:0:0:0:
256,192,68482,1,8,0:0:0:0:
256,192,68765,1,0,0:0:0:0:
256,192,69331,5,0,0:0:0:0:
256,192,69614,1,8,0:0:0:0:
256,192,69897,1,0,0:0:0:0:
256,192,70179,1,8,0:0:0:0:
256,192,70462,1,0,0:0:0:0:
256,192,70745,1,0,0:0:0:0:
256,192,70886,1,8,0:0:0:0:
256,192,71169,1,8,0:0:0:0:
256,192,71593,1,0,0:0:0:0:
256,192,71734,1,0,0:0:0:0:
256,192,71876,1,0,0:0:0:0:
256,192,72158,1,8,0:0:0:0:
256,192,72441,1,0,0:0:0:0:
256,192,72724,1,8,0:0:0:0:
256,192,73006,1,8,0:0:0:0:
256,192,73289,1,8,0:0:0:0:
256,192,73854,5,0,0:0:0:0:
256,192,74137,1,8,0:0:0:0:
256,192,74419,1,0,0:0:0:0:
256,192,74702,1,8,0:0:0:0:
256,192,74843,1,8,0:0:0:0:
256,192,74985,1,8,0:0:0:0:
256,192,75268,1,8,0:0:0:0:
256,192,75550,1,0,0:0:0:0:
256,192,76116,1,8,0:0:0:0:
256,192,76681,1,0,0:0:0:0:
256,192,76964,1,0,0:0:0:0:
256,192,77105,1,0,0:0:0:0:
256,192,77247,1,0,0:0:0:0:
256,192,77529,1,8,0:0:0:0:
256,192,77812,1,8,0:0:0:0:
256,192,78377,5,0,0:0:0:0:
256,192,78660,1,8,0:0:0:0:
256,192,78942,1,0,0:0:0:0:
256,192,79225,1,8,0:0:0:0:
256,192,79366,1,8,0:0:0:0:
256,192,79508,1,8,0:0:0:0:
256,192,79791,1,0,0:0:0:0:
256,192,80073,1,8,0:0:0:0:
256,192,80639,1,0,0:0:0:0:
256,192,81204,1,0,0:0:0:0:
256,192,81487,1,8,0:0:0:0:
256,192,81628,1,8,0:0:0:0:
256,192,81770,1,8,0:0:0:0:
256,192,82052,1,8,0:0:0:0:
256,192,82335,1,8,0:0:0:0:
256,192,82901,5,4,0:0:0:0:
256,192,83184,1,0,0:0:0:0:
256,192,83326,1,0,0:0:0:0:
256,192,83467,1,0,0:0:0:0:
256,192,83750,1,0,0:0:0:0:
256,192,84032,1,0,0:0:0:0:
256,192,84315,1,8,0:0:0:0:
256,192,84598,1,0,0:0:0:0:
256,192,85163,1,0,0:0:0:0:
256,192,85446,1,0,0:0:0:0:
256,192,85587,1,0,0:0:0:0:
256,192,85729,1,0,0:0:0:0:
256,192,86011,1,0,0:0:0:0:
256,192,86294,1,0,0:0:0:0:
256,192,86577,1,8,0:0:0:0:
256,192,86860,1,8,0:0:0:0:
256,192,87425,5,4,0:0:0:0:
256,192,87708,1,0,0:0:0:0:
256,192,87850,1,0,0:0:0:0:
256,192,87991,1,0,0:0:0:0:
256,192,88274,1,0,0:0:0:0:
256,192,88556,1,0,0:0:0:0:
256,192,88839,1,8,0:0:0:0:
256,192,89122,1,0,0:0:0:0:
256,192,89687,1,0,0:0:0:0:
256,192,89970,1,0,0:0:0:0:
256,192,90111,1,0,0:0:0:0:
256,192,90253,1,0,0:0:0:0:
256,192,90535,1,0,0:0:0:0:
256,192,90818,1,0,0:0:0:0:
256,192,91101,1,8,0:0:0:0:
256,192,91384,1,8,0:0:0:0:
256,192,91948,5,0,0:0:0:0:
256,192,92230,1,8,0:0:0:0:
256,192,92513,1,0,0:0:0:0:
256,192,92655,1,0,0:0:0:0:
256,192,92796,1,0,0:0:0:0:
256,192,93079,1,0,0:0:0:0:
256,192,93361,1,8,0:0:0:0:
256,192,93644,1,8,0:0:0:0:
256,192,94210,1,0,0:0:0:0:
256,192,94493,1,8,0:0:0:0:
256,192,94775,1,8,0:0:0:0:
256,192,94916,1,8,0:0:0:0:
256,192,95058,1,8,0:0:0:0:
256,192,95340,1,0,0:0:0:0:
256,192,95623,1,8,0:0:0:0:
256,192,95906,1,0,0:0:0:0:
256,192,96471,1,0,0:0:0:0:
256,192,96754,1,8,0:0:0:0:
256,192,97037,1,0,0:0:0:0:
256,192,97319,1,0,0:0:0:0:
256,192,97461,1,0,0:0:0:0:
256,192,97602,1,0,0:0:0:0:
256,192,97885,1,8,0:0:0:0:
256,192,98168,1,0,0:0:0:0:
256,192,98733,1,8,0:0:0:0:
256,192,99299,1,8,0:0:0:0:
256,192,99864,1,8,0:0:0:0:
256,192,100005,1,8,0:0:0:0:
256,192,100147,1,8,0:0:0:0:
256,192,100288,1,8,0:0:0:0:
256,192,100429,1,8,0:0:0:0:
256,192,100996,5,0,0:0:0:0:
256,192,101279,1,0,0:0:0:0:
256,192,101561,1,8,0:0:0:0:
256,192,102127,1,0,0:0:0:0:
256,192,102410,1,0,0:0:0:0:
256,192,102692,1,8,0:0:0:0:
256,192,103258,1,0,0:0:0:0:
256,192,103823,1,8,0:0:0:0:
256,192,104389,1,0,0:0:0:0:
256,192,104671,1,8,0:0:0:0:
256,192,104954,1,0,0:0:0:0:
256,192,105237,1,8,0:0:0:0:
256,192,105519,5,0,0:0:0:0:
256,192,105802,1,0,0:0:0:0:
256,192,106084,1,8,0:0:0:0:
256,192,106650,1,0,0:0:0:0:
256,192,106933,1,0,0:0:0:0:
256,192,107215,1,8,0:0:0:0:
256,192,107781,1,0,0:0:0:0:
256,192,108346,1,8,0:0:0:0:
256,192,108912,1,8,0:0:0:0:
256,192,109194,1,8,0:0:0:0:
256,192,109477,1,0,0:0:0:0:
256,192,109760,1,8,0:0:0:0:
256,192,110043,5,0,0:0:0:0:
256,192,110326,1,0,0:0:0:0:
256,192,110608,1,8,0:0:0:0:
256,192,111174,1,0,0:0:0:0:
256,192,111457,1,0,0:0:0:0:
256,192,111739,1,8,0:0:0:0:
256,192,112305,1,0,0:0:0:0:
256,192,112870,1,8,0:0:0:0:
256,192,113436,1,0,0:0:0:0:
256,192,113718,1,8,0:0:0:0:
256,192,114001,1,0,0:0:0:0:
256,192,114284,1,8,0:0:0:0:
256,192,114567,1,0,0:0:0:0:
256,192,114849,1,0,0:0:0:0:
256,192,115132,1,0,0:0:0:0:
256,192,115697,1,0,0:0:0:0:
256,192,115980,1,0,0:0:0:0:
256,192,116263,1,0,0:0:0:0:
256,192,116828,1,0,0:0:0:0:
256,192,117111,1,8,0:0:0:0:
256,192,117394,1,0,0:0:0:0:
256,192,117677,1,8,0:0:0:0:
256,192,117959,1,0,0:0:0:0:
256,192,118242,1,0,0:0:0:0:
256,192,118525,1,0,0:0:0:0:
256,192,118807,1,0,0:0:0:0:
256,192,119090,1,0,0:0:0:0:
256,192,119656,1,0,0:0:0:0:
256,192,120221,1,0,0:0:0:0:
256,192,120504,1,0,0:0:0:0:
256,192,120786,1,0,0:0:0:0:
256,192,121352,1,8,0:0:0:0:
256,192,121634,1,8,0:0:0:0:
256,192,121917,1,8,0:0:0:0:
256,192,122200,1,8,0:0:0:0:
256,192,122483,1,0,0:0:0:0:
256,192,122765,1,0,0:0:0:0:
256,192,123048,1,0,0:0:0:0:
256,192,123613,5,4,0:0:0:0:
256,192,123896,1,8,0:0:0:0:
256,192,124178,1,0,0:0:0:0:
256,192,124461,1,8,0:0:0:0:
256,192,124602,1,8,0:0:0:0:
256,192,124744,1,8,0:0:0:0:
256,192,125027,1,0,0:0:0:0:
256,192,125310,1,8,0:0:0:0:
256,192,125875,1,8,0:0:0:0:
256,192,126440,1,0,0:0:0:0:
256,192,126723,1,0,0:0:0:0:
256,192,126864,1,0,0:0:0:0:
256,192,127006,1,0,0:0:0:0:
256,192,127288,1,8,0:0:0:0:
256,192,127571,1,8,0:0:0:0:
256,192,128136,5,8,0:0:0:0:
256,192,128419,1,8,0:0:0:0:
256,192,128701,1,0,0:0:0:0:
256,192,128984,1,8,0:0:0:0:
256,192,129125,1,8,0:0:0:0:
256,192,129267,1,8,0:0:0:0:
256,192,129550,1,0,0:0:0:0:
256,192,129832,1,8,0:0:0:0:
256,192,130398,1,0,0:0:0:0:
256,192,130963,1,0,0:0:0:0:
256,192,131246,1,8,0:0:0:0:
256,192,131387,1,8,0:0:0:0:
256,192,131529,1,8,0:0:0:0:
256,192,131811,1,8,0:0:0:0:
256,192,132094,1,0,0:0:0:0:
256,192,132660,5,0,0:0:0:0:
256,192,132943,1,0,0:0:0:0:
256,192,133226,1,8,0:0:0:0:
256,192,133508,1,0,0:0:0:0:
256,192,133791,1,8,0:0:0:0:
256,192,134074,1,8,0:0:0:0:
256,192,134215,1,0,0:0:0:0:
256,192,134498,1,8,0:0:0:0:
256,192,134922,1,0,0:0:0:0:
256,192,135063,1,0,0:0:0:0:
256,192,135205,1,0,0:0:0:0:
256,192,135487,1,8,0:0:0:0:
256,192,135770,1,0,0:0:0:0:
256,192,136053,1,8,0:0:0:0:
256,192,136335,1,8,0:0:0:0:
256,192,136618,1,0,0:0:0:0:
256,192,137184,5,0,0:0:0:0:
256,192,137467,1,8,0:0:0:0:
256,192,137750,1,0,0:0:0:0:
256,192,138032,1,8,0:0:0:0:
256,192,138315,1,0,0:0:0:0:
256,192,138598,1,0,0:0:0:0:
256,192,138739,1,8,0:0:0:0:
256,192,139022,1,8,0:0:0:0:
256,192,139446,1,0,0:0:0:0:
256,192,139587,1,0,0:0:0:0:
256,192,139729,1,0,0:0:0:0:
256,192,140011,1,8,0:0:0:0:
256,192,140294,1,0,0:0:0:0:
256,192,140577,1,0,0:0:0:0:
256,192,140859,1,8,0:0:0:0:
256,192,141142,1,0,0:0:0:0:
256,192,141707,5,0,0:0:0:0:
256,192,141990,1,8,0:0:0:0:
256,192,142272,1,0,0:0:0:0:
256,192,142555,1,8,0:0:0:0:
256,192,142696,1,8,0:0:0:0:
256,192,142838,1,8,0:0:0:0:
256,192,143121,1,8,0:0:0:0:
256,192,143403,1,0,0:0:0:0:
256,192,143969,1,8,0:0:0:0:
256,192,144534,1,0,0:0:0:0:
256,192,144817,1,0,0:0:0:0:
256,192,144958,1,0,0:0:0:0:
256,192,145100,1,0,0:0:0:0:
256,192,145382,1,0,0:0:0:0:
256,192,145665,1,8,0:0:0:0:
256,192,146230,5,0,0:0:0:0:
256,192,146513,1,8,0:0:0:0:
256,192,146795,1,0,0:0:0:0:
256,192,147078,1,8,0:0:0:0:
256,192,147219,1,8,0:0:0:0:
256,192,147361,1,8,0:0:0:0:
256,192,147644,1,0,0:0:0:0:
256,192,147926,1,8,0:0:0:0:
256,192,148492,1,0,0:0:0:0:
256,192,149057,1,8,0:0:0:0:
256,192,149340,1,8,0:0:0:0:
256,192,149481,1,8,0:0:0:0:
256,192,149623,1,8,0:0:0:0:
256,192,149905,1,8,0:0:0:0:
256,192,150188,1,8,0:0:0:0:
256,192,150755,5,0,0:0:0:0:
256,192,150896,1,0,0:0:0:0:
256,192,151038,1,0,0:0:0:0:
256,192,151320,1,0,0:0:0:0:
256,192,151886,1,0,0:0:0:0:
256,192,152168,1,0,0:0:0:0:
256,192,152451,1,0,0:0:0:0:
256,192,153017,1,0,0:0:0:0:
256,192,153158,1,0,0:0:0:0:
256,192,153299,1,0,0:0:0:0:
256,192,153582,1,0,0:0:0:0:
256,192,154147,1,0,0:0:0:0:
256,192,154430,1,0,0:0:0:0:
256,192,154713,1,0,0:0:0:0:
256,192,155278,1,0,0:0:0:0:
256,192,155420,1,0,0:0:0:0:
256,192,155561,1,0,0:0:0:0:
256,192,155844,1,0,0:0:0:0:
256,192,156409,1,0,0:0:0:0:
256,192,156692,1,0,0:0:0:0:
256,192,156975,1,0,0:0:0:0:
256,192,157540,1,0,0:0:0:0:
256,192,157682,1,0,0:0:0:0:
256,192,157823,1,0,0:0:0:0:
256,192,158106,1,0,0:0:0:0:
256,192,158671,1,0,0:0:0:0:
256,192,158954,1,0,0:0:0:0:
256,192,159236,1,0,0:0:0:0:
256,192,159802,5,0,0:0:0:0:
256,192,159943,1,0,0:0:0:0:
256,192,160085,1,0,0:0:0:0:
256,192,160367,1,8,0:0:0:0:
256,192,160933,1,0,0:0:0:0:
256,192,161215,1,0,0:0:0:0:
256,192,161498,1,8,0:0:0:0:
256,192,162064,1,0,0:0:0:0:
256,192,162205,1,0,0:0:0:0:
256,192,162346,1,0,0:0:0:0:
256,192,162629,1,8,0:0:0:0:
256,192,163194,1,0,0:0:0:0:
256,192,163477,1,0,0:0:0:0:
256,192,163760,1,8,0:0:0:0:
256,192,164325,1,0,0:0:0:0:
256,192,164467,1,0,0:0:0:0:
256,192,164608,1,0,0:0:0:0:
256,192,164891,1,8,0:0:0:0:
256,192,165456,1,0,0:0:0:0:
256,192,165739,1,0,0:0:0:0:
256,192,166022,1,8,0:0:0:0:
256,192,166587,1,0,0:0:0:0:
256,192,166729,1,0,0:0:0:0:
256,192,166870,1,0,0:0:0:0:
256,192,167153,1,8,0:0:0:0:
256,192,167718,1,0,0:0:0:0:
256,192,168001,1,0,0:0:0:0:
256,192,168283,1,8,0:0:0:0:
256,192,168849,5,0,0:0:0:0:
256,192,168990,1,0,0:0:0:0:
256,192,169132,1,0,0:0:0:0:
256,192,169414,1,8,0:0:0:0:
256,192,169980,1,0,0:0:0:0:
256,192,170262,1,0,0:0:0:0:
256,192,170545,1,8,0:0:0:0:
256,192,171111,1,0,0:0:0:0:
256,192,171252,1,0,0:0:0:0:
256,192,171393,1,0,0:0:0:0:
256,192,171676,1,8,0:0:0:0:
256,192,172241,1,0,0:0:0:0:
256,192,172524,1,8,0:0:0:0:
256,192,172807,1,8,0:0:0:0:
256,192,173372,1,0,0:0:0:0:
256,192,173514,1,0,0:0:0:0:
256,192,173655,1,0,0:0:0:0:
256,192,173938,1,8,0:0:0:0:
256,192,174503,1,0,0:0:0:0:
256,192,174645,1,0,0:0:0:0:
256,192,174786,1,0,0:0:0:0:
256,192,175069,1,8,0:0:0:0:
256,192,175634,1,0,0:0:0:0:
256,192,175776,1,0,0:0:0:0:
256,192,175917,1,0,0:0:0:0:
256,192,176200,1,8,0:0:0:0:
256,192,176483,1,0,0:0:0:0:
256,192,176765,1,8,0:0:0:0:
256,192,177048,1,8,0:0:0:0:
256,192,177330,1,0,0:0:0:0:
256,192,177896,5,0,0:0:0:0:
256,192,178179,1,8,0:0:0:0:
256,192,178462,1,0,0:0:0:0:
256,192,178603,1,8,0:0:0:0:
256,192,178886,1,8,0:0:0:0:
256,192,179027,1,0,0:0:0:0:
256,192,179310,1,8,0:0:0:0:
256,192,179593,1,0,0:0:0:0:
256,192,180158,1,0,0:0:0:0:
256,192,180441,1,8,0:0:0:0:
256,192,180723,1,0,0:0:0:0:
256,192,180865,1,8,0:0:0:0:
256,192,181147,1,8,0:0:0:0:
256,192,181289,1,0,0:0:0:0:
256,192,181572,1,8,0:0:0:0:
256,192,181854,1,0,0:0:0:0:
256,192,182420,5,0,0:0:0:0:
256,192,182702,1,0,0:0:0:0:
256,192,182985,1,0,0:0:0:0:
256,192,183268,1,0,0:0:0:0:
256,192,183551,1,0,0:0:0:0:
256,192,183833,1,0,0:0:0:0:
256,192,184116,1,0,0:0:0:0:
256,192,184257,1,0,0:0:0:0:
256,192,184399,1,0,0:0:0:0:
256,192,184682,12,0,186095,0:0:0:0:
256,192,188074,5,4,0:0:0:0:
256,192,188357,1,8,0:0:0:0:
256,192,188639,1,0,0:0:0:0:
256,192,188922,1,8,0:0:0:0:
256,192,189063,1,8,0:0:0:0:
256,192,189205,1,8,0:0:0:0:
256,192,189488,1,8,0:0:0:0:
256,192,189770,1,0,0:0:0:0:
256,192,190336,1,8,0:0:0:0:
256,192,190901,1,0,0:0:0:0:
256,192,191184,1,0,0:0:0:0:
256,192,191325,1,0,0:0:0:0:
256,192,191467,1,0,0:0:0:0:
256,192,191749,1,8,0:0:0:0:
256,192,192032,1,8,0:0:0:0:
256,192,192597,5,0,0:0:0:0:
256,192,192880,1,8,0:0:0:0:
256,192,193162,1,0,0:0:0:0:
256,192,193445,1,8,0:0:0:0:
256,192,193586,1,8,0:0:0:0:
256,192,193728,1,8,0:0:0:0:
256,192,194011,1,0,0:0:0:0:
256,192,194293,1,8,0:0:0:0:
256,192,194859,1,0,0:0:0:0:
256,192,195424,1,0,0:0:0:0:
256,192,195707,1,8,0:0:0:0:
256,192,195848,1,8,0:0:0:0:
256,192,195990,1,8,0:0:0:0:
256,192,196272,1,8,0:0:0:0:
256,192,196555,1,0,0:0:0:0:
256,192,197121,5,0,0:0:0:0:
256,192,197404,1,0,0:0:0:0:
256,192,197687,1,8,0:0:0:0:
256,192,197969,1,8,0:0:0:0:
256,192,198252,1,0,0:0:0:0:
256,192,198535,1,8,0:0:0:0:
256,192,198676,1,0,0:0:0:0:
256,192,198959,1,8,0:0:0:0:
256,192,199383,1,0,0:0:0:0:
256,192,199524,1,0,0:0:0:0:
256,192,199666,1,0,0:0:0:0:
256,192,199948,1,0,0:0:0:0:
256,192,200231,1,0,0:0:0:0:
256,192,200514,1,8,0:0:0:0:
256,192,200796,1,8,0:0:0:0:
256,192,201079,1,0,0:0:0:0:
256,192,201645,5,0,0:0:0:0:
256,192,201928,1,8,0:0:0:0:
256,192,202211,1,0,0:0:0:0:
256,192,202493,1,8,0:0:0:0:
256,192,202776,1,0,0:0:0:0:
256,192,203059,1,0,0:0:0:0:
256,192,203200,1,8,0:0:0:0:
256,192,203483,1,8,0:0:0:0:
256,192,203907,1,0,0:0:0:0:
256,192,204048,1,0,0:0:0:0:
256,192,204190,1,0,0:0:0:0:
256,192,204472,1,8,0:0:0:0:
256,192,204755,1,0,0:0:0:0:
256,192,205038,1,8,0:0:0:0:
256,192,205320,1,8,0:0:0:0:
256,192,205603,1,8,0:0:0:0:
256,192,206168,5,0,0:0:0:0:
256,192,206451,1,8,0:0:0:0:
256,192,206733,1,0,0:0:0:0:
256,192,207016,1,8,0:0:0:0:
256,192,207157,1,8,0:0:0:0:
256,192,207299,1,8,0:0:0:0:
256,192,207582,1,8,0:0:0:0:
256,192,207864,1,0,0:0:0:0:
256,192,208430,1,8,0:0:0:0:
256,192,208995,1,0,0:0:0:0:
256,192,209278,1,0,0:0:0:0:
256,192,209419,1,0,0:0:0:0:
256,192,209561,1,0,0:0:0:0:
256,192,209843,1,8,0:0:0:0:
256,192,210126,1,8,0:0:0:0:
256,192,210691,5,0,0:0:0:0:
256,192,210974,1,8,0:0:0:0:
256,192,211256,1,0,0:0:0:0:
256,192,211539,1,8,0:0:0:0:
256,192,211680,1,8,0:0:0:0:
256,192,211822,1,8,0:0:0:0:
256,192,212105,1,0,0:0:0:0:
256,192,212387,1,8,0:0:0:0:
256,192,212953,1,0,0:0:0:0:
256,192,213518,1,0,0:0:0:0:
256,192,213801,1,8,0:0:0:0:
256,192,213942,1,8,0:0:0:0:
256,192,214085,1,8,0:0:0:0:
256,192,214366,1,8,0:0:0:0:
256,192,214649,1,8,0:0:0:0:
256,192,215216,5,0,0:0:0:0:
256,192,215498,1,0,0:0:0:0:
256,192,215640,1,0,0:0:0:0:
256,192,215781,1,0,0:0:0:0:
256,192,216064,1,0,0:0:0:0:
256,192,216346,1,0,0:0:0:0:
256,192,217194,1,8,0:0:0:0:
