osu file format v14

[General]
AudioFilename: WA.mp3
AudioLeadIn: 0
PreviewTime: 67060
Countdown: 0
SampleSet: Soft
StackLeniency: 0.7
Mode: 0
LetterboxInBreaks: 1
WidescreenStoryboard: 0

[Editor]
DistanceSpacing: 1.2
BeatDivisor: 4
GridSize: 4
TimelineZoom: 1

[Metadata]
Title:WHITE ALBUM(Piano Version)
TitleUnicode:WHITE ALBUM(Piano Version)
Artist:Yonezawa Madoka
ArtistUnicode:Yonezawa Madoka
Creator:Reimoe
Version:Hard
Source:WHITE ALBUM 2
Tags:
BeatmapID:413425
BeatmapSetID:170824

[Difficulty]
HPDrainRate:6
CircleSize:4
OverallDifficulty:4
ApproachRate:8.5
SliderMultiplier:1.7
SliderTickRate:1

[Events]
//Background and Video events
0,0,"BG.jpg",0,0
//Break Periods
2,108660,114685
2,194460,210685
//Storyboard Layer 0 (Background)
//Storyboard Layer 1 (Fail)
//Storyboard Layer 2 (Pass)
//Storyboard Layer 3 (Foreground)
//Storyboard Sound Samples

[TimingPoints]
460,600,4,2,1,17,1,0
67660,-66.6666666666667,4,2,1,23,0,1
73360,-133.333333333333,4,2,1,23,0,1
74260,-66.6666666666667,4,2,1,23,0,1
78160,-133.333333333333,4,2,1,23,0,1
79660,-66.6666666666667,4,2,1,23,0,1
92560,-133.333333333333,4,2,1,23,0,1
93460,-66.6666666666667,4,2,1,23,0,1
108460,-100,4,2,1,17,0,0
154060,-133.333333333333,4,2,1,23,0,1
156460,-66.6666666666667,4,2,1,23,0,1
159760,-133.333333333333,4,2,1,23,0,1
162460,-100,4,2,1,23,0,1
164560,-133.333333333333,4,2,1,23,0,1
166060,-66.6666666666667,4,2,1,23,0,1
172060,-50,4,2,1,23,0,1
174160,-133.333333333333,4,2,1,23,0,1
176260,-66.6666666666667,4,2,1,23,0,1
178960,-133.333333333333,4,2,1,23,0,1
182860,-66.6666666666667,4,2,1,23,0,1
183760,-133.333333333333,4,2,1,23,0,1
185860,-66.6666666666667,4,2,1,23,0,1
194860,-100,4,2,1,17,0,0
211660,-66.6666666666667,4,2,1,23,0,1
212560,-133.333333333333,4,2,1,23,0,1
213760,-66.6666666666667,4,2,1,23,0,1
217360,-133.333333333333,4,2,1,23,0,1
221260,-66.6666666666667,4,2,1,23,0,1
222160,-133.333333333333,4,2,1,23,0,1
225160,-66.6666666666667,4,2,1,23,0,1
231760,-133.333333333333,4,2,1,23,0,1
233860,-66.6666666666667,4,2,1,23,0,1
236560,-133.333333333333,4,2,1,23,0,1
239860,-66.6666666666667,4,2,1,23,0,1
241360,-133.333333333333,4,2,1,23,0,1
242860,-66.6666666666667,4,2,1,23,0,1
252460,-66.6666666666667,4,2,1,17,0,0

[Colours]
Combo1 : 128,128,192
Combo2 : 255,128,0
Combo3 : 128,0,64
Combo4 : 248,205,7

[HitObjects]
88,280,28960,6,0,L|184:264,1,85
304,240,29560,1,0,0:0:0:0:
280,104,29860,1,8,0:0:0:0:
456,56,30160,1,0,0:0:0:0:
456,56,30310,1,0,0:0:0:0:
456,56,30460,2,0,L|440:152,1,85
408,216,31060,2,0,P|368:176|368:112,1,85,8|0,0:0|0:0,0:0:0:0:
112,104,31660,6,0,L|224:104,1,85
192,256,32260,1,8,0:0:0:0:
384,320,32560,1,0,0:0:0:0:
384,320,32710,1,0,0:0:0:0:
384,320,32860,2,0,L|288:336,1,85
128,320,33460,2,0,L|224:336,1,85,8|0,0:0|0:0,0:0:0:0:
248,192,34060,5,0,0:0:0:0:
400,104,34360,1,0,0:0:0:0:
400,104,34510,2,0,B|344:72|305:109|240:80,1,127.5,8|0,0:0|0:0,0:0:0:0:
120,72,35260,1,8,0:0:0:0:
112,248,35860,2,0,P|96:200|104:152,1,85
120,72,36460,5,2,0:0:0:0:
392,312,37360,1,0,0:0:0:0:
392,312,37960,2,0,P|394:269|379:230,1,85,0|8,0:0|0:0,0:0:0:0:
120,73,38560,1,0,0:0:0:0:
200,37,38860,6,0,P|188:131|96:156,1,170,0|8,0:0|0:0,0:0:0:0:
179,322,39760,1,0,0:0:0:0:
200,323,39910,1,0,0:0:0:0:
221,324,40060,1,0,0:0:0:0:
68,266,40360,1,0,0:0:0:0:
457,347,40660,2,0,P|396:323|337:329,1,85,8|0,0:0|0:0,0:0:0:0:
336,87,41260,5,0,0:0:0:0:
479,188,41560,1,0,0:0:0:0:
321,252,41860,1,8,0:0:0:0:
176,150,42160,1,0,0:0:0:0:
176,150,42310,1,0,0:0:0:0:
176,150,42460,1,0,0:0:0:0:
75,47,42760,2,0,L|194:65,2,85,0|8|0,0:0|0:0|0:0,0:0:0:0:
153,320,43660,5,0,0:0:0:0:
437,48,44560,1,0,0:0:0:0:
359,320,44860,1,8,0:0:0:0:
359,320,45460,1,2,0:0:0:0:
78,76,46060,5,0,0:0:0:0:
181,218,46360,1,0,0:0:0:0:
181,42,46660,1,8,0:0:0:0:
78,185,46960,1,0,0:0:0:0:
245,130,47260,1,0,0:0:0:0:
434,199,47560,1,0,0:0:0:0:
267,254,47860,1,2,0:0:0:0:
456,70,48160,6,0,L|367:100,1,85
378,302,48760,1,0,0:0:0:0:
97,318,49060,1,2,0:0:0:0:
137,305,49210,1,0,0:0:0:0:
179,303,49360,1,0,0:0:0:0:
123,72,49660,1,0,0:0:0:0:
149,129,49810,1,0,0:0:0:0:
139,191,49960,1,0,0:0:0:0:
443,242,50260,6,0,B|367:179|323:256|246:199,1,170,8|0,0:0|0:0,0:0:0:0:
124,73,51160,1,0,0:0:0:0:
124,73,51310,1,0,0:0:0:0:
388,311,51610,1,8,0:0:0:0:
388,311,51760,1,0,0:0:0:0:
246,136,52060,2,0,P|196:201|219:280,1,170,0|2,0:0|0:0,0:0:0:0:
81,189,52960,1,0,0:0:0:0:
485,78,53260,6,0,B|427:118|381:65|314:103,1,170,0|8,0:0|0:0,0:0:0:0:
27,306,54460,2,0,B|85:266|131:319|198:281,1,170,0|2,0:0|0:0,0:0:0:0:
366,346,55660,5,0,0:0:0:0:
317,208,55960,1,0,0:0:0:0:
317,208,56110,1,0,0:0:0:0:
427,100,56560,1,0,0:0:0:0:
427,100,56710,1,0,0:0:0:0:
427,100,56860,1,8,0:0:0:0:
84,99,57160,5,0,0:0:0:0:
126,105,57310,1,0,0:0:0:0:
169,111,57460,1,8,0:0:0:0:
187,326,57760,1,8,0:0:0:0:
103,381,58060,6,0,P|98:288|184:228,1,170,0|8,0:0|0:0,0:0:0:0:
216,164,58960,1,0,0:0:0:0:
430,168,59260,2,0,P|361:224|279:240,1,170,0|2,0:0|0:0,0:0:0:0:
400,352,60460,5,2,0:0:0:0:
425,318,60610,1,0,0:0:0:0:
438,277,60760,1,0,0:0:0:0:
302,93,61060,1,8,0:0:0:0:
92,200,61360,1,0,0:0:0:0:
248,341,61660,1,0,0:0:0:0:
248,341,61960,1,0,0:0:0:0:
248,341,62260,1,8,0:0:0:0:
393,64,62560,6,0,P|380:149|285:187,1,170
45,116,63460,2,0,P|117:108|166:116,1,85,2|0,0:0|0:0,0:0:0:0:
45,268,64060,2,0,P|117:276|166:268,1,85
256,192,64660,1,2,0:0:0:0:
256,192,64960,1,0,0:0:0:0:
295,80,65260,5,0,0:0:0:0:
216,303,65560,1,0,0:0:0:0:
195,22,65860,1,2,0:0:0:0:
316,361,66160,1,0,0:0:0:0:
88,192,66460,5,4,0:0:0:0:
256,192,66610,1,0,0:0:0:0:
424,192,66760,1,4,0:0:0:0:
452,88,67360,5,0,0:0:0:0:
452,88,67510,1,0,0:0:0:0:
452,88,67660,2,0,B|392:148|292:152,1,127.500004863739
168,176,68260,1,8,0:0:0:0:
144,80,68560,2,0,P|64:176|158:270,1,255.000009727478
404,336,69460,1,8,0:0:0:0:
404,336,69610,1,0,0:0:0:0:
404,336,69760,1,0,0:0:0:0:
214,300,70060,6,0,P|170:345|108:352,1,127.500004863739
256,192,70660,1,2,0:0:0:0:
297,83,70960,2,0,P|341:38|404:32,1,127.500004863739,8|0,0:0|0:0,0:0:0:0:
384,120,71560,1,0,0:0:0:0:
128,252,71860,1,8,0:0:0:0:
128,252,72010,1,0,0:0:0:0:
128,252,72160,1,0,0:0:0:0:
70,112,72460,6,0,L|210:171,1,127.500004863739
461,229,73060,1,8,0:0:0:0:
71,333,73360,2,0,P|133:346|213:306,1,127.500004863739
442,356,74260,1,8,0:0:0:0:
391,318,74410,1,0,0:0:0:0:
329,305,74560,1,0,0:0:0:0:
70,112,74860,2,0,L|94:248,1,127.500004863739,4|0,0:0|0:0,0:0:0:0:
452,187,75310,6,0,L|428:51,1,127.500004863739,4|0,0:0|0:0,0:0:0:0:
57,43,75760,1,4,0:0:0:0:
463,264,76360,1,0,0:0:0:0:
225,115,76660,1,8,0:0:0:0:
225,115,76810,1,0,0:0:0:0:
225,115,76960,1,0,0:0:0:0:
165,22,77260,6,0,P|113:80|123:171,1,127.500004863739
47,212,77860,1,8,0:0:0:0:
81,317,78160,2,0,L|219:358,1,127.500004863739
377,237,79060,1,8,0:0:0:0:
377,237,79210,1,0,0:0:0:0:
377,237,79360,1,0,0:0:0:0:
431,67,79660,6,0,L|293:26,1,127.500004863739
81,67,80260,1,8,0:0:0:0:
135,237,80560,1,0,0:0:0:0:
431,317,81160,2,0,L|293:358,2,127.500004863739,0|8|0,0:0|0:0|0:0,0:0:0:0:
257,85,82060,5,0,0:0:0:0:
164,244,82360,1,0,0:0:0:0:
347,246,82660,1,2,0:0:0:0:
257,85,82960,1,0,0:0:0:0:
139,316,83260,5,0,0:0:0:0:
421,231,83560,1,0,0:0:0:0:
207,28,83860,1,2,0:0:0:0:
163,244,84160,1,0,0:0:0:0:
450,317,84460,6,0,L|305:345,1,127.500004863739
62,317,85060,1,8,0:0:0:0:
62,317,85210,1,0,0:0:0:0:
62,317,85360,1,0,0:0:0:0:
61,73,85660,2,0,L|135:207,1,127.500004863739
336,352,86260,1,2,0:0:0:0:
450,317,86560,1,0,0:0:0:0:
450,317,86710,1,0,0:0:0:0:
450,317,86860,6,0,P|456:248|432:176,1,127.500004863739
344,120,87460,1,8,0:0:0:0:
448,61,87760,2,0,P|448:181|304:229,1,255.000009727478
118,199,88660,2,0,P|171:179|239:209,1,127.500004863739,8|0,0:0|0:0,0:0:0:0:
212,376,89260,5,0,0:0:0:0:
170,329,89410,1,0,0:0:0:0:
173,267,89560,1,0,0:0:0:0:
344,121,89860,1,8,0:0:0:0:
448,320,90160,1,0,0:0:0:0:
64,64,90760,1,0,0:0:0:0:
64,64,90910,1,0,0:0:0:0:
64,64,91060,2,0,P|64:136|136:200,1,127.500004863739,2|0,0:0|0:0,0:0:0:0:
301,282,91660,6,0,L|141:264,1,127.500004863739
344,120,92260,1,8,0:0:0:0:
448,320,92560,2,0,P|463:248|428:190,1,127.500004863739
64,320,93460,1,2,0:0:0:0:
64,320,93610,1,0,0:0:0:0:
64,320,93760,1,0,0:0:0:0:
91,195,94060,6,0,L|64:320,1,127.500004863739,4|0,0:0|0:0,0:0:0:0:
420,188,94510,2,0,L|448:64,1,127.500004863739,4|0,0:0|0:0,0:0:0:0:
420,188,94960,1,4,0:0:0:0:
388,336,95560,1,0,0:0:0:0:
372,240,95860,2,0,P|296:299|297:379,1,127.500004863739,8|0,0:0|0:0,0:0:0:0:
140,144,96460,6,0,P|215:84|214:4,1,127.500004863739
124,48,97060,1,8,0:0:0:0:
124,48,97360,2,0,P|46:134|126:237,1,255.000009727478
331,258,98260,2,0,P|267:229|188:229,1,127.500004863739,8|0,0:0|0:0,0:0:0:0:
417,318,98860,5,0,0:0:0:0:
417,318,99010,1,0,0:0:0:0:
417,318,99160,1,0,0:0:0:0:
446,95,99460,1,2,0:0:0:0:
273,335,99760,1,0,0:0:0:0:
239,49,100360,5,0,0:0:0:0:
95,66,100660,1,2,0:0:0:0:
66,289,100960,1,0,0:0:0:0:
66,289,101260,5,0,0:0:0:0:
86,294,101410,1,0,0:0:0:0:
106,300,101560,1,0,0:0:0:0:
127,306,101710,1,0,0:0:0:0:
232,344,101860,5,2,0:0:0:0:
252,339,102010,1,0,0:0:0:0:
272,333,102160,1,0,0:0:0:0:
293,327,102310,1,0,0:0:0:0:
468,295,102460,5,0,0:0:0:0:
426,282,102610,1,0,0:0:0:0:
384,272,102760,1,0,0:0:0:0:
339,259,102910,1,0,0:0:0:0:
416,72,103060,1,2,0:0:0:0:
360,360,103360,1,8,0:0:0:0:
96,208,103660,6,0,L|72:56,1,127.500004863739,4|0,0:0|0:0,0:0:0:0:
112,296,104260,1,8,0:0:0:0:
112,296,104860,1,0,0:0:0:0:
416,72,105160,1,0,0:0:0:0:
256,192,105760,12,0,108460,0:0:0:0:
144,96,115360,5,0,0:0:0:0:
48,64,115660,2,0,P|52:148|152:192,1,170,0|8,0:0|0:0,0:0:0:0:
350,228,116560,1,0,0:0:0:0:
313,207,116710,1,0,0:0:0:0:
272,204,116860,1,0,0:0:0:0:
456,300,117160,1,0,0:0:0:0:
456,180,117460,1,2,0:0:0:0:
463,138,117610,1,0,0:0:0:0:
451,98,117760,1,0,0:0:0:0:
256,336,118060,6,0,L|368:348,1,85
152,256,118660,1,8,0:0:0:0:
64,144,118960,2,0,P|131:116|177:121,1,85
264,36,119560,1,0,0:0:0:0:
259,78,119710,1,0,0:0:0:0:
243,117,119860,1,2,0:0:0:0:
152,256,120160,1,0,0:0:0:0:
392,344,120460,6,0,P|356:296|304:268,1,85
264,200,120910,2,0,P|227:284|246:344,1,127.5,8|0,0:0|0:0,0:0:0:0:
392,344,121660,1,2,0:0:0:0:
392,344,122260,1,0,0:0:0:0:
392,344,122560,1,0,0:0:0:0:
120,40,122860,5,2,0:0:0:0:
120,40,123760,1,8,0:0:0:0:
464,184,124360,2,0,L|352:164,1,85,0|8,0:0|0:0,0:0:0:0:
132,216,124960,1,0,0:0:0:0:
40,256,125260,6,0,B|72:304|72:304|192:324,1,170,0|8,0:0|0:0,0:0:0:0:
356,348,126160,1,0,0:0:0:0:
332,312,126310,1,0,0:0:0:0:
308,277,126460,1,0,0:0:0:0:
444,120,126760,1,0,0:0:0:0:
424,308,127060,2,0,P|448:244|444:200,1,85,2|0,0:0|0:0,0:0:0:0:
160,220,127660,6,0,P|212:200|260:196,1,85
96,132,128260,1,8,0:0:0:0:
51,223,128560,1,0,0:0:0:0:
66,274,128710,1,0,0:0:0:0:
103,311,128860,1,0,0:0:0:0:
316,352,129160,1,0,0:0:0:0:
284,324,129310,1,0,0:0:0:0:
244,309,129460,1,2,0:0:0:0:
340,88,129760,6,0,L|292:196,1,85,0|8,0:0|0:0,0:0:0:0:
340,88,130960,6,0,L|292:196,1,85,0|2,0:0|0:0,0:0:0:0:
304,316,131860,1,0,0:0:0:0:
124,171,132460,5,0,0:0:0:0:
221,305,132760,1,0,0:0:0:0:
221,140,133060,1,8,0:0:0:0:
124,274,133360,1,0,0:0:0:0:
280,223,133660,1,0,0:0:0:0:
128,56,133960,1,0,0:0:0:0:
124,274,134260,1,2,0:0:0:0:
220,304,134560,1,0,0:0:0:0:
432,80,134860,6,0,P|436:168|360:228,1,170,0|2,0:0|0:0,0:0:0:0:
128,56,135760,1,0,0:0:0:0:
167,40,135910,1,0,0:0:0:0:
209,45,136060,1,0,0:0:0:0:
248,196,136360,1,0,0:0:0:0:
208,181,136510,1,0,0:0:0:0:
182,148,136660,1,8,0:0:0:0:
328,124,136960,1,0,0:0:0:0:
80,276,137260,6,0,L|184:300,1,85
324,324,137710,1,8,0:0:0:0:
328,124,138010,1,2,0:0:0:0:
328,124,138460,1,0,0:0:0:0:
408,152,138760,2,0,L|303:116,1,85,0|2,0:0|0:0,0:0:0:0:
452,348,139360,1,0,0:0:0:0:
452,348,139510,1,0,0:0:0:0:
452,348,139660,6,0,B|420:276|420:276|308:232,1,170,0|8,0:0|0:0,0:0:0:0:
32,160,140560,1,0,0:0:0:0:
46,100,140710,1,0,0:0:0:0:
60,36,140860,2,0,B|92:108|92:108|204:152,1,170,0|2,0:0|0:0,0:0:0:0:
85,336,142060,6,0,L|196:316,1,85
260,239,142510,1,8,0:0:0:0:
460,151,142960,1,0,0:0:0:0:
460,151,143110,1,0,0:0:0:0:
460,151,143260,1,2,0:0:0:0:
460,151,143560,5,0,0:0:0:0:
397,139,143710,1,0,0:0:0:0:
334,127,143860,1,2,0:0:0:0:
52,233,144160,1,8,0:0:0:0:
284,48,144460,6,0,P|240:116|280:200,1,170,0|8,0:0|0:0,0:0:0:0:
392,284,145360,1,0,0:0:0:0:
392,284,145510,1,0,0:0:0:0:
392,284,145660,2,0,B|344:356|272:280|212:344,1,170,0|2,0:0|0:0,0:0:0:0:
108,96,146860,5,0,0:0:0:0:
160,376,147160,1,0,0:0:0:0:
146,315,147310,1,0,0:0:0:0:
178,262,147460,1,8,0:0:0:0:
404,96,147760,1,0,0:0:0:0:
112,196,148060,2,0,P|204:172|268:240,1,170,0|2,0:0|0:0,0:0:0:0:
264,332,148960,6,0,P|348:292|372:216,1,170
248,52,149860,1,8,0:0:0:0:
404,96,150160,1,0,0:0:0:0:
362,106,150310,1,0,0:0:0:0:
321,117,150460,1,8,0:0:0:0:
108,96,150760,1,0,0:0:0:0:
60,292,151060,2,0,L|164:312,1,85
369,308,151660,5,2,0:0:0:0:
299,36,152260,1,2,0:0:0:0:
99,231,152860,1,2,0:0:0:0:
368,308,153160,1,4,0:0:0:0:
452,92,153760,5,0,0:0:0:0:
410,83,153910,1,0,0:0:0:0:
368,75,154060,5,0,0:0:0:0:
248,168,154360,1,0,0:0:0:0:
368,308,154660,1,8,0:0:0:0:
160,120,154960,2,0,P|156:212|192:256,1,127.500004863739
424,160,155860,1,2,0:0:0:0:
361,147,156010,1,0,0:0:0:0:
301,165,156160,1,0,0:0:0:0:
88,328,156460,6,0,L|224:364,1,127.500004863739
152,84,157060,1,8,0:0:0:0:
424,160,157360,1,0,0:0:0:0:
116,172,157960,1,8,0:0:0:0:
87,157,158110,1,0,0:0:0:0:
66,133,158260,1,2,0:0:0:0:
55,104,158410,1,0,0:0:0:0:
56,72,158560,1,0,0:0:0:0:
188,156,158860,6,0,P|120:168|56:260,1,127.500004863739
184,300,159460,1,2,0:0:0:0:
424,164,159760,2,0,P|404:252|356:292,1,127.500004863739
404,56,160660,1,8,0:0:0:0:
404,56,160810,1,0,0:0:0:0:
404,56,160960,1,0,0:0:0:0:
60,72,161260,6,0,L|144:92,1,63.7500024318696
452,312,161710,2,0,L|368:292,1,63.7500024318696
108,328,162160,1,2,0:0:0:0:
108,328,162460,1,0,0:0:0:0:
186,315,162610,1,0,0:0:0:0:
256,352,162760,1,0,0:0:0:0:
326,315,162910,1,0,0:0:0:0:
404,328,163060,1,8,0:0:0:0:
256,32,163360,1,0,0:0:0:0:
67,118,163660,6,0,L|118:191,2,85,0|0|8,0:0|0:0|0:0,0:0:0:0:
459,122,164560,2,0,P|411:67|339:50,1,127.500004863739
394,283,165460,1,2,0:0:0:0:
357,231,165610,1,0,0:0:0:0:
351,169,165760,1,0,0:0:0:0:
40,304,166060,6,0,L|198:318,1,127.500004863739
357,231,166660,1,8,0:0:0:0:
148,116,166960,1,0,0:0:0:0:
472,304,167560,1,0,0:0:0:0:
364,116,167860,1,8,0:0:0:0:
154,231,168160,1,0,0:0:0:0:
256,40,168460,5,0,0:0:0:0:
154,231,168760,1,0,0:0:0:0:
356,232,169060,1,2,0:0:0:0:
148,116,169360,1,0,0:0:0:0:
364,116,169660,1,0,0:0:0:0:
96,312,169960,1,0,0:0:0:0:
416,312,170260,1,2,0:0:0:0:
16,80,170560,6,0,L|60:204,1,127.500004863739
356,232,171160,1,0,0:0:0:0:
292,342,171460,1,8,0:0:0:0:
172,68,172060,1,4,0:0:0:0:
276,44,172210,1,0,0:0:0:0:
248,152,172360,1,0,0:0:0:0:
96,312,172660,1,8,0:0:0:0:
412,248,172960,6,0,P|368:324|280:340,1,170
92,216,173560,1,0,0:0:0:0:
132,227,173710,1,0,0:0:0:0:
169,249,173860,1,8,0:0:0:0:
100,60,174160,2,0,B|172:64|172:64|188:128|264:160,1,191.250007295609,0|8,0:0|0:0,0:0:0:0:
448,136,175360,1,0,0:0:0:0:
418,124,175510,1,0,0:0:0:0:
388,113,175660,5,0,0:0:0:0:
360,296,175960,1,0,0:0:0:0:
128,336,176260,2,0,P|196:304|284:300,1,127.500004863739,8|0,0:0|0:0,0:0:0:0:
160,66,177160,1,0,0:0:0:0:
122,94,177310,1,0,0:0:0:0:
100,136,177460,1,2,0:0:0:0:
99,183,177610,1,0,0:0:0:0:
119,226,177760,1,0,0:0:0:0:
380,144,178060,5,0,0:0:0:0:
220,164,178360,1,0,0:0:0:0:
360,296,178660,1,8,0:0:0:0:
425,59,178960,2,0,P|357:47|297:95,1,127.500004863739
100,136,179860,1,8,0:0:0:0:
100,136,180010,1,0,0:0:0:0:
100,136,180160,1,0,0:0:0:0:
88,324,180460,6,0,L|176:312,1,63.7500024318696,4|0,0:0|0:0,0:0:0:0:
424,60,180910,2,0,L|336:72,1,63.7500024318696,4|0,0:0|0:0,0:0:0:0:
412,248,181360,1,4,0:0:0:0:
35,265,181960,1,0,0:0:0:0:
56,300,182110,1,0,0:0:0:0:
87,324,182260,1,2,0:0:0:0:
124,338,182410,1,0,0:0:0:0:
164,339,182560,1,0,0:0:0:0:
412,248,182860,6,0,P|344:248|284:268,1,127.500004863739
160,192,183460,1,8,0:0:0:0:
76,64,183760,2,0,B|128:108|128:108|204:88|252:164,1,191.250007295609,0|8,0:0|0:0,0:0:0:0:
396,48,184960,1,0,0:0:0:0:
425,85,185110,1,0,0:0:0:0:
434,131,185260,5,0,0:0:0:0:
360,336,185560,1,0,0:0:0:0:
84,264,185860,2,0,P|152:264|216:284,1,127.500004863739,2|0,0:0|0:0,0:0:0:0:
84,264,186760,1,0,0:0:0:0:
220,92,187060,1,8,0:0:0:0:
436,132,187360,1,0,0:0:0:0:
84,264,187660,5,0,0:0:0:0:
84,264,187810,1,0,0:0:0:0:
129,51,187960,5,0,0:0:0:0:
129,51,188110,1,0,0:0:0:0:
345,28,188260,5,2,0:0:0:0:
345,28,188410,1,0,0:0:0:0:
433,227,188560,5,0,0:0:0:0:
433,227,188710,1,0,0:0:0:0:
272,372,188860,1,0,0:0:0:0:
129,51,189160,1,0,0:0:0:0:
433,227,189460,1,8,0:0:0:0:
84,264,189760,1,0,0:0:0:0:
344,28,190060,5,4,0:0:0:0:
272,372,190210,1,0,0:0:0:0:
128,52,190360,1,0,0:0:0:0:
360,352,190660,2,0,P|324:296|240:284,1,127.500004863739,2|0,0:0|0:0,0:0:0:0:
272,372,191260,5,4,0:0:0:0:
432,228,191410,1,0,0:0:0:0:
84,264,191560,1,0,0:0:0:0:
240,72,191860,1,2,0:0:0:0:
256,192,192160,12,0,194260,0:0:0:0:
112,248,211360,5,0,0:0:0:0:
448,296,211660,2,0,L|312:320,1,127.500004863739
261,143,212260,1,2,0:0:0:0:
84,56,212560,2,0,P|52:128|80:184,1,127.500004863739
136,120,213460,1,8,0:0:0:0:
448,88,213760,6,0,L|312:64,1,127.500004863739
264,264,214360,1,0,0:0:0:0:
264,264,214510,1,0,0:0:0:0:
264,264,214660,1,2,0:0:0:0:
448,296,214960,1,8,0:0:0:0:
48,300,215560,1,0,0:0:0:0:
99,264,215710,1,0,0:0:0:0:
162,255,215860,1,8,0:0:0:0:
136,120,216160,1,0,0:0:0:0:
432,156,216460,6,0,P|400:224|324:248,1,127.500004863739
364,44,217060,1,2,0:0:0:0:
136,120,217360,2,0,B|192:116|212:168|264:168,1,127.500004863739
56,204,218260,1,8,0:0:0:0:
184,352,218560,1,0,0:0:0:0:
380,336,218860,5,4,0:0:0:0:
380,336,219010,1,0,0:0:0:0:
318,12,219310,1,4,0:0:0:0:
318,12,219460,1,0,0:0:0:0:
69,227,219760,1,4,0:0:0:0:
349,173,220360,1,0,0:0:0:0:
224,281,220660,1,2,0:0:0:0:
194,119,220960,1,0,0:0:0:0:
136,56,221260,6,0,P|104:120|160:196,1,127.500004863739
376,328,221860,1,8,0:0:0:0:
376,328,222160,2,0,P|408:264|352:188,1,127.500004863739
344,80,223060,1,2,0:0:0:0:
100,296,223360,5,0,0:0:0:0:
160,276,223510,1,0,0:0:0:0:
223,281,223660,1,0,0:0:0:0:
344,80,223960,1,0,0:0:0:0:
112,84,224260,1,8,0:0:0:0:
112,84,224410,1,0,0:0:0:0:
112,84,224560,1,0,0:0:0:0:
396,312,225160,2,0,P|336:344|236:348,2,127.500004863739,0|8|0,0:0|0:0|0:0,0:0:0:0:
88,136,226060,5,0,0:0:0:0:
136,212,226360,1,0,0:0:0:0:
388,74,226660,5,2,0:0:0:0:
298,78,226960,1,0,0:0:0:0:
291,365,227260,5,0,0:0:0:0:
333,285,227560,1,0,0:0:0:0:
136,211,227860,1,2,0:0:0:0:
298,78,228160,1,0,0:0:0:0:
88,136,228460,6,0,P|148:104|240:88,2,127.500004863739,0|0|8,0:0|0:0|0:0,0:0:0:0:
332,285,229660,1,4,0:0:0:0:
332,176,229810,1,0,0:0:0:0:
426,230,229960,1,0,0:0:0:0:
86,230,230260,1,8,0:0:0:0:
85,329,230560,6,0,P|155:303|177:242,1,127.500004863739
106,105,231160,2,0,L|83:252,1,127.500004863739,0|8,0:0|0:0,0:0:0:0:
458,284,231760,2,0,B|392:265|357:306|311:275,1,127.500004863739
420,121,232660,1,2,0:0:0:0:
420,121,232810,1,0,0:0:0:0:
420,121,232960,1,0,0:0:0:0:
187,44,233260,5,0,0:0:0:0:
224,72,233410,1,0,0:0:0:0:
269,89,233560,1,0,0:0:0:0:
87,233,233860,2,0,L|226:265,1,127.500004863739,2|0,0:0|0:0,0:0:0:0:
428,335,234460,1,0,0:0:0:0:
412,333,234610,1,0,0:0:0:0:
396,331,234760,1,0,0:0:0:0:
380,329,234910,1,0,0:0:0:0:
364,327,235060,1,8,0:0:0:0:
121,330,235360,6,0,P|204:289|200:216,1,127.500004863739
121,55,235960,1,0,0:0:0:0:
256,144,236260,1,8,0:0:0:0:
496,168,236560,2,0,B|456:228|412:172|364:228,1,127.500004863739
398,53,237460,1,8,0:0:0:0:
384,60,237610,1,0,0:0:0:0:
369,66,237760,1,0,0:0:0:0:
112,332,238060,6,0,L|196:296,1,63.7500024318696,4|0,0:0|0:0,0:0:0:0:
400,52,238510,2,0,L|316:88,1,63.7500024318696,4|0,0:0|0:0,0:0:0:0:
120,56,238960,1,4,0:0:0:0:
112,332,239560,1,0,0:0:0:0:
476,279,239860,2,0,P|425:317|364:332,1,127.500004863739,2|0,0:0|0:0,0:0:0:0:
400,216,240460,5,0,0:0:0:0:
400,139,240610,1,0,0:0:0:0:
466,177,240760,1,0,0:0:0:0:
176,108,241060,1,8,0:0:0:0:
112,332,241360,2,0,P|108:272|136:204,1,127.500004863739
234,46,242260,1,8,0:0:0:0:
191,27,242410,1,0,0:0:0:0:
144,32,242560,1,0,0:0:0:0:
452,84,242860,5,0,0:0:0:0:
383,147,243010,1,0,0:0:0:0:
290,150,243160,1,0,0:0:0:0:
228,288,243460,2,0,P|296:268|352:200,1,127.500004863739,2|0,0:0|0:0,0:0:0:0:
440,344,244360,1,0,0:0:0:0:
348,64,244660,1,8,0:0:0:0:
76,176,244960,1,0,0:0:0:0:
466,270,245260,5,0,0:0:0:0:
440,344,245410,1,0,0:0:0:0:
367,316,245560,1,0,0:0:0:0:
393,245,245710,1,0,0:0:0:0:
316,260,245860,5,2,0:0:0:0:
257,328,246010,1,0,0:0:0:0:
189,268,246160,1,0,0:0:0:0:
246,202,246310,1,0,0:0:0:0:
152,184,246460,5,0,0:0:0:0:
69,223,246610,1,0,0:0:0:0:
32,140,246760,1,0,0:0:0:0:
112,104,246910,1,0,0:0:0:0:
256,56,247060,1,8,0:0:0:0:
400,104,247360,1,0,0:0:0:0:
256,344,247660,5,4,0:0:0:0:
112,104,247810,1,0,0:0:0:0:
400,104,247960,1,0,0:0:0:0:
68,304,248260,1,2,0:0:0:0:
444,304,248560,1,0,0:0:0:0:
256,56,248860,5,4,0:0:0:0:
68,304,249010,1,0,0:0:0:0:
444,304,249160,1,0,0:0:0:0:
256,192,249460,12,4,252460,0:0:0:0:
