osu file format v9

[General]
AudioFilename: Shiny GEMS.mp3
AudioLeadIn: 0
PreviewTime: 37392
Countdown: 0
SampleSet: Soft
StackLeniency: 0.7
Mode: 0
LetterboxInBreaks: 1

[Editor]
DistanceSpacing: 1
BeatDivisor: 3
GridSize: 4

[Metadata]
Title:Shiny GEMS
Artist:Yonezawa Madoka
Creator:wcx19911123
Version:Hard
Source:K-ON!!
Tags:Hirasawa Ui HTT HO-KAGO TEA TIME

[Difficulty]
HPDrainRate:6
CircleSize:4
OverallDifficulty:6
ApproachRate:7
SliderMultiplier:2.2
SliderTickRate:0.5

[Events]
//Background and Video events
0,0,"BG.jpg"
//Break Periods
2,51509,57366
2,117396,130409
//Storyboard Layer 0 (Background)
//Storyboard Layer 1 (Fail)
//Storyboard Layer 2 (Pass)
//Storyboard Layer 3 (Foreground)
//Storyboard Sound Samples
//Background Colour Transformations
3,100,163,162,255

[TimingPoints]
875,434.782608695652,4,2,0,30,1,0
8266,-100,4,2,0,45,0,0
8701,-100,4,2,0,60,0,0
9135,-100,4,2,2,70,0,0
9425,-100,4,2,1,60,0,0
22469,-100,4,2,1,50,0,0
23338,-100,4,2,1,60,0,0
29425,-100,4,2,1,20,0,0
29715,-100,4,2,1,25,0,0
29860,-100,4,2,1,30,0,0
30005,-100,4,2,1,60,0,0
30150,-100,4,2,1,35,0,0
30295,-100,4,2,1,40,0,0
30440,-100,4,2,1,60,0,0
35514,-200,4,2,1,60,0,0
36239,-100,4,2,1,20,0,0
36672,-100,4,2,1,25,0,0
36817,-100,4,2,1,30,0,0
36961,-100,4,2,1,70,0,0
37106,-100,4,2,1,35,0,0
37251,-100,4,2,1,40,0,0
37398,-100,4,2,1,60,0,1
43483,-100,4,2,1,30,0,1
43918,-100,4,2,1,60,0,1
50150,-100,4,2,1,25,0,1
50874,-100,4,2,1,60,0,1
51019,-100,4,2,1,30,0,1
51309,-100,4,2,1,60,0,0
64208,-100,4,2,1,20,0,0
64788,-100,4,2,1,60,0,0
64932,-100,4,2,1,25,0,0
65367,-100,4,2,1,60,0,0
71164,-100,4,2,1,25,0,0
71454,-100,4,2,1,30,0,0
71599,-100,4,2,1,35,0,0
71744,-100,4,2,1,70,0,0
71889,-100,4,2,1,40,0,0
72034,-100,4,2,1,45,0,0
72179,-100,4,2,1,50,0,1
72324,-100,4,2,1,60,0,1
78266,-100,4,2,1,40,0,1
78701,-100,4,2,1,60,0,1
84932,-100,4,2,1,30,0,1
85657,-100,4,2,1,60,0,1
85802,-100,4,2,1,30,0,1
86092,-100,4,2,1,45,0,0
96527,-100,4,2,1,50,0,0
100005,-100,4,2,1,60,0,1
106092,-100,4,2,1,30,0,1
106527,-100,4,2,1,60,0,1
106672,-100,4,2,1,40,0,1
106961,-100,4,2,1,60,0,1
112759,-100,4,2,1,40,0,1
113483,-100,4,2,1,60,0,1
115657,-100,4,2,1,60,0,0
133193,-200,4,2,1,50,0,0
148266,-200,4,2,2,60,0,0
148556,-133.333333333333,4,2,1,50,0,0
154932,-133.333333333333,4,2,1,25,0,0
155222,-133.333333333333,4,2,1,50,0,0
161454,-133.333333333333,4,2,1,25,0,0
162179,-133.333333333333,4,2,1,50,0,0
162324,-133.333333333333,4,2,1,30,0,0
162614,-100,4,2,1,60,0,0
168846,-100,4,2,1,30,0,0
169135,-100,4,2,1,60,0,0
169280,-100,4,2,1,30,0,0
169570,-100,4,2,1,60,0,0
175657,-100,4,2,1,30,0,0
176092,-100,4,2,1,60,0,0
176237,-100,4,2,1,40,0,0
176527,-100,4,2,1,60,0,1
190005,-100,4,2,1,60,0,0

[Colours]
Combo1 : 251,255,68
Combo2 : 255,51,56
Combo3 : 15,211,227
Combo4 : 29,248,62

[HitObjects]
256,192,7831,12,8,9135
440,132,9570,6,0,B|372:96|288:116,1,146.666666666667,4|0
320,184,10005,2,0,B|252:220|168:200,1,146.666666666667,8|0
204,132,10440,2,0,B|144:80|52:116,1,146.666666666667
36,44,10874,2,0,B|68:156|180:204,1,220,8|0
44,268,11599,5,0
112,292,11744,2,0,B|184:316|260:312,1,146.666666666667,8|0
328,304,12179,1,0
396,276,12324,1,0
452,228,12469,1,0
472,156,12614,2,0,B|396:136|348:64,1,146.666666666667,8|0
208,80,13048,6,0,B|196:152|156:220,1,146.666666666667,0|0
208,268,13483,2,0,B|151:221|112:152,1,146.666666666667,8|0
44,176,13918,2,0,B|112:150|191:151,1,146.666666666667
240,200,14353,1,8
416,68,14788,5,0
476,200,15077,1,0
448,132,15222,1,8
448,268,15512,1,0
416,332,15657,1,0
416,332,15802,1,0
416,332,15947,1,0
416,332,16092,2,0,B|256:332,1,146.666666666667,8|0
196,332,16527,5,4
116,132,16961,1,8
316,52,17396,1,0
396,252,17831,1,8
196,332,18266,2,0,B|128:304|80:232,1,146.666666666667
40,180,18701,2,0,B|62:155|89:28|26:78|-44:115|82:142|113:132,1,220,8|0
232,48,19425,1,0
168,84,19570,1,8
308,40,19860,5,0
380,44,20005,2,0,B|448:72|496:144,1,146.666666666667,4|0
500,208,20440,1,8
432,340,20730,1,0
476,280,20874,2,0,B|368:240|300:144,1,220,4|8
336,292,21599,5,0
336,292,21744,2,0,B|260:280|180:292,1,146.666666666667,4|0
116,304,22179,1,8
56,96,22614,1,8
124,64,22759,1,8
160,128,22903,1,8
92,160,23048,1,8
488,72,23483,6,0,B|460:136|384:176,1,146.666666666667,4|0
320,208,23918,1,8
172,200,24208,1,0
244,220,24353,1,0
112,152,24643,1,0
76,88,24788,2,0,B|148:56|232:56,1,146.666666666667,8|0
292,56,25222,6,0,B|368:56|436:80,1,146.666666666667
500,116,25657,1,8
412,232,25947,1,0
472,272,26092,1,0
452,344,26237,1,0
380,348,26382,1,0
356,280,26527,1,8
140,308,26961,5,0
44,200,27251,1,0
80,264,27396,1,8
28,128,27686,1,0
16,56,27831,2,0,B|64:52|96:96,3,73.3333333333333,0|0|0|8
188,184,28556,1,0
144,124,28701,1,0
228,328,29135,5,8
384,172,29570,1,8
336,116,29715,1,8
360,48,29860,1,8
432,36,30005,1,8
480,92,30150,1,8
456,160,30295,1,8
428,228,30440,6,0,B|388:260|364:316|364:316|352:252|320:200,1,220,0|8
188,44,31309,1,0
240,96,31454,1,0
280,160,31599,1,0
220,200,31744,6,0,B|186:132|130:84,1,146.666666666667,8|0
84,144,32179,2,0,B|43:206|30:279,1,146.666666666667
104,292,32614,2,0,B|178:296|248:272,1,146.666666666667,8|0
136,212,33048,1,0
48,76,33338,2,0,B|12:104|0:136,1,73.3333333333333,0|8
120,44,33773,1,0
192,32,33918,5,0
336,60,34208,1,0
264,40,34353,1,8
340,244,34788,1,0
392,108,35077,1,0
376,180,35222,1,8
288,300,35657,2,0,B|236:340|172:348,1,110,0|8
52,172,36527,5,8
4,116,36672,1,8
28,48,36817,1,8
100,36,36961,1,8
148,92,37106,1,8
124,160,37251,1,8
96,228,37396,6,0,B|95:313|163:349,1,146.666666666667,4|0
216,300,37831,1,8
424,48,38266,1,0
464,192,38556,1,0
444,120,38701,1,8
240,344,39135,6,0,B|232:272|248:192,1,146.666666666667
264,128,39570,1,8
368,232,39860,1,0
316,180,40005,1,0
424,280,40295,1,0
476,332,40440,1,8
52,56,40875,5,0
68,200,41164,1,0
60,128,41309,1,8
76,272,41599,1,0
84,344,41744,2,0,B|312:344,2,220,0|8|0
220,272,42903,5,0
148,272,43048,2,0,B|132:124,1,146.666666666667,8|0
124,52,43483,1,8
196,52,43628,1,8
244,108,43773,1,8
316,108,43918,1,8
316,108,44353,6,0,B|284:256,1,146.666666666667,4|0
212,256,44788,1,8
428,296,45222,1,0
316,108,45657,1,8
100,68,46092,1,0
244,92,46382,1,0
172,80,46527,1,8
28,56,46961,2,0,B|28:212,1,146.666666666667
100,288,47396,2,0,B|100:140,1,146.666666666667,8|0
100,68,47831,5,4
244,92,48121,1,0
172,80,48266,2,0,B|172:228,1,146.666666666667,8|0
244,312,48701,2,0,B|244:160,1,146.666666666667,4|0
244,92,49135,1,8
388,116,49425,5,0
316,104,49570,1,4
360,244,49860,5,0
408,188,50005,1,8
264,156,50295,5,0
288,224,50440,1,0
360,244,50585,1,0
408,188,50730,1,0
388,116,50875,1,8
316,104,51019,1,0
264,156,51164,1,0
288,224,51309,1,4
256,192,58266,6,0,B|216:124|140:92,1,146.666666666667,4|0
256,192,58701,2,0,B|296:260|372:292,1,146.666666666667,8|0
256,192,59135,2,0,B|324:152|356:76,1,146.666666666667
256,192,59570,2,0,B|188:232|156:308,1,146.666666666667,8|0
100,260,60005,6,0,B|32:216|8:144,1,146.666666666667
4,76,60440,1,8
148,44,60730,1,0
76,56,60875,1,0
220,40,61164,1,0
292,40,61309,1,8
508,76,61744,5,0
364,44,62034,1,0
436,56,62179,1,8
440,204,62469,2,0,B|472:180|480:144,1,73.3333333333333
400,268,62903,2,0,B|360:236|368:192,1,73.3333333333333,0|8
432,336,63338,1,0
472,272,63483,5,0
256,36,63918,1,8
40,272,64353,1,8
112,288,64498,1,8
184,272,64643,1,8
256,288,64788,1,8
328,272,64932,1,8
400,288,65077,1,8
472,272,65222,1,8
456,96,65512,5,0
456,96,65657,2,0,B|384:64|312:96,1,146.666666666667,8|0
328,168,66092,2,0,B|256:200|184:168,1,146.666666666667,0|0
196,96,66527,2,0,B|124:64|52:96,1,146.666666666667,8|0
53,95,66961,1,0
100,236,67251,6,0,B|124:304,1,73.3333333333333,0|8
256,236,67686,2,0,B|256:160,1,73.3333333333333
412,236,68121,2,0,B|388:304,3,73.3333333333333,0|8|0|0
328,264,68701,6,0,B|256:296|184:264,1,146.666666666667
292,80,69135,2,0,B|355:126|364:204,1,146.666666666667,8|0
152,200,69570,2,0,B|160:121|224:75,1,146.666666666667
256,184,70005,1,8
256,184,70440,1,0
40,92,70875,5,8
472,92,71309,1,8
400,76,71454,1,8
328,92,71599,1,8
256,76,71744,1,8
184,92,71889,1,8
112,76,72034,1,8
40,92,72179,1,12
76,236,72469,5,0
76,236,72614,2,0,B|120:308|188:328,1,146.666666666667,8|0
256,300,73048,2,0,B|216:144,1,146.666666666667
292,157,73483,2,0,B|256:300,1,146.666666666667,8|0
325,327,73918,2,0,B|392:308|436:236,1,146.666666666667
435,236,74353,1,8
360,108,74643,5,0
391,41,74788,1,0
464,51,74932,1,0
479,122,75077,1,0
415,156,75222,1,8
204,220,75657,6,0,B|296:340,1,146.666666666667,4|0
218,336,76092,2,0,B|308:220,1,146.666666666667,8|0
380,208,76527,2,0,B|460:192|472:88,1,146.666666666667
432,40,76961,2,0,B|364:-4|288:40,1,146.666666666667,8|0
218,37,77396,2,0,B|148:-4|80:40,1,146.666666666667
42,104,77831,2,0,B|52:192|132:208,1,146.666666666667,8|0
152,136,78266,5,8
220,104,78411,1,8
292,104,78556,1,8
360,136,78701,1,8
460,332,79135,5,4
460,52,79570,1,8
52,52,80005,1,0
52,332,80440,1,8
256,252,80875,6,0,B|256:104,1,146.666666666667
192,68,81309,2,0,B|256:4|320:68,1,146.666666666667,8|0
368,124,81744,2,0,B|408:160|464:176|464:176|408:192|368:228,1,220,0|8
192,68,82469,1,0
144,123,82614,2,0,B|104:160|48:176|48:176|104:192|144:228,1,220,4|8
256,324,83338,5,0
184,320,83483,2,0,B|192:264|232:236|280:236|320:264|328:320,1,220,4|8
292,176,84208,1,0
292,104,84353,2,0,B|268:80|256:40|256:40|244:80|220:104,1,146.666666666667,4|0
220,176,84788,1,8
292,304,85077,5,8
328,240,85222,1,8
292,176,85367,1,8
220,176,85512,1,8
184,240,85657,1,8
220,304,85802,1,8
292,304,85947,1,8
328,240,86092,6,0,B|404:176|336:72|248:116,1,220,4|0
116,72,86817,1,0
116,72,86961,2,0,B|64:132|52:216,1,146.666666666667
36,276,87396,2,0,B|108:300|188:300,1,146.666666666667,8|0
200,228,87831,6,0,B|280:260|240:348,1,146.666666666667
312,364,88266,2,0,B|348:272|296:208,1,146.666666666667,0|0
252,176,88701,2,0,B|288:124|384:136|400:272,2,220,0|8|0
372,92,89860,5,0
372,92,90005,2,0,B|288:52|220:104,1,146.666666666667,0|0
164,128,90440,2,0,B|104:188|24:196|80:72|124:128|140:228,1,220,0|8
28,308,91164,1,0
88,264,91309,6,0,B|148:308|228:284,1,146.666666666667
284,332,91744,2,0,B|328:256|244:208,1,146.666666666667,0|0
180,176,92179,1,0
128,124,92324,1,0
88,60,92469,1,0
160,56,92614,2,0,B|240:144|364:192,1,220,8|4
192,348,93483,5,0
324,280,93773,1,0
264,324,93918,1,0
372,224,94208,1,0
408,160,94353,2,0,B|340:128|264:148,1,146.666666666667,8|0
276,76,94788,6,0,B|201:82|145:137,1,146.666666666667
120,68,95222,2,0,B|58:110|37:186,1,146.666666666667
40,260,95657,2,0,B|88:312|148:292|196:272|256:340,1,220,0|8
388,332,96382,1,0
460,332,96527,5,4
460,52,96961,1,8
52,52,97396,1,0
52,332,97831,1,8
256,248,98266,5,0
316,116,98556,1,0
272,176,98701,1,8
380,80,98990,1,0
452,72,99135,1,0
508,120,99280,1,0
512,192,99425,1,0
488,260,99570,1,8
432,308,99715,1,0
360,312,99860,1,0
288,296,100005,6,0,B|216:284|148:244|112:156,1,220,4|8
156,28,100730,1,0
104,76,100875,2,0,B|24:156|24:280,1,220,0|8
172,272,101599,6,0,B|192:320|168:352,1,73.3333333333333
160,196,102034,2,0,B|104:212|96:268,1,73.3333333333333,0|8
200,128,102469,2,0,B|240:156|236:208,3,73.3333333333333
248,260,103048,2,0,B|368:284|468:184,1,220,8|0
384,328,103773,5,0
384,328,103918,1,8
452,200,104208,1,0
452,200,104353,2,0,B|456:72|328:24,1,220,0|8
40,312,105222,2,0,B|120:320|196:292,1,146.666666666667
160,228,105657,2,0,B|252:208|260:320,1,146.666666666667,8|0
328,284,106092,5,8
380,336,106237,1,8
396,264,106382,1,8
344,212,106527,1,8
416,192,106672,1,8
364,140,106817,1,8
436,120,106961,6,0,B|392:28|292:92,1,146.666666666667,4|0
315,78,107396,1,8
200,168,107686,1,0
200,168,107831,2,0,B|152:236|68:240,1,146.666666666667
77,239,108266,1,8
48,96,108556,5,0
100,148,108701,1,0
204,44,108990,1,0
267,80,109135,2,0,B|244:128|168:128|144:84,1,146.666666666667,8|0
204,44,109570,1,0
336,108,109860,2,0,B|400:144,1,73.3333333333333,0|8
456,280,110295,1,0
400,328,110440,6,0,B|324:324|288:240,1,146.666666666667,4|0
348,200,110875,2,0,B|304:144|228:160|188:228|232:292,2,220,8|4|8
40,56,112179,1,4
40,200,112469,1,0
40,128,112614,1,8
40,272,112903,5,8
140,208,113048,1,8
256,184,113193,1,8
372,208,113338,1,8
472,272,113483,1,12
256,192,113918,12,0,115657
256,192,131309,12,4,133048
300,124,133483,6,0,B|252:120|228:172,1,73.3333333333333
172,188,133918,2,0,B|192:231|249:226,1,73.3333333333333
292,268,134353,2,0,B|319:228|286:181,1,73.3333333333333
424,308,134788,6,0,B|384:288|392:224,1,73.3333333333333,12|0
464,248,135222,2,0,B|504:228|496:164,1,73.3333333333333
424,184,135657,2,0,B|384:164|392:100,1,73.3333333333333
497,63,136092,2,0,B|504:104|464:124,1,73.3333333333333
348,56,136527,6,0,B|256:32|164:56,1,183.333333333333,4|0
256,336,137831,1,0
120,220,138266,2,0,B|164:304|256:336,1,183.333333333333
140,152,139425,5,0
108,136,139570,1,8
216,36,139860,1,0
248,52,140005,2,0,B|300:76|336:124,1,110,4|0
480,108,140730,5,0
476,144,140875,1,0
456,288,141164,1,0
420,284,141309,1,0
276,260,141599,5,0
280,224,141744,1,12
300,80,142034,1,0
336,84,142179,1,0
264,84,142469,1,0
228,96,142614,2,0,B|192:108|160:140,1,73.3333333333333
144,160,143048,1,0
328,280,143483,6,0,B|276:308|220:316,1,110,4|0
72,340,144353,2,0,B|56:284|52:228,1,110,4|0
36,80,145222,2,0,B|76:60|116:52,1,73.3333333333333,4|0
140,48,145657,1,0
148,168,145947,1,0
148,168,146092,2,0,B|192:168|232:188,1,73.3333333333333,4|0
256,192,146527,1,4
256,192,146672,12,8,148266
136,80,148701,6,0,B|192:56|256:72,1,109.999996721745
236,144,149135,2,0,B|228:204|208:256,1,109.999996721745,8|0
168,312,149570,2,0,B|120:280|80:232,1,109.999996721745
86,239,150005,1,8
425,144,150295,5,0
425,144,150440,2,0,B|392:104|344:72,1,109.999996721745
276,44,150875,2,0,B|264:128|272:212,1,164.999995082617,8|0
364,316,151599,1,0
364,316,151744,2,0,B|376:252|368:188,1,109.999996721745,8|0
172,88,152179,6,0,B|84:104|12:164,1,164.999995082617,0|8
100,36,152903,1,0
100,36,153048,2,0,B|92:96|96:152,1,109.999996721745
100,220,153483,1,8
156,356,153773,1,0
120,292,153918,6,0,B|172:272|228:268,1,109.999996721745
302,99,154353,2,0,B|312:176|300:264,1,164.999995082617,8|0
316,336,154932,1,8
388,356,155077,1,8
456,328,155222,1,8
468,52,155657,6,0,B|432:96|376:116,1,109.999996721745
238,122,156092,2,0,B|275:78|328:60,1,109.999996721745,8|0
268,192,156527,2,0,B|232:236|176:256,1,109.999996721745
35,266,156961,2,0,B|71:222|124:204,1,109.999996721745,8|0
144,132,157396,5,0
256,48,157686,1,0
184,68,157831,1,8
216,288,158266,2,0,B|271:287|323:307,1,109.999996721745
396,328,158701,2,0,B|428:284|444:224,1,109.999996721745,8|0
416,160,159135,5,0
224,32,159570,1,8
96,224,160005,1,0
288,352,160440,1,8
256,192,160875,5,0
144,104,161164,1,0
212,132,161309,1,8
72,120,161599,1,8
24,176,161744,1,8
12,248,161889,1,8
48,312,162034,1,8
112,348,162179,1,8
184,336,162324,1,8
240,288,162469,1,8
264,220,162614,6,0,B|288:100|408:52,1,220,4|8
476,180,163338,1,0
476,180,163483,2,0,B|360:188|260:96,1,220,0|8
152,24,164208,1,0
212,68,164353,2,0,B|152:112|120:180,1,146.666666666667
180,224,164788,2,0,B|132:280|56:264|8:188|76:112,2,220,8|0|8
456,52,166092,6,0,B|484:124|480:208,1,146.666666666667
476,268,166527,2,0,B|408:292|332:288,1,146.666666666667,8|0
260,280,166961,1,0
356,88,167251,1,0
356,88,167396,2,0,B|344:168|300:228,1,146.666666666667,8|0
232,212,167831,6,0,B|244:132|288:72,1,146.666666666667
216,44,168266,2,0,B|100:16|-4:64,1,220,8|0
12,136,168846,1,8
40,204,168990,1,8
96,248,169135,1,8
164,272,169280,1,8
236,276,169425,1,8
308,271,169570,6,0,B|384:184|395:73,1,220,4|8
444,328,170295,1,0
444,328,170440,2,0,B|364:264|304:152,1,220,0|8
448,200,171164,1,0
428,128,171309,1,0
308,48,171599,1,0
376,76,171744,1,8
156,48,172179,5,0
184,116,172324,1,0
236,168,172469,1,0
308,188,172614,1,8
128,316,173048,1,4
56,188,173338,1,0
76,260,173483,1,8
56,40,173918,5,4
128,168,174208,1,0
108,96,174353,1,8
172,228,174643,1,0
236,264,174788,1,4
368,324,175077,1,0
308,280,175222,1,8
404,168,175512,1,0
444,108,175657,5,8
476,172,175802,1,8
436,232,175947,1,8
364,228,176092,1,8
332,164,176237,1,8
372,104,176382,1,8
300,96,176527,6,0,B|280:56|236:56,2,73.3333333333333,4|0|0
236,128,176961,2,0,B|248:172|224:204,2,73.3333333333333,8|0|0
168,156,177396,2,0,B|128:180|84:148,2,73.3333333333333
132,92,177831,2,0,B|132:52|92:32,1,73.3333333333333,8|0
60,96,178121,1,0
28,160,178266,6,0,B|16:236|48:304,1,146.666666666667
116,276,178701,2,0,B|160:336|244:348,1,146.666666666667,8|0
268,280,179135,2,0,B|320:308|308:356,2,73.3333333333333
304,216,179570,2,0,B|264:192|220:220,2,73.3333333333333,8|0|0
427,127,180005,6,0,B|420:208|364:256,1,146.666666666667
416,308,180440,2,0,B|472:260|492:180,1,146.666666666667,8|0
500,112,180874,1,0
452,56,181019,1,0
380,68,181164,1,0
352,136,181309,1,8
280,144,181454,1,0
236,84,181599,1,0
164,88,181744,6,0,B|88:76|24:32,1,146.666666666667
28,35,182179,2,0,B|64:112|64:188,1,146.666666666667,8|0
136,160,182614,5,0
172,256,182759,1,0
252,320,182903,1,0
352,344,183048,1,8
484,40,183483,6,0,B|472:116|432:176,1,146.666666666667,4|0
376,224,183918,2,0,B|328:164|308:84,1,146.666666666667,8|0
256,44,184353,2,0,B|288:8|344:28,2,73.3333333333333
240,116,184788,2,0,B|196:104|184:56,2,73.3333333333333,8|0|0
272,184,185222,6,0,B|188:196|132:116,1,146.666666666667
108,64,185657,2,0,B|40:124|100:192,1,146.666666666667,8|0
40,232,186092,2,0,B|112:320|244:316,2,220,0|8|0
256,56,187251,5,0
256,56,187396,1,12
464,192,187686,1,0
464,192,187831,1,0
256,328,188121,1,0
256,328,188266,1,12
48,192,188556,1,0
48,192,188701,1,0
256,192,188990,5,0
256,192,189135,1,8
256,120,189570,5,8
184,192,189715,1,8
256,264,189860,1,8
328,192,190005,1,8
