osu file format v14

[General]
AudioFilename: Responsibility Response.mp3
AudioLeadIn: 0
PreviewTime: 182310
Countdown: 0
SampleSet: Soft
StackLeniency: 0.7
Mode: 0
LetterboxInBreaks: 0
WidescreenStoryboard: 0

[Editor]
DistanceSpacing: 0.5
BeatDivisor: 4
GridSize: 4
TimelineZoom: 1.8

[Metadata]
Title:Responsibility Response
TitleUnicode:Responsibility Response
Artist:Yonezawa Madoka
ArtistUnicode:米澤円
Creator:ShiraKai
Version:Pathetique
Source:Another
Tags:kacha Guy Sinch Rei24 Poruteri P.A.WORKS Songs party -歌宴- 赤澤泉美 Akazawa Izumi
BeatmapID:706817
BeatmapSetID:276997

[Difficulty]
HPDrainRate:6
CircleSize:4
OverallDifficulty:8
ApproachRate:9.3
SliderMultiplier:1.7
SliderTickRate:1

[Events]
//Background and Video events
0,0,"BG.jpg",0,0
//Break Periods
2,157359,161558
//Storyboard Layer 0 (Background)
//Storyboard Layer 1 (Fail)
//Storyboard Layer 2 (Pass)
//Storyboard Layer 3 (Foreground)
//Storyboard Sound Samples

[TimingPoints]
528,297.029702970297,4,2,1,40,1,0
528,-133.333333333333,4,2,1,40,0,0
4686,-133.333333333333,4,2,5,60,0,0
4983,-133.333333333333,4,2,5,30,0,0
5280,-100,4,2,2,50,0,0
8993,-100,4,2,3,50,0,0
9290,-100,4,2,2,50,0,0
9438,-100,4,2,3,50,0,0
10032,-100,4,2,2,50,0,0
11221,-100,4,2,2,55,0,0
12409,-100,4,2,2,60,0,0
14785,-100,4,2,2,55,0,0
18349,-100,4,2,4,55,0,0
18572,-100,4,2,4,10,0,0
18646,-100,4,2,4,55,0,0
18869,-100,4,2,4,10,0,0
18943,-100,4,2,4,55,0,0
19166,-100,4,2,4,10,0,0
19240,-100,4,2,2,45,0,0
23102,-100,4,2,4,55,0,0
24290,-100,4,2,2,60,0,0
27854,-100,4,2,4,55,0,0
28077,-100,4,2,4,10,0,0
28151,-100,4,2,4,55,0,0
28374,-100,4,2,4,10,0,0
28448,-100,4,2,4,55,0,0
28671,-100,4,2,4,10,0,0
28745,-100,4,2,6,45,0,0
29042,-100,4,2,2,60,0,0
32607,-100,4,2,4,55,0,0
33127,-100,4,2,4,10,0,0
33201,-100,4,2,4,55,0,0
33498,-83.3333333333333,4,2,1,60,0,0
33795,-133.333333333333,4,2,1,35,0,0
38547,-100,4,2,2,45,0,0
44488,-100,4,2,2,50,0,0
45082,-100,4,2,2,55,0,0
45676,-83.3333333333333,4,2,2,60,0,0
45899,-83.3333333333333,4,2,2,10,0,0
45973,-83.3333333333333,4,2,2,60,0,0
46196,-83.3333333333333,4,2,2,10,0,0
46270,-83.3333333333333,4,2,2,60,0,0
46493,-83.3333333333333,4,2,2,10,0,0
46567,-83.3333333333333,4,2,2,60,0,0
46790,-83.3333333333333,4,2,2,10,0,0
47013,-100,4,2,2,40,0,0
47458,-100,4,2,5,40,0,0
47755,-133.333333333333,4,2,1,30,0,0
48052,-83.3333333333333,4,2,2,70,0,1
51765,-83.3333333333333,4,2,2,100,0,1
51914,-83.3333333333333,4,2,2,70,0,1
52062,-83.3333333333333,4,2,2,100,0,1
52211,-83.3333333333333,4,2,2,70,0,1
52359,-83.3333333333333,4,2,2,100,0,1
52508,-83.3333333333333,4,2,2,70,0,1
56295,-90.9090909090909,4,2,2,70,0,0
56369,-76.9230769230769,4,2,2,70,0,1
56592,-76.9230769230769,4,2,2,10,0,0
56666,-76.9230769230769,4,2,2,80,0,1
56889,-76.9230769230769,4,2,2,10,0,0
56963,-76.9230769230769,4,2,2,90,0,1
57186,-76.9230769230769,4,2,2,10,0,0
57260,-76.9230769230769,4,2,2,100,0,1
57483,-76.9230769230769,4,2,2,10,0,0
57557,-83.3333333333333,4,2,2,70,0,1
61270,-83.3333333333333,4,2,2,100,0,1
61419,-83.3333333333333,4,2,2,70,0,1
61567,-83.3333333333333,4,2,2,100,0,1
61716,-83.3333333333333,4,2,2,70,0,1
61864,-83.3333333333333,4,2,2,100,0,1
61938,-83.3333333333333,4,2,2,70,0,1
62310,-83.3333333333333,4,2,2,70,0,1
62458,-83.3333333333333,4,2,2,70,0,1
63498,-83.3333333333333,4,2,2,70,0,1
63646,-83.3333333333333,4,2,2,70,0,1
64686,-83.3333333333333,4,2,2,70,0,1
64834,-83.3333333333333,4,2,2,70,0,1
65874,-83.3333333333333,4,2,2,75,0,1
67062,-83.3333333333333,4,2,2,70,0,1
68102,-133.333333333333,4,2,2,70,0,1
69438,-100,4,2,2,70,0,0
77904,-100,4,2,7,70,0,0
78498,-100,4,2,2,70,0,0
78646,-100,4,2,7,70,0,0
78795,-100,4,2,2,70,0,0
92013,-100,4,2,4,75,0,0
92235,-100,4,2,4,10,0,0
92310,-100,4,2,4,75,0,0
92532,-100,4,2,4,10,0,0
92607,-100,4,2,4,75,0,0
92829,-100,4,2,4,10,0,0
92904,-100,4,2,6,45,0,0
93201,-100,4,2,2,75,0,0
96765,-100,4,2,4,75,0,0
97508,-100,4,2,7,75,0,0
97582,-100,4,2,4,75,0,0
97656,-100,4,2,7,75,0,0
97953,-133.333333333333,4,2,1,45,0,0
102706,-100,4,2,2,75,0,0
108646,-100,4,2,2,70,0,0
109240,-100,4,2,2,75,0,0
109834,-83.3333333333333,4,2,2,60,0,0
110057,-83.3333333333333,4,2,1,10,0,0
110131,-83.3333333333333,4,2,2,60,0,0
110354,-83.3333333333333,4,2,1,10,0,0
110428,-83.3333333333333,4,2,2,60,0,0
110651,-83.3333333333333,4,2,1,10,0,0
110726,-83.3333333333333,4,2,2,60,0,0
110948,-83.3333333333333,4,2,1,10,0,0
111171,-100,4,2,7,50,0,0
111617,-100,4,2,7,60,0,0
111765,-100,4,2,7,70,0,0
111914,-100,4,2,7,80,0,0
112062,-100,4,2,7,90,0,0
112211,-83.3333333333333,4,2,2,80,0,1
115924,-83.3333333333333,4,2,2,100,0,1
116072,-83.3333333333333,4,2,2,80,0,1
116221,-83.3333333333333,4,2,2,100,0,1
116369,-83.3333333333333,4,2,2,80,0,1
116518,-83.3333333333333,4,2,2,100,0,1
116666,-83.3333333333333,4,2,2,80,0,1
120527,-76.9230769230769,4,2,2,70,0,1
120750,-76.9230769230769,4,2,2,10,0,0
120825,-76.9230769230769,4,2,2,80,0,1
121047,-76.9230769230769,4,2,2,10,0,0
121122,-66.6666666666667,4,2,2,90,0,1
121344,-76.9230769230769,4,2,2,10,0,0
121419,-66.6666666666667,4,2,2,100,0,1
121641,-76.9230769230769,4,2,2,10,0,0
121716,-83.3333333333333,4,2,2,80,0,1
125428,-83.3333333333333,4,2,2,100,0,1
125577,-83.3333333333333,4,2,2,80,0,1
125726,-83.3333333333333,4,2,2,100,0,1
125874,-83.3333333333333,4,2,2,80,0,1
126023,-83.3333333333333,4,2,2,100,0,1
126171,-83.3333333333333,4,2,2,80,0,1
132260,-133.333333333333,4,2,2,80,0,1
133597,-100,4,2,2,70,0,0
141914,-76.9230769230769,4,2,4,80,0,0
142136,-76.9230769230769,4,2,4,10,0,0
142211,-76.9230769230769,4,2,4,80,0,0
142433,-76.9230769230769,4,2,4,10,0,0
142508,-66.6666666666667,4,2,4,80,0,0
142730,-76.9230769230769,4,2,4,10,0,0
142805,-76.9230769230769,4,2,4,80,0,0
143028,-76.9230769230769,4,2,4,10,0,0
143102,-100,4,2,2,70,0,0
157359,-133.333333333333,4,2,1,35,0,0
162112,-100,4,2,2,60,0,0
169240,-76.9230769230769,4,2,2,60,0,0
169463,-76.9230769230769,4,2,2,10,0,0
169537,-76.9230769230769,4,2,2,60,0,0
169760,-76.9230769230769,4,2,2,10,0,0
169834,-76.9230769230769,4,2,2,60,0,0
170057,-76.9230769230769,4,2,2,10,0,0
170131,-76.9230769230769,4,2,2,60,0,0
170354,-76.9230769230769,4,2,2,10,0,0
170577,-100,4,2,1,40,0,0
171023,-100,4,2,5,60,0,0
171617,-133.333333333333,4,2,1,60,0,0
179933,-166.666666666667,4,2,2,30,0,0
180230,-125,4,2,2,35,0,0
180528,-100,4,2,2,40,0,0
180825,-83.3333333333333,4,2,2,45,0,0
181122,-71.4285714285714,4,2,2,50,0,0
181419,-62.5,4,2,2,55,0,0
181716,-55.5555555555556,4,2,2,60,0,0
182013,-50,4,2,2,70,0,0
182310,-100,4,2,2,70,0,0
183498,-83.3333333333333,4,2,2,80,0,1
191815,-76.9230769230769,4,2,2,70,0,1
192037,-76.9230769230769,4,2,2,10,0,1
192112,-76.9230769230769,4,2,2,80,0,1
192334,-76.9230769230769,4,2,2,10,0,1
192409,-66.6666666666667,4,2,2,90,0,1
192631,-66.6666666666667,4,2,2,10,0,1
192706,-66.6666666666667,4,2,2,100,0,1
192928,-66.6666666666667,4,2,2,10,0,1
193003,-83.3333333333333,4,2,2,80,0,1
197755,-83.3333333333333,4,2,2,80,0,1
203547,-133.333333333333,4,2,2,80,0,1
204884,-100,4,2,2,60,0,0
208448,-83.3333333333333,4,2,4,70,0,0
208671,-83.3333333333333,4,2,4,10,0,0
208745,-83.3333333333333,4,2,4,70,0,0
208968,-83.3333333333333,4,2,4,10,0,0
209042,-83.3333333333333,4,2,4,70,0,0
209265,-83.3333333333333,4,2,4,10,0,0
209339,-83.3333333333333,4,2,4,70,0,0
209562,-83.3333333333333,4,2,4,10,0,0
209636,-100,4,2,2,60,0,0
210973,-100,4,2,7,60,0,0
211270,-100,4,2,2,60,0,0
215428,-133.333333333333,4,2,2,60,0,0
215948,-133.333333333333,4,2,1,10,0,0
216023,-200,4,2,1,20,0,0
216468,-200,4,2,1,5,0,0

[Colours]
Combo1 : 255,0,204
Combo2 : 39,231,124
Combo3 : 232,139,0
Combo4 : 1,197,254
Combo5 : 170,201,48

[HitObjects]
115,268,528,5,2,0:0:0:0:
252,208,676,1,0,0:0:0:0:
135,114,825,1,8,0:0:0:0:
170,208,973,6,0,L|311:194,1,127.500004863739,2|0,0:0|0:0,0:0:0:0:
397,115,1419,1,8,0:0:0:0:
397,115,1567,6,0,P|344:109|321:104,1,63.7500024318696,2|0,0:0|0:0,0:0:0:0:
230,55,1864,2,0,P|238:96|241:119,1,63.7500024318696
220,258,2161,2,0,P|154:277|106:176,1,191.250007295609,2|2,0:0|0:0,0:0:0:0:
140,105,2755,1,0,0:0:0:0:
170,208,2904,5,2,0:0:0:0:
264,158,3052,1,0,0:0:0:0:
294,286,3201,1,8,0:0:0:0:
389,196,3349,2,0,P|392:132|388:61,1,127.500004863739,2|2,0:0|0:0,0:0:0:0:
254,170,3795,1,0,0:0:0:0:
254,170,3943,6,0,P|245:213|245:235,1,63.7500024318696,2|0,0:0|0:0,0:0:0:0:
252,336,4240,1,2,0:0:0:0:
380,278,4389,1,8,0:0:0:0:
238,341,4537,1,8,0:0:0:0:
123,196,4686,2,0,P|120:132|124:61,1,127.500004863739,8|2,0:0|0:0,0:0:0:0:
123,68,5280,6,0,P|201:90|237:20,1,170,12|0,0:0|0:0,0:0:0:0:
310,99,5726,1,8,0:0:0:0:
405,51,5874,1,0,0:0:0:0:
375,189,6023,1,0,0:0:0:0:
242,155,6171,1,0,0:0:0:0:
391,195,6320,1,0,0:0:0:0:
286,298,6468,6,0,L|197:279,1,85,8|0,0:0|0:0,0:0:0:0:
158,180,6765,1,0,0:0:0:0:
183,291,6914,1,8,0:0:0:0:
154,164,7062,1,0,0:0:0:0:
283,138,7211,1,0,0:0:0:0:
174,302,7359,2,0,P|163:257|156:210,1,85,2|0,0:0|0:0,0:0:0:0:
279,58,7656,6,0,P|352:89|348:180,1,170,8|0,0:0|0:0,0:0:0:0:
252,303,8102,2,0,P|259:208|283:136,1,170
419,232,8547,2,0,P|378:244|337:252,1,85,8|0,0:0|0:0,0:0:0:0:
240,311,8844,6,0,P|194:303|152:290,1,85,8|8,0:0|0:0,0:0:0:0:
129,279,9067,1,8,0:0:0:0:
104,262,9141,1,8,0:0:0:0:
288,213,9290,1,8,0:0:0:0:
124,130,9438,1,10,0:0:0:0:
307,195,9587,1,2,0:0:0:0:
172,242,9735,1,8,0:0:0:0:
267,77,9884,1,2,0:0:0:0:
405,195,10032,6,0,L|399:368,1,170,8|0,0:0|0:0,0:0:0:0:
261,246,10478,2,0,L|267:73,1,170,8|0,0:0|0:0,0:0:0:0:
343,40,10924,1,8,0:0:0:0:
192,118,11072,1,0,0:0:0:0:
337,209,11221,6,0,L|343:36,1,170,8|0,0:0|0:0,0:0:0:0:
192,118,11666,2,0,L|186:291,1,170,8|0,0:0|0:0,0:0:0:0:
114,330,12112,1,8,0:0:0:0:
265,252,12260,1,0,0:0:0:0:
119,160,12409,6,0,L|113:333,1,170,8|0,0:0|0:0,0:0:0:0:
265,252,12854,2,0,L|271:79,1,170,8|0,0:0|0:0,0:0:0:0:
276,0,13300,1,8,0:0:0:0:
385,106,14785,6,0,B|272:124|272:124|213:96,1,170,8|0,0:0|0:0,0:0:0:0:
131,59,15230,2,0,P|130:105|138:149,1,85,8|0,0:0|0:0,0:0:0:0:
159,243,15528,2,0,P|221:220|248:217,1,85
339,220,15825,1,0,0:0:0:0:
237,308,15973,5,8,0:0:0:0:
218,172,16122,2,0,P|211:111|210:65,2,85,0|0|8,0:0|0:0|0:0,0:0:0:0:
278,252,16567,1,0,0:0:0:0:
368,187,16716,1,0,0:0:0:0:
270,137,16864,1,0,0:0:0:0:
325,285,17013,1,0,0:0:0:0:
457,203,17161,6,0,P|473:154|480:114,1,85,8|0,0:0|0:0,0:0:0:0:
416,44,17458,1,0,0:0:0:0:
319,71,17607,2,0,P|276:53|226:48,1,85,8|0,0:0|0:0,0:0:0:0:
174,160,17904,2,0,P|215:153|254:136,1,85
84,115,18201,1,0,0:0:0:0:
84,115,18349,6,0,L|99:248,1,127.5,4|0,0:0|0:0,0:0:0:0:
110,323,18646,2,0,P|112:249|130:187,1,127.5,4|0,0:0|0:0,0:0:0:0:
201,163,18943,2,0,P|251:190|307:245,1,127.5,4|0,0:0|0:0,0:0:0:0:
354,301,19240,1,0,0:0:0:0:
339,169,19389,1,0,0:0:0:0:
357,316,19537,6,0,B|431:304|431:304|443:251|426:204,1,170,8|0,0:0|0:0,0:0:0:0:
337,151,19983,1,8,0:0:0:0:
434,99,20131,1,0,0:0:0:0:
300,176,20280,1,0,0:0:0:0:
417,197,20428,1,0,0:0:0:0:
312,59,20577,1,0,0:0:0:0:
168,154,20726,6,0,L|185:324,1,170,8|0,0:0|0:0,0:0:0:0:
328,228,21171,2,0,L|311:58,1,170,8|0,0:0|0:0,0:0:0:0:
233,24,21617,1,0,0:0:0:0:
393,84,21765,1,0,0:0:0:0:
252,187,21914,6,0,L|241:79,1,85,8|0,0:0|0:0,0:0:0:0:
340,244,22211,1,0,0:0:0:0:
179,268,22359,2,0,L|168:160,1,85,8|0,0:0|0:0,0:0:0:0:
102,73,22656,2,0,P|94:121|82:170,1,85
53,241,22953,1,0,0:0:0:0:
185,178,23102,5,4,0:0:0:0:
224,316,23250,1,0,0:0:0:0:
224,316,23325,1,0,0:0:0:0:
224,316,23399,1,4,0:0:0:0:
337,233,23547,1,0,0:0:0:0:
173,170,23696,5,4,0:0:0:0:
374,133,23844,1,0,0:0:0:0:
203,71,23993,1,0,0:0:0:0:
240,234,24141,1,0,0:0:0:0:
374,133,24290,6,0,L|382:49,1,85,8|0,0:0|0:0,0:0:0:0:
255,192,24587,1,2,3:0:0:0:
350,316,24735,2,0,P|344:270|335:227,1,85,8|0,0:0|0:0,0:0:0:0:
178,136,25032,2,0,P|169:177|164:219,1,85,0|2,0:0|3:0,0:0:0:0:
172,338,25329,2,0,L|266:324,1,85,0|8,0:0|0:0,0:0:0:0:
379,159,25627,5,0,0:0:0:0:
258,228,25775,1,2,3:0:0:0:
379,300,25924,1,8,0:0:0:0:
301,152,26072,1,0,0:0:0:0:
338,295,26221,1,0,0:0:0:0:
452,209,26369,2,0,L|457:125,1,85,2|0,3:0|0:0,0:0:0:0:
289,45,26666,6,0,L|309:238,1,170,8|2,0:0|3:0,0:0:0:0:
323,326,27112,2,0,P|261:317|227:309,1,85,8|0,0:0|0:0,0:0:0:0:
132,340,27409,2,0,P|138:265|146:236,1,85,0|2,0:0|3:0,0:0:0:0:
176,148,27706,1,0,0:0:0:0:
267,196,27854,6,0,P|331:209|380:159,1,127.5,4|0,0:0|0:0,0:0:0:0:
420,117,28151,2,0,P|371:155|311:141,1,127.5,4|0,0:0|0:0,0:0:0:0:
240,123,28448,1,4,0:0:0:0:
188,38,28597,1,0,0:0:0:0:
238,176,28745,1,8,0:0:0:0:
357,86,28894,1,0,0:0:0:0:
332,267,29042,6,0,L|230:255,1,85,8|0,0:0|0:0,0:0:0:0:
160,194,29339,1,0,0:0:0:0:
259,146,29488,1,8,0:0:0:0:
218,267,29636,5,0,0:0:0:0:
190,130,29785,1,0,0:0:0:0:
121,323,29933,1,2,3:0:0:0:
121,323,30082,1,0,0:0:0:0:
81,217,30230,6,0,P|70:117|69:42,1,170,8|0,0:0|0:0,0:0:0:0:
237,29,30676,2,0,P|245:88|248:125,1,85,8|0,0:0|0:0,0:0:0:0:
203,213,30973,1,0,0:0:0:0:
325,182,31122,1,2,3:0:0:0:
188,217,31270,1,0,0:0:0:0:
345,286,31419,6,0,P|386:278|432:268,1,85,8|0,0:0|0:0,0:0:0:0:
319,151,31716,2,0,P|278:159|232:169,1,85,0|8,0:0|0:0,0:0:0:0:
171,274,32013,1,0,0:0:0:0:
149,116,32161,1,0,0:0:0:0:
264,238,32310,1,2,3:0:0:0:
87,182,32458,1,0,0:0:0:0:
134,357,32607,6,0,L|238:353,1,85,4|0,0:0|0:0,0:0:0:0:
343,326,32904,1,4,0:0:0:0:
339,296,32978,1,0,0:0:0:0:
335,266,33052,1,0,0:0:0:0:
331,236,33127,1,0,0:0:0:0:
327,206,33201,2,0,L|320:144,3,42.5,4|0|0|0,0:0|0:0|0:0|0:0,0:0:0:0:
278,96,33498,6,0,P|249:137|247:190,1,101.999996887207
335,266,33795,6,0,P|392:208|497:228,2,191.250007295609,4|0|0,0:0|0:0|0:0,0:0:0:0:
177,266,34983,2,0,P|120:208|15:228,2,191.250007295609,2|0|0,0:0|0:0|0:0,0:0:0:0:
256,325,36171,6,0,B|294:269|256:201|256:201|219:138|258:82,1,255.000009727478,2|8,0:0|0:0,0:0:0:0:
320,143,37062,1,0,0:0:0:0:
193,264,37359,2,0,P|101:284|37:155,1,255.000009727478,0|4,0:0|0:3,0:0:0:0:
35,159,38547,6,0,P|128:158|220:136,1,170,4|0,0:0|0:0,0:0:0:0:
341,105,38993,2,0,P|233:99|199:181,1,170,8|0,0:0|0:0,0:0:0:0:
253,259,39438,2,0,P|322:248|358:240,1,85
411,169,39735,6,0,B|429:108|425:70|425:70|379:13,1,170,8|0,0:0|0:0,0:0:0:0:
223,106,40181,2,0,B|205:167|209:205|209:205|255:262,1,170,8|0,0:0|0:0,0:0:0:0:
364,275,40627,1,8,0:0:0:0:
215,366,40775,1,0,0:0:0:0:
281,176,40924,6,0,P|359:196|360:281,1,170,2|0,0:0|0:0,0:0:0:0:
215,366,41369,2,0,P|179:246|174:175,1,170,8|0,0:0|0:0,0:0:0:0:
293,92,41815,2,0,P|287:149|280:178,1,85,2|0,0:0|0:0,0:0:0:0:
117,294,42112,6,0,P|108:252|104:210,1,85,8|0,0:0|0:0,0:0:0:0:
134,80,42409,2,0,P|190:104|208:118,1,85,0|8,0:0|0:0,0:0:0:0:
301,176,42706,2,0,P|299:133|291:82,1,85
210,227,43003,2,0,P|203:269|202:311,1,85
307,354,43300,6,0,L|494:338,1,170,8|0,0:0|0:0,0:0:0:0:
507,258,43745,2,0,L|337:272,1,170,8|0,0:0|0:0,0:0:0:0:
257,282,44191,2,0,P|240:228|229:182,1,85,2|0,0:0|0:0,0:0:0:0:
229,121,44488,6,0,L|42:137,1,170,8|0,0:0|0:0,0:0:0:0:
29,217,44933,2,0,L|198:202,1,170,8|0,0:0|0:0,0:0:0:0:
287,195,45379,2,0,P|304:141|315:95,1,85,8|0,0:0|0:0,0:0:0:0:
389,35,45676,6,0,B|401:64|392:96|392:96|403:116|403:116|392:148|405:186,1,152.999995330811,8|0,0:0|0:0,0:0:0:0:
441,250,45973,2,0,B|412:262|380:253|380:253|359:264|359:264|328:253|290:266,1,152.999995330811,8|0,0:0|0:0,0:0:0:0:
224,298,46270,2,0,B|212:269|221:237|221:237|209:216|209:216|221:185|208:147,1,152.999995330811,8|0,0:0|0:0,0:0:0:0:
174,82,46567,2,0,B|203:70|235:79|235:79|255:67|255:67|287:79|325:66,1,152.999995330811,8|0,0:0|0:0,0:0:0:0:
409,225,47013,6,0,L|493:217,2,85,0|2|0,0:0|0:0|0:0,0:0:0:0:
354,295,47458,2,0,P|297:272|245:271,1,85,8|0,0:0|0:0,0:0:0:0:
192,288,47755,6,0,P|154:309|98:309,1,95.6250036478044
40,258,48052,6,0,P|24:166|111:121,1,203.999993774414,4|0,0:0|0:0,0:0:0:0:
275,249,48498,2,0,P|158:252|95:199,1,203.999993774414,8|0,0:0|0:0,0:0:0:0:
95,199,48943,1,8,0:0:0:0:
287,150,49092,1,0,0:0:0:0:
153,72,49240,1,2,0:0:0:0:
169,231,49389,6,0,L|269:216,1,101.999996887207
388,119,49686,1,8,0:0:0:0:
330,290,49834,1,0,0:0:0:0:
232,180,49983,1,0,0:0:0:0:
391,266,50131,1,8,0:0:0:0:
142,341,50280,1,0,0:0:0:0:
215,173,50428,6,0,B|239:95|240:17|240:17|205:42|187:67,1,203.999993774414,8|0,0:0|0:0,0:0:0:0:
63,223,50874,2,0,P|152:250|214:157,1,203.999993774414,8|0,0:0|0:0,0:0:0:0:
120,125,51320,1,8,0:0:0:0:
280,251,51468,2,0,P|296:185|299:150,1,101.999996887207,0|2,0:0|0:0,0:0:0:0:
209,67,51765,5,2,3:1:0:0:
376,95,51914,1,2,0:0:0:0:
220,177,52062,1,2,3:1:0:0:
361,237,52211,1,2,0:0:0:0:
174,271,52359,1,2,3:1:0:0:
331,368,52508,5,8,0:0:0:0:
285,223,52656,1,0,0:0:0:0:
144,287,52805,6,0,L|133:84,1,203.999993774414,8|0,0:0|0:0,0:0:0:0:
231,167,53250,2,0,P|324:186|344:81,1,203.999993774414,8|0,0:0|0:0,0:0:0:0:
116,213,53696,1,8,0:0:0:0:
289,126,53844,1,0,0:0:0:0:
138,48,53993,1,2,0:0:0:0:
246,216,54141,6,0,L|238:98,1,101.999996887207
103,205,54438,1,2,0:0:0:0:
261,221,54587,1,0,0:0:0:0:
172,332,54735,1,0,0:0:0:0:
90,198,54884,2,0,L|82:80,1,101.999996887207,8|0,0:0|0:0,0:0:0:0:
185,246,55181,6,0,B|237:257|285:229|285:229|334:202|388:215,1,203.999993774414,8|0,0:0|0:0,0:0:0:0:
381,213,55627,1,2,0:0:0:0:
225,169,55775,2,0,P|212:97|211:66,1,101.999996887207
344,292,56072,1,0,0:0:0:0:
344,292,56221,1,0,0:0:0:0:
409,137,56369,6,0,B|410:204|427:280|427:280|435:264|439:251,1,165.749992412568,14|0,1:0|0:0,0:0:0:0:
482,155,56666,2,0,P|469:93|373:70,1,165.749992412568,14|0,1:0|0:0,0:0:0:0:
333,126,56963,6,0,B|334:193|351:269|351:269|359:253|363:240,1,165.749992412568,14|0,1:0|0:0,0:0:0:0:
409,137,57260,2,0,P|385:72|290:62,1,165.749992412568,14|0,1:0|0:0,0:0:0:0:
255,122,57557,6,0,P|161:155|76:84,1,203.999993774414,4|0,0:0|0:0,0:0:0:0:
82,98,58003,1,8,0:0:0:0:
197,68,58151,1,0,0:0:0:0:
161,186,58300,1,0,0:0:0:0:
111,66,58448,5,8,0:0:0:0:
241,102,58597,1,0,0:0:0:0:
140,202,58745,1,2,0:0:0:0:
82,98,58894,6,0,P|72:37|70:-2,1,101.999996887207
210,150,59191,1,2,0:0:0:0:
312,111,59339,2,0,P|308:161|299:212,1,101.999996887207
210,256,59636,1,8,0:0:0:0:
121,201,59785,1,0,0:0:0:0:
177,356,59933,6,0,B|325:340|325:340|361:289,1,203.999993774414,8|0,0:0|0:0,0:0:0:0:
414,183,60379,1,8,0:0:0:0:
293,140,60528,2,0,L|177:154,1,101.999996887207
62,230,60825,1,8,0:0:0:0:
108,101,60973,1,0,0:0:0:0:
198,206,61122,5,2,0:0:0:0:
328,70,61270,1,2,3:1:0:0:
123,112,61419,1,2,0:0:0:0:
301,184,61567,1,2,3:1:0:0:
166,322,61716,1,2,0:0:0:0:
377,276,61864,1,2,3:1:0:0:
377,276,61938,1,8,0:0:0:0:
377,276,62013,5,8,0:0:0:0:
235,128,62161,1,0,0:0:0:0:
166,322,62310,1,8,0:0:0:0:
301,213,62458,6,0,L|308:86,1,101.999996887207,8|4,0:3|0:3,0:0:0:0:
124,105,62755,1,8,0:0:0:0:
122,214,62904,1,0,0:0:0:0:
219,163,63052,2,0,L|225:55,1,101.999996887207,8|12,0:3|0:3,0:0:0:0:
360,182,63349,1,4,0:3:0:0:
205,162,63498,1,12,0:0:0:0:
373,184,63646,6,0,L|367:293,1,101.999996887207
233,346,63943,2,0,L|238:243,1,101.999996887207,8|0,0:0|0:0,0:0:0:0:
247,104,64240,1,8,0:3:0:0:
388,187,64389,1,8,0:0:0:0:
252,224,64537,1,8,0:3:0:0:
341,81,64686,1,4,0:3:0:0:
430,261,64834,6,0,L|422:378,1,101.999996887207,8|4,0:3|0:3,0:0:0:0:
252,224,65131,2,0,L|258:117,1,101.999996887207,8|0,0:0|0:0,0:0:0:0:
354,73,65428,1,4,0:3:0:0:
178,167,65577,1,8,0:0:0:0:
309,267,65726,6,0,P|349:255|396:217,1,101.999996887207,4|8,0:3|0:0,0:0:0:0:
203,117,66023,2,0,P|163:129|116:168,1,101.999996887207,4|8,0:3|0:0,0:0:0:0:
184,313,66320,2,0,P|197:260|203:204,1,101.999996887207,4|8,0:3|0:0,0:0:0:0:
46,96,66617,2,0,P|33:149|28:200,1,101.999996887207,4|8,0:3|0:0,0:0:0:0:
168,330,66914,5,0,0:0:0:0:
218,138,67062,1,4,0:0:0:0:
119,240,67211,1,8,0:0:0:0:
115,248,67285,1,8,0:0:0:0:
111,256,67359,1,8,0:0:0:0:
253,346,67508,6,0,P|302:339|359:329,1,101.999996887207,8|0,0:0|0:0,0:0:0:0:
450,261,67805,2,0,P|441:199|432:154,1,101.999996887207,8|0,0:0|0:0,0:0:0:0:
335,24,68102,6,0,L|310:225,1,191.250007295609,12|0,0:0|0:0,0:0:0:0:
212,268,68696,2,0,L|206:233,1,31.8750012159348,8|0,0:0|0:0,0:0:0:0:
197,156,68844,2,0,P|168:167|107:181,2,85.0000032424928,2|2|2,0:0|0:0|0:0,0:0:0:0:
371,108,69438,5,8,0:0:0:0:
325,213,69587,1,0,0:0:0:0:
374,93,69735,5,0,0:0:0:0:
422,253,69884,1,8,0:0:0:0:
377,77,70032,5,0,0:0:0:0:
294,286,70181,1,0,0:0:0:0:
451,208,70329,1,8,0:0:0:0:
290,149,70478,6,0,P|279:98|277:49,1,85,0|8,0:0|0:0,0:0:0:0:
455,166,70775,2,0,P|451:208|441:249,1,85
319,343,71072,2,0,P|262:362|179:269,1,170,8|0,0:0|0:0,0:0:0:0:
173,191,71518,1,8,0:0:0:0:
265,285,71666,1,0,0:0:0:0:
335,169,71815,5,8,0:0:0:0:
159,194,71963,1,0,0:0:0:0:
312,259,72112,1,0,0:0:0:0:
180,356,72260,1,8,0:0:0:0:
359,337,72409,1,0,0:0:0:0:
211,270,72557,2,0,P|195:189|191:157,1,85,0|8,0:0|0:0,0:0:0:0:
304,45,72854,6,0,P|313:86|320:128,1,85,0|8,0:0|0:0,0:0:0:0:
204,291,73151,2,0,L|108:283,1,85,0|8,0:0|0:0,0:0:0:0:
301,208,73448,2,0,L|397:216,1,85,0|8,0:0|0:0,0:0:0:0:
321,336,73745,1,0,0:0:0:0:
196,182,73894,1,8,0:0:0:0:
353,215,74042,1,0,0:0:0:0:
181,307,74191,5,8,0:0:0:0:
280,249,74339,1,0,0:0:0:0:
181,186,74488,1,0,0:0:0:0:
215,335,74636,5,8,0:0:0:0:
248,192,74785,1,0,0:0:0:0:
110,236,74933,1,0,0:0:0:0:
260,329,75082,5,8,0:0:0:0:
343,176,75230,2,0,P|351:116|355:66,1,85,0|8,0:0|0:0,0:0:0:0:
187,142,75528,2,0,P|179:202|175:252,1,85
270,340,75825,2,0,P|332:350|397:271,1,170,8|2,0:0|0:0,0:0:0:0:
396,254,76196,1,2,0:0:0:0:
394,233,76270,1,8,0:0:0:0:
274,186,76419,6,0,P|283:106|288:84,1,85,0|8,0:0|0:0,0:0:0:0:
412,42,76716,2,0,P|418:83|421:126,1,85
304,266,77013,2,0,P|261:262|210:249,1,85,8|0,0:0|0:0,0:0:0:0:
186,157,77310,1,0,0:0:0:0:
121,315,77458,1,8,0:0:0:0:
247,215,77607,1,0,0:0:0:0:
101,146,77755,5,8,0:0:0:0:
163,236,77904,1,8,0:0:0:0:
166,243,77978,1,8,0:0:0:0:
169,250,78052,1,8,0:0:0:0:
116,346,78201,1,0,0:0:0:0:
262,290,78349,5,8,0:0:0:0:
161,85,78498,1,8,0:0:0:0:
112,244,78646,1,8,0:0:0:0:
281,136,78795,1,8,0:0:0:0:
364,339,78943,5,4,0:0:0:0:
393,257,80131,5,8,0:0:0:0:
309,274,80428,5,8,0:0:0:0:
225,291,80726,5,8,0:0:0:0:
141,307,81023,5,8,0:0:0:0:
148,45,81320,5,4,0:0:0:0:
119,127,82508,5,8,0:0:0:0:
203,110,82805,5,8,0:0:0:0:
287,93,83103,5,8,0:0:0:0:
371,77,83400,5,8,0:0:0:0:
343,162,83696,5,8,0:0:0:0:
277,87,83844,1,0,0:0:0:0:
379,67,83993,1,0,0:0:0:0:
364,209,84141,1,8,0:0:0:0:
206,187,84290,5,0,0:0:0:0:
302,131,84438,1,0,0:0:0:0:
298,243,84587,1,0,0:0:0:0:
162,221,84735,1,0,0:0:0:0:
244,111,84884,6,0,L|248:220,1,85,8|0,0:0|0:0,0:0:0:0:
190,309,85181,1,0,0:0:0:0:
379,258,85329,2,0,L|375:149,1,85,8|0,0:0|0:0,0:0:0:0:
235,99,85627,1,0,0:0:0:0:
347,172,85775,1,0,0:0:0:0:
184,234,85924,1,0,0:0:0:0:
341,322,86072,6,0,P|425:317|447:228,1,170,8|0,0:0|0:0,0:0:0:0:
355,87,86518,2,0,L|159:105,1,170,8|0,0:0|0:0,0:0:0:0:
107,180,86963,1,0,0:0:0:0:
92,47,87112,1,0,0:0:0:0:
109,193,87260,6,0,L|123:306,1,85,8|0,0:0|0:0,0:0:0:0:
271,216,87557,1,8,0:0:0:0:
168,108,87706,1,0,0:0:0:0:
168,108,87780,1,0,0:0:0:0:
168,108,87854,5,8,0:0:0:0:
206,278,88003,1,0,0:0:0:0:
360,196,88151,5,0,0:0:0:0:
292,360,88300,1,0,0:0:0:0:
134,286,88448,2,0,P|114:217|111:189,1,85,8|0,0:0|0:0,0:0:0:0:
102,87,88745,5,0,0:0:0:0:
259,149,88894,2,0,P|251:190|237:230,1,85,8|0,0:0|0:0,0:0:0:0:
71,331,89191,2,0,P|57:290|49:249,1,85,0|2,0:0|3:0,0:0:0:0:
106,76,89488,1,0,0:0:0:0:
268,155,89636,5,8,0:0:0:0:
148,189,89785,1,0,0:0:0:0:
345,244,89933,1,0,0:0:0:0:
193,115,90082,1,8,0:0:0:0:
328,71,90230,5,0,0:0:0:0:
212,246,90379,1,0,0:0:0:0:
336,202,90528,1,2,3:0:0:0:
132,135,90676,1,0,0:0:0:0:
347,60,90825,6,0,L|336:169,1,85,8|0,0:0|0:0,0:0:0:0:
317,300,91122,1,0,0:0:0:0:
218,206,91270,2,0,P|296:220|316:301,1,170,8|0,0:0|0:0,0:0:0:0:
206,360,91716,2,0,L|117:349,1,85,2|0,3:0|0:0,0:0:0:0:
8,222,92013,6,0,B|67:217|67:217|79:221|79:221|155:214,1,127.5,4|0,0:0|0:0,0:0:0:0:
97,147,92310,2,0,B|156:142|156:142|168:146|168:146|244:139,1,127.5,4|0,0:0|0:0,0:0:0:0:
294,104,92607,6,0,B|299:163|299:163|295:175|295:175|302:251,1,127.5,4|0,0:0|0:0,0:0:0:0:
370,190,92904,2,0,B|375:249|375:249|371:261|371:261|378:337,1,127.5,8|0,0:0|0:0,0:0:0:0:
294,362,93201,6,0,P|228:374|169:284,1,170,8|0,0:0|0:0,0:0:0:0:
176,184,93646,1,8,0:0:0:0:
342,152,93795,1,0,0:0:0:0:
242,211,93943,1,0,0:0:0:0:
241,97,94092,1,2,3:0:0:0:
386,148,94240,1,0,0:0:0:0:
321,286,94389,6,0,L|150:262,1,170,8|0,0:0|0:0,0:0:0:0:
39,143,94834,2,0,P|90:85|178:98,1,170,8|0,0:0|0:0,0:0:0:0:
263,217,95280,1,2,3:0:0:0:
121,156,95428,1,0,0:0:0:0:
297,77,95577,5,8,0:0:0:0:
256,238,95726,1,0,0:0:0:0:
221,129,95874,1,0,0:0:0:0:
244,319,96023,1,8,0:0:0:0:
340,242,96171,5,0,0:0:0:0:
357,228,96320,1,0,0:0:0:0:
191,172,96468,5,2,3:0:0:0:
178,153,96617,1,0,0:0:0:0:
313,45,96765,6,0,P|361:73|384:151,1,127.5,4|0,0:0|0:0,0:0:0:0:
372,214,97062,2,0,L|286:205,1,85,4|0,0:0|0:0,0:0:0:0:
168,218,97359,5,4,0:0:0:0:
146,202,97433,1,0,0:0:0:0:
120,196,97507,1,8,0:0:0:0:
94,198,97581,1,0,0:0:0:0:
70,208,97656,1,8,0:0:0:0:
51,227,97730,1,0,0:0:0:0:
39,250,97804,1,0,0:0:0:0:
36,277,97878,1,0,0:0:0:0:
43,303,97953,6,0,L|59:100,2,191.250007295609,4|0|0,0:0|0:0|0:0,0:0:0:0:
145,165,99141,2,0,L|129:368,2,191.250007295609,2|0|0,0:0|0:0|0:0,0:0:0:0:
237,119,100329,6,0,P|294:101|372:200,2,191.250007295609,4|0|0,0:0|0:0|0:0,0:0:0:0:
288,187,101518,2,0,P|334:264|424:255,2,191.250007295609,2|0|0,0:0|0:0|0:0,0:0:0:0:
288,187,102706,6,0,L|283:76,1,85,4|0,0:0|0:0,0:0:0:0:
206,65,103003,1,0,0:0:0:0:
113,198,103151,2,0,L|199:194,1,85,8|0,0:0|0:0,0:0:0:0:
376,183,103448,1,0,0:0:0:0:
293,277,103597,2,0,L|207:281,1,85,8|0,0:0|0:0,0:0:0:0:
31,204,103894,6,0,P|57:136|152:128,1,170,8|0,0:0|0:0,0:0:0:0:
248,255,104339,2,0,P|182:265|110:184,1,170,8|0,0:0|0:0,0:0:0:0:
112,197,104785,1,8,0:0:0:0:
261,142,104933,1,0,0:0:0:0:
306,337,105082,6,0,L|395:322,1,85,8|0,0:0|0:0,0:0:0:0:
240,249,105379,1,0,0:0:0:0:
325,178,105527,2,0,P|336:136|346:86,1,85,8|0,0:0|0:0,0:0:0:0:
398,245,105825,1,0,0:0:0:0:
299,344,105973,6,0,B|181:327|181:327|146:284,1,170,8|2,0:0|0:0,0:0:0:0:
109,187,106419,1,0,0:0:0:0:
183,108,106567,2,0,L|297:126,1,85,8|0,0:0|0:0,0:0:0:0:
136,285,106864,2,0,L|22:267,1,85,2|0,0:0|0:0,0:0:0:0:
21,112,107161,1,8,0:3:0:0:
116,195,107310,1,4,0:3:0:0:
215,91,107458,6,0,B|343:111|343:111|370:143,1,170,8|0,0:0|0:0,0:0:0:0:
219,204,107904,1,8,0:0:0:0:
314,146,108052,2,0,B|350:248|350:248|336:309,1,170
195,358,108498,1,0,0:0:0:0:
179,241,108646,6,0,P|227:249|266:264,1,85,8|0,0:0|0:0,0:0:0:0:
180,358,108943,2,0,P|132:350|93:335,1,85,8|8,0:0|0:0,0:0:0:0:
64,192,109240,2,0,P|84:152|114:124,1,85
264,50,109537,2,0,L|256:157,1,85,8|0,0:0|0:0,0:0:0:0:
250,233,109834,6,0,B|354:213|354:213|314:248,1,152.999995330811,8|0,0:0|0:0,0:0:0:0:
284,273,110131,2,0,B|180:253|180:253|220:288,1,152.999995330811,8|0,0:0|0:0,0:0:0:0:
253,317,110428,6,0,B|357:297|357:297|317:332,1,152.999995330811,8|0,0:0|0:0,0:0:0:0:
284,362,110726,2,0,B|180:342|180:342|220:377,1,152.999995330811,8|0,0:0|0:0,0:0:0:0:
442,184,111171,6,0,L|472:154,2,42.5,8|8|8,0:0|0:0|0:0,0:0:0:0:
379,264,111468,1,8,0:0:0:0:
315,168,111617,1,8,0:0:0:0:
257,291,111765,1,8,0:0:0:0:
186,151,111914,1,8,0:0:0:0:
137,317,112062,1,8,0:0:0:0:
70,128,112211,6,0,B|211:153|211:153|279:124,1,203.999993774414,4|0,0:0|0:0,0:0:0:0:
359,86,112656,1,8,0:0:0:0:
247,181,112805,1,0,0:0:0:0:
375,73,112953,1,0,0:0:0:0:
309,236,113102,5,8,0:0:0:0:
279,92,113250,1,0,0:0:0:0:
417,146,113399,1,8,0:0:0:0:
368,300,113547,6,0,P|315:299|263:283,1,101.999996887207
161,226,113844,1,8,0:0:0:0:
197,345,113993,1,0,0:0:0:0:
287,264,114141,1,0,0:0:0:0:
140,256,114290,5,8,0:0:0:0:
251,357,114438,1,0,0:0:0:0:
293,210,114587,2,0,P|300:109|300:66,1,101.999996887207,8|0,0:0|0:0,0:0:0:0:
214,151,114884,1,0,0:0:0:0:
315,262,115032,1,8,0:0:0:0:
368,120,115181,5,0,0:0:0:0:
218,187,115329,1,0,0:0:0:0:
373,263,115478,1,8,0:0:0:0:
232,329,115627,2,0,L|220:214,1,101.999996887207,0|8,0:0|0:0,0:0:0:0:
213,87,115924,5,2,0:1:0:0:
298,173,116072,1,2,0:0:0:0:
211,75,116221,1,2,0:1:0:0:
154,244,116369,1,2,0:0:0:0:
209,63,116518,5,2,0:1:0:0:
250,266,116666,1,8,0:0:0:0:
425,169,116815,1,2,0:0:0:0:
141,131,116963,6,0,B|110:200|138:286|138:286|154:243,1,203.999993774414,8|0,0:0|0:0,0:0:0:0:
275,149,117409,2,0,P|348:113|411:204,1,203.999993774414,8|0,0:0|0:0,0:0:0:0:
318,333,117854,1,8,0:0:0:0:
340,186,118003,1,0,0:0:0:0:
150,308,118151,1,8,0:0:0:0:
367,262,118300,6,0,P|361:209|352:140,1,101.999996887207
254,89,118597,1,8,0:0:0:0:
291,221,118745,1,0,0:0:0:0:
155,230,118894,1,0,0:0:0:0:
329,167,119042,5,8,0:0:0:0:
166,111,119191,1,0,0:0:0:0:
198,282,119339,2,0,B|329:263|329:263|365:202,1,203.999993774414,8|0,0:0|0:0,0:0:0:0:
404,93,119785,5,8,0:0:0:0:
234,154,119933,1,0,0:0:0:0:
388,207,120082,1,0,0:0:0:0:
244,126,120230,1,8,0:0:0:0:
381,235,120379,1,0,0:0:0:0:
225,306,120527,6,0,P|166:301|157:188,1,165.749992412568,14|0,1:0|0:0,0:0:0:0:
208,128,120825,2,0,P|280:182|310:260,1,165.749992412568,14|0,1:0|0:0,0:0:0:0:
218,322,121122,6,0,P|145:311|129:203,1,191.250007295609,14|0,1:0|0:0,0:0:0:0:
213,109,121419,2,0,P|293:157|326:250,1,191.250007295609,14|0,1:0|0:0,0:0:0:0:
104,356,121716,6,0,L|88:145,1,203.999993774414,4|0,0:0|0:0,0:0:0:0:
83,63,122161,1,8,0:0:0:0:
179,172,122310,1,0,0:0:0:0:
304,98,122458,1,0,0:0:0:0:
159,94,122607,5,8,0:0:0:0:
255,203,122756,1,0,0:0:0:0:
380,129,122904,1,8,0:0:0:0:
179,172,123052,6,0,L|188:279,1,101.999996887207
353,338,123349,1,8,0:0:0:0:
264,270,123497,1,0,0:0:0:0:
368,225,123646,1,0,0:0:0:0:
270,173,123794,5,8,0:0:0:0:
377,276,123943,1,0,0:0:0:0:
256,365,124092,2,0,L|148:353,1,101.999996887207,8|0,0:0|0:0,0:0:0:0:
165,191,124389,1,0,0:0:0:0:
155,368,124537,1,8,0:0:0:0:
267,206,124686,2,0,L|375:218,1,101.999996887207
201,285,124983,5,8,0:0:0:0:
339,130,125131,1,0,0:0:0:0:
154,88,125280,5,2,0:0:0:0:
363,120,125428,1,2,0:1:0:0:
115,296,125577,1,2,0:0:0:0:
323,224,125726,1,2,0:1:0:0:
167,198,125874,5,2,0:0:0:0:
350,328,126023,1,2,0:1:0:0:
297,165,126171,1,8,0:0:0:0:
123,298,126320,1,0,0:0:0:0:
107,82,126468,1,8,0:0:0:0:
193,214,126617,6,0,L|329:208,1,101.999996887207,8|4,0:3|0:3,0:0:0:0:
383,129,126914,1,8,0:0:0:0:
298,303,127062,1,8,0:3:0:0:
211,170,127211,5,4,0:3:0:0:
371,238,127359,1,8,0:0:0:0:
235,348,127508,2,0,L|119:340,1,101.999996887207,8|8,0:3|0:0,0:0:0:0:
233,173,127805,2,0,L|349:181,1,101.999996887207,8|8,0:3|0:0,0:0:0:0:
409,267,128102,5,8,0:0:0:0:
353,95,128250,1,4,0:3:0:0:
225,223,128399,1,8,0:3:0:0:
203,93,128547,5,8,0:0:0:0:
271,272,128696,1,4,0:3:0:0:
428,171,128844,1,8,0:0:0:0:
279,373,128993,6,0,L|270:266,1,101.999996887207,8|4,0:3|0:3,0:0:0:0:
384,96,129290,2,0,L|393:203,1,101.999996887207,8|4,0:0|0:3,0:0:0:0:
299,144,129587,1,8,0:3:0:0:
468,189,129735,1,4,0:3:0:0:
278,137,129884,6,0,L|269:30,1,101.999996887207,8|8,0:0|0:3,0:0:0:0:
114,158,130181,2,0,L|123:265,1,101.999996887207,4|8,0:3|0:0,0:0:0:0:
307,335,130478,5,4,0:3:0:0:
216,250,130627,1,8,0:0:0:0:
341,217,130775,1,4,0:3:0:0:
185,333,130924,5,8,0:0:0:0:
365,256,131072,1,4,0:3:0:0:
171,146,131221,5,8,0:0:0:0:
253,253,131369,1,8,0:0:0:0:
259,261,131443,1,8,0:0:0:0:
265,268,131518,1,8,0:0:0:0:
405,216,131666,6,0,L|395:104,1,101.999996887207,8|0,0:0|0:0,0:0:0:0:
107,168,131963,2,0,L|117:280,1,101.999996887207,8|0,0:0|0:0,0:0:0:0:
272,339,132260,6,0,L|249:65,1,255.000009727478,4|8,0:0|0:0,0:0:0:0:
181,162,133003,2,0,L|188:234,1,63.7500024318696,2|2,0:0|0:0,0:0:0:0:
337,208,133300,2,0,L|330:136,1,63.7500024318696,2|2,0:0|0:0,0:0:0:0:
250,65,133597,5,4,0:0:0:0:
151,115,133745,1,0,0:0:0:0:
244,172,133894,1,0,0:0:0:0:
146,226,134042,6,0,B|139:139,1,85,8|0,0:0|0:0,0:0:0:0:
234,269,134339,1,0,0:0:0:0:
65,296,134488,2,0,B|58:209,1,85,8|0,0:0|0:0,0:0:0:0:
249,164,134785,5,8,0:0:0:0:
138,228,134933,1,0,0:0:0:0:
238,278,135082,1,0,0:0:0:0:
304,186,135230,6,0,L|306:78,1,85,8|0,0:0|0:0,0:0:0:0:
220,246,135528,1,0,0:0:0:0:
393,228,135676,2,0,L|395:120,1,85,8|0,0:0|0:0,0:0:0:0:
275,323,135973,6,0,P|150:255|125:271,1,170,8|0,0:0|0:0,0:0:0:0:
43,202,136419,2,0,P|81:179|127:165,1,85,8|0,0:0|0:0,0:0:0:0:
260,126,136716,2,0,P|222:103|176:89,1,85,2|8,0:0|0:0,0:0:0:0:
327,195,137013,6,0,P|348:137|351:89,1,85,0|8,0:0|0:0,0:0:0:0:
119,166,137310,2,0,P|126:207|142:246,1,85,0|8,0:0|0:0,0:0:0:0:
216,317,137607,1,0,0:0:0:0:
255,161,137755,5,8,0:0:0:0:
302,289,137904,1,0,0:0:0:0:
250,148,138052,1,8,0:0:0:0:
212,332,138201,1,0,0:0:0:0:
375,257,138349,5,8,0:0:0:0:
200,184,138498,2,0,L|204:90,1,85
317,44,138795,2,0,P|380:53|396:162,1,170,8|0,0:0|0:0,0:0:0:0:
208,268,139240,2,0,P|161:256|132:236,1,85,8|0,0:0|0:0,0:0:0:0:
94,147,139537,5,8,0:0:0:0:
201,182,139686,1,0,0:0:0:0:
176,86,139834,5,0,0:0:0:0:
228,204,139983,1,8,0:0:0:0:
278,69,140131,5,0,0:0:0:0:
254,229,140280,1,0,0:0:0:0:
373,112,140428,1,8,0:0:0:0:
176,159,140577,1,0,0:0:0:0:
287,335,140726,6,0,P|283:289|277:246,1,85,8|0,0:0|0:0,0:0:0:0:
151,137,141023,1,0,0:0:0:0:
119,313,141171,2,0,P|186:303|206:298,1,85,8|0,0:0|0:0,0:0:0:0:
344,233,141468,5,0,0:0:0:0:
217,161,141617,1,8,0:0:0:0:
206,312,141765,1,0,0:0:0:0:
415,284,141914,6,0,B|409:216|419:166|419:166|407:144|407:144|390:165,1,165.749992412568,4|0,0:0|0:0,0:0:0:0:
334,216,142211,2,0,P|277:225|224:134,1,165.749992412568,4|0,0:0|0:0,0:0:0:0:
260,70,142508,6,0,B|304:58|353:73|353:73|385:113|393:164,1,191.250007295609,4|0,0:0|0:0,0:0:0:0:
345,296,142805,2,0,P|237:267|145:251,1,165.749992412568,4|0,0:0|0:0,0:0:0:0:
103,293,143102,6,0,L|95:169,1,85,4|0,0:0|0:0,0:0:0:0:
129,115,143399,1,0,0:0:0:0:
259,171,143547,1,8,0:0:0:0:
122,110,143696,2,0,L|114:-14,1,85
266,177,143993,2,0,L|274:301,1,85,8|0,0:0|0:0,0:0:0:0:
172,329,144290,6,0,P|113:347|67:248,1,170,8|0,0:0|0:0,0:0:0:0:
145,156,144735,2,0,P|213:170|344:176,1,170,8|0,0:0|0:0,0:0:0:0:
398,158,145181,1,8,0:0:0:0:
272,113,145329,1,0,0:0:0:0:
301,248,145478,6,0,P|389:242|416:238,1,85,8|0,0:0|0:0,0:0:0:0:
226,182,145775,1,0,0:0:0:0:
262,322,145924,2,0,P|374:280|385:230,1,170,8|0,0:0|0:0,0:0:0:0:
297,131,146369,2,0,P|212:142|176:144,1,85,8|0,0:0|0:0,0:0:0:0:
123,93,146666,5,8,0:0:0:0:
90,196,146815,1,2,0:0:0:0:
127,78,146963,1,8,0:0:0:0:
165,250,147112,1,2,0:0:0:0:
168,257,147186,1,0,0:0:0:0:
171,264,147260,1,8,0:0:0:0:
269,304,147409,5,0,0:0:0:0:
221,177,147557,1,0,0:0:0:0:
360,248,147706,1,0,0:0:0:0:
165,338,147854,6,0,P|110:307|122:205,1,170,4|0,0:0|0:0,0:0:0:0:
282,93,148300,2,0,L|271:274,1,170,8|0,0:0|0:0,0:0:0:0:
265,354,148745,1,8,0:0:0:0:
265,354,148894,1,0,0:0:0:0:
371,233,149042,6,0,L|382:52,1,170,8|0,0:0|0:0,0:0:0:0:
190,126,149488,2,0,L|179:307,1,170,8|0,0:0|0:0,0:0:0:0:
366,339,149933,1,8,0:0:0:0:
366,339,150082,1,0,0:0:0:0:
98,343,150230,6,0,L|109:162,1,170,8|0,0:0|0:0,0:0:0:0:
275,82,150676,2,0,L|264:263,1,170,8|0,0:0|0:0,0:0:0:0:
198,337,151122,1,8,0:0:0:0:
198,337,151270,1,0,0:0:0:0:
350,220,151419,6,0,L|358:123,1,85,8|0,0:0|0:0,0:0:0:0:
182,71,151716,1,8,0:0:0:0:
261,135,151864,1,0,0:0:0:0:
167,172,152013,1,8,0:0:0:0:
247,236,152161,1,0,0:0:0:0:
152,273,152310,1,8,0:0:0:0:
253,188,152458,1,0,0:0:0:0:
89,111,152607,6,0,L|95:201,1,85,8|0,0:0|0:0,0:0:0:0:
228,324,152904,1,0,0:0:0:0:
228,324,153052,2,0,P|282:294|399:284,1,170,8|0,0:0|0:0,0:0:0:0:
478,212,153498,2,0,P|438:197|385:185,1,85,8|0,0:0|0:0,0:0:0:0:
248,135,153795,6,0,P|288:120|341:108,1,85,8|0,0:0|0:0,0:0:0:0:
160,198,154092,2,0,P|147:135|144:88,1,85,8|0,0:0|0:0,0:0:0:0:
326,53,154389,1,8,0:0:0:0:
309,202,154537,1,0,0:0:0:0:
182,87,154686,1,8,0:0:0:0:
220,257,154834,1,0,0:0:0:0:
400,144,154983,6,0,P|394:186|385:227,1,85,4|0,0:0|0:0,0:0:0:0:
206,358,155280,1,0,0:0:0:0:
124,278,155428,6,0,P|114:236|106:150,1,127.5,4|0,0:0|0:0,0:0:0:0:
128,71,155726,2,0,P|198:97|256:100,1,127.5,8|0,0:0|0:0,0:0:0:0:
332,95,156023,1,8,0:0:0:0:
192,125,162112,6,0,L|185:19,2,85,4|0|0,0:0|0:0|0:0,0:0:0:0:
200,224,162557,2,0,P|302:190|377:188,1,170,8|0,0:0|0:0,0:0:0:0:
450,226,163003,1,8,0:0:0:0:
335,146,163151,1,0,0:0:0:0:
296,282,163300,6,0,L|126:272,1,170,8|0,0:0|0:0,0:0:0:0:
85,174,163745,1,8,0:0:0:0:
197,207,163894,1,0,0:0:0:0:
168,94,164042,1,0,0:0:0:0:
183,229,164191,5,8,0:0:0:0:
327,155,164339,1,0,0:0:0:0:
313,319,164488,2,0,L|214:305,1,85,8|0,0:0|0:0,0:0:0:0:
162,199,164785,1,0,0:0:0:0:
82,267,164933,6,0,L|265:246,1,170,8|0,0:0|0:0,0:0:0:0:
412,163,165379,2,0,P|385:97|268:85,1,170,8|8,0:0|0:0,0:0:0:0:
216,265,165825,1,0,0:0:0:0:
301,157,165973,2,0,L|294:48,1,85,0|8,0:0|0:0,0:0:0:0:
197,38,166270,5,0,0:0:0:0:
222,177,166419,1,0,0:0:0:0:
356,132,166567,2,0,L|350:229,1,85,8|0,0:0|0:0,0:0:0:0:
287,374,166864,6,0,P|232:364|219:260,1,170,8|0,0:0|0:0,0:0:0:0:
368,208,167310,1,8,0:0:0:0:
272,306,167458,2,0,P|195:314|164:308,1,85
122,194,167755,2,0,P|164:192|205:201,1,85,8|0,0:0|0:0,0:0:0:0:
46,288,168052,6,0,P|21:197|32:109,1,170,8|0,0:0|0:0,0:0:0:0:
99,58,168498,1,8,0:0:0:0:
181,110,168646,2,0,P|192:69|189:27,1,85
94,154,168943,2,0,P|91:198|103:238,1,85,8|0,0:0|0:0,0:0:0:0:
206,313,169240,6,0,P|275:322|277:230,1,165.749992412568,8|0,0:0|0:0,0:0:0:0:
243,271,169537,6,0,P|301:231|241:159,1,165.749992412568,8|0,0:0|0:0,0:0:0:0:
246,215,169834,6,0,P|270:153|191:115,1,165.749992412568,8|0,0:0|0:0,0:0:0:0:
215,167,170131,6,0,P|189:106|107:133,1,165.749992412568,8|0,0:0|0:0,0:0:0:0:
52,341,170577,6,0,L|153:325,1,85
171,239,170874,1,0,0:0:0:0:
253,292,171023,2,0,L|242:121,1,170,8|0,0:0|0:0,0:0:0:0:
413,56,171617,6,0,P|413:91|410:137,1,63.7500024318696,2|0,0:0|0:0,0:0:0:0:
323,161,171914,2,0,P|322:196|326:242,1,63.7500024318696,2|0,0:0|0:0,0:0:0:0:
371,323,172211,1,2,0:0:0:0:
281,295,172359,1,0,0:0:0:0:
200,349,172508,2,0,P|201:317|201:285,1,63.7500024318696,8|0,0:0|0:0,0:0:0:0:
130,212,172805,1,2,0:0:0:0:
191,132,172953,6,0,P|248:120|328:159,1,127.500004863739
396,233,173399,2,0,P|338:238|309:243,1,63.7500024318696
226,315,173696,2,0,P|284:320|313:325,1,63.7500024318696,8|0,0:0|0:0,0:0:0:0:
406,360,173993,6,0,L|394:212,1,127.500004863739,0|8,0:0|0:0,0:0:0:0:
391,143,174438,1,0,0:0:0:0:
285,73,174587,1,8,0:0:0:0:
404,152,174735,1,0,0:0:0:0:
224,228,174884,5,8,0:0:0:0:
178,61,175032,1,0,0:0:0:0:
348,121,175181,1,0,0:0:0:0:
224,138,175329,1,0,0:0:0:0:
215,143,175404,1,0,0:0:0:0:
206,147,175478,1,0,0:0:0:0:
82,86,175627,2,0,L|98:229,1,127.500004863739,8|0,0:0|0:0,0:0:0:0:
99,228,175998,1,0,0:0:0:0:
102,243,176072,1,0,0:0:0:0:
223,196,176221,1,0,0:0:0:0:
197,333,176369,6,0,L|108:322,1,63.7500024318696,8|0,0:0|0:0,0:0:0:0:
26,245,176666,1,0,0:0:0:0:
26,245,176815,2,0,L|115:234,1,63.7500024318696,2|0,0:0|0:0,0:0:0:0:
260,162,177112,5,0,0:0:0:0:
154,127,177260,1,0,0:0:0:0:
180,240,177409,1,2,0:0:0:0:
186,246,177483,1,0,0:0:0:0:
192,252,177557,1,0,0:0:0:0:
329,208,177706,6,0,L|315:78,1,127.500004863739
404,33,178151,2,0,P|400:78|394:103,1,63.7500024318696
254,204,178448,2,0,P|247:172|245:140,1,63.7500024318696,8|0,0:0|0:0,0:0:0:0:
258,64,178745,5,2,0:0:0:0:
308,169,178894,1,0,0:0:0:0:
190,208,179042,1,8,0:0:0:0:
321,166,179191,1,0,0:0:0:0:
187,102,179339,5,4,0:3:0:0:
321,51,179488,1,0,0:0:0:0:
215,197,179636,1,0,0:0:0:0:
363,171,179785,1,0,0:0:0:0:
245,288,179933,6,0,L|253:206,1,76.4999976654053,4|0,0:0|0:0,0:0:0:0:
287,199,180230,6,0,L|275:326,1,102,4|0,0:0|0:0,0:0:0:0:
208,303,180528,6,0,L|222:154,1,127.5,4|0,0:0|0:0,0:0:0:0:
291,172,180825,6,0,L|272:358,1,152.999995330811,4|0,0:0|0:0,0:0:0:0:
204,331,181122,6,0,L|229:102,1,178.499994552612,4|0,0:0|0:0,0:0:0:0:
295,146,181419,6,0,L|270:370,1,204,4|0,0:0|0:0,0:0:0:0:
200,357,181716,6,0,L|229:109,1,229.499992996216,4|0,0:0|0:0,0:0:0:0:
297,124,182013,6,0,L|267:386,1,255
62,289,182458,6,0,L|75:195,1,85
89,115,182755,1,0,0:0:0:0:
162,166,182904,2,0,P|218:187|296:87,1,170
306,106,183498,6,0,P|390:105|414:212,1,203.999993774414,4|0,0:0|0:0,0:0:0:0:
337,316,183943,1,8,0:0:0:0:
257,234,184092,1,0,0:0:0:0:
177,353,184240,1,0,0:0:0:0:
157,217,184389,5,8,0:0:0:0:
255,321,184537,1,0,0:0:0:0:
350,169,184686,1,8,0:0:0:0:
247,330,184834,6,0,P|200:317|142:312,1,101.999996887207
32,264,185131,1,8,0:0:0:0:
129,200,185280,2,0,P|142:133|147:97,1,101.999996887207
87,27,185577,1,8,0:0:0:0:
190,164,185726,1,0,0:0:0:0:
346,106,185874,6,0,L|334:220,1,101.999996887207,8|0,0:0|0:0,0:0:0:0:
432,175,186171,1,0,0:0:0:0:
250,147,186320,1,8,0:0:0:0:
445,178,186468,2,0,L|457:64,1,101.999996887207
236,144,186765,2,0,L|224:258,1,101.999996887207,8|0,0:0|0:0,0:0:0:0:
282,322,187062,5,8,0:0:0:0:
157,183,187211,1,2,0:1:0:0:
343,140,187359,1,2,0:0:0:0:
169,98,187508,5,2,0:1:0:0:
334,231,187656,1,2,0:0:0:0:
134,300,187805,1,2,0:1:0:0:
125,305,187879,1,0,0:0:0:0:
116,310,187953,1,0,0:0:0:0:
218,212,188102,5,0,0:0:0:0:
87,134,188250,2,0,P|88:189|95:244,1,101.999996887207,8|0,0:0|0:0,0:0:0:0:
203,314,188547,1,0,0:0:0:0:
283,157,188696,2,0,B|301:53|289:-2|289:-2|265:20|261:47,1,203.999993774414,8|0,0:0|0:0,0:0:0:0:
251,247,189141,2,0,P|335:231|354:224,1,101.999996887207,8|0,0:0|0:0,0:0:0:0:
394,140,189438,5,8,0:0:0:0:
215,91,189587,2,0,P|166:76|115:69,1,101.999996887207
71,166,189884,1,8,0:0:0:0:
196,47,190032,1,0,0:0:0:0:
236,217,190181,1,0,0:0:0:0:
132,96,190329,5,8,0:0:0:0:
296,36,190478,1,0,0:0:0:0:
264,208,190627,2,0,L|161:194,1,101.999996887207,8|0,0:0|0:0,0:0:0:0:
66,146,190924,1,0,0:0:0:0:
94,270,191072,1,8,0:0:0:0:
55,137,191221,5,0,0:0:0:0:
107,276,191369,1,0,0:0:0:0:
196,110,191518,1,8,0:0:0:0:
245,302,191666,1,0,0:0:0:0:
329,156,191815,6,0,B|352:118|356:39|356:39|368:71|373:121,1,165.749992412568,14|0,1:0|0:0,0:0:0:0:
360,135,192112,2,0,P|348:184|355:326,1,165.749992412568,14|0,1:0|0:0,0:0:0:0:
422,319,192409,6,0,P|395:240|297:238,1,191.250007295609,14|0,1:0|0:0,0:0:0:0:
245,302,192706,2,0,B|223:299|195:293|195:293|188:288|188:288|182:290|182:290|115:282|56:266,1,191.250007295609,14|0,1:0|0:0,0:0:0:0:
23,134,193003,6,0,P|79:61|190:110,1,203.999993774414,4|0,0:0|0:0,0:0:0:0:
188,186,193448,2,0,P|173:123|178:74,1,101.999996887207,8|0,0:0|0:0,0:0:0:0:
241,30,193745,5,0,0:0:0:0:
107,132,193894,1,8,0:0:0:0:
256,124,194042,5,0,0:0:0:0:
233,271,194191,1,8,0:0:0:0:
382,188,194339,2,0,P|394:144|398:84,1,101.999996887207
307,42,194636,1,8,0:0:0:0:
320,188,194785,1,0,0:0:0:0:
188,126,194933,5,0,0:0:0:0:
238,285,195082,1,8,0:0:0:0:
377,208,195230,1,0,0:0:0:0:
168,105,195379,6,0,L|189:327,1,203.999993774414,8|0,0:0|0:0,0:0:0:0:
263,356,195825,1,8,0:0:0:0:
110,263,195973,2,0,L|99:155,1,101.999996887207
175,96,196270,1,8,0:0:0:0:
342,137,196419,1,0,0:0:0:0:
211,206,196567,5,2,0:0:0:0:
367,133,196716,1,2,0:1:0:0:
196,214,196864,1,2,0:0:0:0:
341,337,197013,1,2,0:1:0:0:
130,299,197161,5,2,0:0:0:0:
313,221,197310,1,2,0:1:0:0:
324,216,197384,1,0,0:0:0:0:
333,212,197458,1,8,0:0:0:0:
154,84,197607,1,0,0:0:0:0:
201,210,197755,5,8,0:0:0:0:
311,138,197904,2,0,L|323:24,1,101.999996887207,8|4,0:3|0:3,0:0:0:0:
156,146,198201,1,8,0:0:0:0:
59,214,198349,1,4,0:3:0:0:
240,240,198498,2,0,L|252:126,1,101.999996887207,8|4,0:3|0:3,0:0:0:0:
390,167,198795,5,8,0:3:0:0:
233,137,198943,1,8,0:0:0:0:
406,169,199092,2,0,L|394:283,1,101.999996887207,8|4,0:3|0:3,0:0:0:0:
231,327,199389,2,0,P|174:297|187:171,1,203.999993774414,8|4,0:0|3:0,0:0:0:0:
340,128,199834,1,8,0:0:0:0:
240,240,199983,1,0,0:0:0:0:
105,169,200131,1,8,0:0:0:0:
105,169,200280,6,0,L|98:64,1,101.999996887207,8|4,0:3|0:3,0:0:0:0:
288,209,200577,1,8,0:0:0:0:
192,118,200726,1,4,0:3:0:0:
413,67,200874,2,0,L|407:169,1,101.999996887207,8|8,0:3|0:0,0:0:0:0:
276,316,201171,1,0,0:0:0:0:
229,199,201320,6,0,P|220:148|213:78,1,101.999996887207,4|0,0:0|0:0,0:0:0:0:
407,169,201617,2,0,P|400:219|392:269,1,101.999996887207,4|0,0:0|0:0,0:0:0:0:
207,346,201914,5,4,0:0:0:0:
306,233,202062,1,0,0:0:0:0:
145,170,202211,1,4,0:0:0:0:
283,312,202359,1,0,0:0:0:0:
106,358,202508,5,4,0:0:0:0:
213,243,202656,1,8,0:0:0:0:
217,234,202730,1,8,0:0:0:0:
221,224,202805,1,8,0:0:0:0:
78,164,202953,2,0,P|70:105|68:55,1,101.999996887207,8|0,0:0|0:0,0:0:0:0:
443,62,203250,2,0,P|441:113|434:164,1,101.999996887207,8|0,0:0|0:0,0:0:0:0:
256,303,203547,6,0,L|256:162,1,127.500004863739,4|8,0:0|0:0,0:0:0:0:
256,149,203919,1,8,0:0:0:0:
256,123,203993,1,8,0:0:0:0:
167,75,204141,5,2,0:0:0:0:
350,109,204290,1,8,0:0:0:0:
167,194,204438,1,2,0:0:0:0:
350,226,204587,1,8,0:0:0:0:
167,312,204735,1,2,0:0:0:0:
350,343,204884,5,4,0:0:0:0:
249,301,205032,1,0,0:0:0:0:
408,241,205181,1,0,0:0:0:0:
299,200,205329,5,8,0:0:0:0:
389,301,205478,1,0,0:0:0:0:
237,350,205627,2,0,P|216:259|215:241,1,85,0|8,0:0|0:0,0:0:0:0:
369,132,205924,2,0,P|390:223|391:241,1,85,0|8,0:0|0:0,0:0:0:0:
188,302,206221,5,0,0:0:0:0:
308,194,206369,1,0,0:0:0:0:
161,150,206518,2,0,P|152:98|152:60,1,85,8|0,0:0|0:0,0:0:0:0:
244,144,206815,1,0,0:0:0:0:
94,84,206963,1,8,0:0:0:0:
115,231,207112,1,0,0:0:0:0:
248,175,207260,5,8,0:0:0:0:
216,299,207409,1,0,0:0:0:0:
161,150,207557,1,0,0:0:0:0:
225,314,207706,1,8,0:0:0:0:
346,142,207854,1,0,0:0:0:0:
411,289,208003,2,0,L|312:271,1,85,0|8,0:0|0:0,0:0:0:0:
209,235,208300,1,0,0:0:0:0:
292,145,208448,6,0,P|361:134|408:200,1,152.999995330811,4|0,0:0|0:0,0:0:0:0:
409,220,208745,2,0,P|394:110|382:64,1,152.999995330811,4|0,0:0|0:0,0:0:0:0:
375,47,209042,6,0,P|371:101|274:140,1,152.999995330811,4|0,0:0|0:0,0:0:0:0:
266,140,209339,2,0,P|172:106|113:99,1,152.999995330811,4|0,0:0|0:0,0:0:0:0:
43,89,209636,5,0,0:0:0:0:
75,201,209785,1,0,0:0:0:0:
36,77,209933,1,0,0:0:0:0:
154,166,210082,5,0,0:0:0:0:
34,225,210230,1,0,0:0:0:0:
146,94,210379,2,0,L|236:112,1,85,0|8,0:0|0:0,0:0:0:0:
283,198,210676,1,0,0:0:0:0:
395,56,210825,1,8,0:0:0:0:
286,19,210973,5,8,0:0:0:0:
286,19,211047,1,8,0:0:0:0:
286,19,211122,1,8,0:0:0:0:
361,161,211270,1,8,0:0:0:0:
246,103,211419,1,8,0:3:0:0:
241,277,211567,1,4,0:3:0:0:
179,165,211716,1,8,0:0:0:0:
95,327,211864,1,4,0:3:0:0:
85,177,212013,6,0,P|79:117|79:67,2,85,4|0|0,0:0|0:0|0:0,0:0:0:0:
253,286,212458,2,0,P|259:226|259:176,1,85,4|2,0:0|0:0,0:0:0:0:
222,128,212755,5,8,0:0:0:0:
208,269,212904,1,8,0:3:0:0:
336,207,213052,1,4,0:3:0:0:
212,110,213201,5,4,0:0:0:0:
194,284,213349,1,8,0:0:0:0:
190,292,213424,1,8,0:0:0:0:
186,299,213498,1,8,0:0:0:0:
355,213,213646,1,8,0:0:0:0:
200,88,213795,5,2,0:0:0:0:
177,310,213943,1,8,0:3:0:0:
379,223,214092,1,4,0:3:0:0:
253,203,214240,5,2,0:0:0:0:
358,131,214389,1,4,0:0:0:0:
324,320,214537,2,0,L|231:298,1,85,8|0,0:0|0:0,0:0:0:0:
188,64,214834,2,0,L|281:86,1,85,8|0,0:0|0:0,0:0:0:0:
449,233,215131,5,8,0:0:0:0:
63,151,215428,5,4,0:0:0:0:
63,151,215577,2,0,P|112:184|150:105,1,159.375006079674,2|0,0:0|0:0,0:0:0:0:
203,60,216023,6,0,P|228:118|214:194,1,127.5
