osu file format v14

[General]
AudioFilename: Responsibility Response.mp3
AudioLeadIn: 0
PreviewTime: 182310
Countdown: 0
SampleSet: Soft
StackLeniency: 0.7
Mode: 0
LetterboxInBreaks: 0
WidescreenStoryboard: 1

[Editor]
Bookmarks: 78349
DistanceSpacing: 0.6
BeatDivisor: 4
GridSize: 4
TimelineZoom: 2.699999

[Metadata]
Title:Responsibility Response
TitleUnicode:Responsibility Response
Artist:Yonezawa Madoka
ArtistUnicode:米澤円
Creator:ShiraKai
Version:Just a Moment
Source:Another
Tags:kacha Guy Sinch Rei24 Poruteri P.A.WORKS Songs party -歌宴- 赤澤泉美 Akazawa Izumi
BeatmapID:722894
BeatmapSetID:276997

[Difficulty]
HPDrainRate:6
CircleSize:4
OverallDifficulty:8
ApproachRate:9.3
SliderMultiplier:1.8
SliderTickRate:1

[Events]
//Background and Video events
0,0,"BG.jpg",0,0
//Break Periods
2,156223,161558
2,171817,179379
//Storyboard Layer 0 (Background)
//Storyboard Layer 1 (Fail)
//Storyboard Layer 2 (Pass)
//Storyboard Layer 3 (Foreground)
//Storyboard Sound Samples

[TimingPoints]
528,297.029702970297,4,2,1,50,1,0
5280,-100,4,2,2,60,0,0
8993,-100,4,2,3,60,0,0
10032,-100,4,2,2,60,0,0
14191,-125,4,2,1,45,0,0
14291,-125,4,2,1,45,0,0
33721,-166.666666666667,4,2,1,45,0,0
38102,-125,4,2,1,45,0,0
48052,-100,4,2,0,60,0,1
68770,-100,4,2,0,60,0,0
80057,-125,4,2,1,45,0,0
84141,-125,4,2,2,45,0,0
87854,-125,4,2,1,45,0,0
88448,-125,4,2,2,45,0,0
97359,-125,4,2,1,45,0,0
97953,-133.333333333333,4,2,1,45,0,0
102706,-100,4,2,1,45,0,0
103894,-100,4,2,2,45,0,0
111171,-100,4,2,7,45,0,0
112211,-100,4,2,1,45,0,1
113399,-100,4,2,2,45,0,1
116666,-100,4,2,1,45,0,1
118151,-100,4,2,2,45,0,1
122900,-100,4,2,1,45,0,1
123349,-100,4,2,2,45,0,1
132928,-100,4,2,1,45,0,0
133597,-100,4,2,2,45,0,0
183498,-100,4,2,1,45,0,1
203844,-100,4,3,1,45,0,0
204884,-100,4,2,1,45,0,0

[Colours]
Combo1 : 255,0,204
Combo2 : 39,231,124
Combo3 : 232,139,0
Combo4 : 1,197,254
Combo5 : 170,201,48

[HitObjects]
408,88,528,6,0,B|364:76|364:76|308:96,2,90,0|0|2,0:0|0:0|0:0,0:0:0:0:
408,88,973,2,0,L|392:272,1,180
118,89,1419,1,2,0:0:0:0:
203,91,1567,6,0,B|162:77|162:77|118:89,1,90
206,177,1864,2,0,B|218:133|218:133|203:91,1,90,0|2,0:0|0:0,0:0:0:0:
88,204,2161,2,0,L|272:168,1,180
396,144,2607,1,2,0:0:0:0:
396,144,2755,1,0,0:0:0:0:
396,144,2904,6,0,B|372:108|372:108|392:40,2,90,0|0|2,0:0|0:0|0:0,0:0:0:0:
396,144,3349,2,0,P|448:236|396:316,1,180
340,232,3795,1,2,0:0:0:0:
284,320,3943,2,0,P|232:228|284:148,1,180
200,44,4389,2,8,P|216:88|160:128,1,90,10|8,0:0|0:0,0:0:0:0:
68,172,4686,2,0,L|200:224,1,135,8|0,0:0|0:0,0:0:0:0:
193,221,4983,2,0,B|260:248|260:248|324:220,1,135,2|0,0:0|0:0,0:0:0:0:
443,173,5280,6,0,B|317:224|317:224|300:176,1,180,8|0,0:0|0:0,0:0:0:0:
320,92,5726,2,0,B|276:80|276:80|240:36,2,90,8|0|0,0:0|0:0|0:0,0:0:0:0:
443,173,6171,1,8,0:0:0:0:
248,168,6320,1,0,0:0:0:0:
443,173,6468,6,0,B|317:224|317:224|340:284,1,180,8|0,0:0|0:0,0:0:0:0:
333,266,6839,1,0,0:0:0:0:
333,266,6914,2,0,B|312:320|312:320|200:344|200:344|128:232,1,270,8|0,0:0|0:0,0:0:0:0:
244,216,7508,1,0,0:0:0:0:
244,216,7656,6,0,B|264:148|264:148|132:128,1,180,8|0,0:0|0:0,0:0:0:0:
48,148,8102,2,0,L|80:20,2,90,8|0|0,0:0|0:0|0:0,0:0:0:0:
120,324,8547,1,8,0:0:0:0:
36,256,8696,1,0,0:0:0:0:
48,148,8844,1,8,0:0:0:0:
172,40,8993,5,8,0:0:0:0:
172,40,9067,1,8,0:0:0:0:
172,40,9141,1,8,0:0:0:0:
256,108,9290,1,8,0:0:0:0:
244,216,9438,1,8,0:0:0:0:
236,232,9513,1,0,0:0:0:0:
228,248,9587,1,8,0:0:0:0:
220,264,9661,1,0,0:0:0:0:
244,280,9735,1,8,0:0:0:0:
268,292,9810,1,0,0:0:0:0:
296,296,9884,1,8,0:0:0:0:
324,292,9958,1,0,0:0:0:0:
348,284,10032,6,0,B|408:292|408:292|384:232|424:144,1,180,8|0,0:0|0:0,0:0:0:0:
376,72,10478,2,0,P|412:64|492:108,2,90,8|0|0,0:0|0:0|0:0,0:0:0:0:
348,284,10924,1,8,0:0:0:0:
344,176,11072,1,0,0:0:0:0:
452,120,11221,6,0,P|404:88|248:80,1,180,8|0,0:0|0:0,0:0:0:0:
320,152,11666,2,0,P|228:168|176:104,1,180,8|0,0:0|0:0,0:0:0:0:
400,192,12112,2,0,P|392:244|328:256,1,90,8|0,0:0|0:0,0:0:0:0:
276,328,12409,6,0,L|112:232,1,180,8|0,0:0|0:0,0:0:0:0:
120,237,12854,2,0,L|285:142,1,180,8|0,0:0|0:0,0:0:0:0:
276,147,13300,2,0,L|276:272,1,90,8|0,0:0|0:0,0:0:0:0:
120,96,14191,6,0,L|24:80,2,72,0|0|0,0:3|0:3|0:3,0:3:0:0:
120,96,14562,1,0,0:3:0:0:
120,96,14636,1,0,0:3:0:0:
120,96,14711,1,0,0:3:0:0:
120,96,14785,2,0,P|188:112|288:76,1,144,4|0,0:3|0:3,0:3:0:0:
304,28,15230,2,0,P|336:72|308:160,1,144,4|0,0:3|0:3,0:3:0:0:
472,204,15676,1,0,0:3:0:0:
380,144,15825,1,0,0:3:0:0:
284,196,15973,1,4,0:3:0:0:
340,288,16122,5,0,0:3:0:0:
340,288,16196,1,0,0:3:0:0:
340,288,16270,2,0,P|384:296|424:264,1,72,0|4,0:3|0:3,0:3:0:0:
472,204,16567,1,0,0:3:0:0:
380,144,16716,1,0,0:3:0:0:
284,196,16864,1,0,0:3:0:0:
268,88,17013,1,0,0:3:0:0:
380,144,17161,6,0,L|216:152,1,144,4|0,0:3|0:3,0:3:0:0:
236,151,17607,2,0,P|196:84|124:88,1,144,4|0,0:3|0:3,0:3:0:0:
56,156,18052,2,0,P|56:200|100:224,1,72,0|0,0:3|0:3,0:3:0:0:
74,218,18275,1,0,0:3:0:0:
74,218,18349,2,0,L|172:216,1,72,4|0,0:3|0:3,0:3:0:0:
204,60,18646,2,0,B|188:108|188:108|200:152,1,72,4|0,0:3|0:3,0:3:0:0:
308,60,18943,2,0,B|324:108|324:108|312:152,1,72,4|0,0:3|0:3,0:3:0:0:
437,218,19240,2,0,L|340:216,1,72,0|0,0:3|0:3,0:3:0:0:
365,216,19463,5,0,0:3:0:0:
365,216,19537,2,0,B|364:232|364:232|228:224,1,144,4|0,0:3|0:3,0:3:0:0:
116,216,19983,1,4,0:3:0:0:
260,332,20131,1,0,0:3:0:0:
244,88,20280,2,0,B|272:76|272:76|328:88,2,72,0|0|0,0:3|0:3|0:3,0:3:0:0:
260,332,20726,2,0,B|264:256|264:256|228:180,1,144,4|0,0:3|0:3,0:3:0:0:
234,194,21097,1,0,0:3:0:0:
234,194,21171,2,0,B|272:176|304:280|328:172|396:204,1,144,4|0,0:3|0:3,0:3:0:0:
368,198,21542,1,0,0:3:0:0:
368,198,21617,1,0,0:3:0:0:
460,76,21765,1,0,0:3:0:0:
460,76,21914,6,0,L|356:84,1,72,4|0,0:3|0:3,0:3:0:0:
376,92,22136,2,0,L|308:96,1,36,0|0,0:3|0:3,0:3:0:0:
100,68,22359,2,0,P|136:64|180:88,1,72,4|0,0:3|0:3,0:3:0:0:
300,128,22656,2,0,P|264:133|227:168,1,72,0|0,0:3|0:3,0:3:0:0:
72,200,22953,1,0,0:3:0:0:
72,200,23102,2,0,L|172:224,1,72,4|0,0:3|0:3,0:3:0:0:
156,272,23325,1,0,0:3:0:0:
156,272,23399,2,0,P|188:260|240:288,1,72,4|0,0:3|0:3,0:3:0:0:
252,320,23622,1,0,0:3:0:0:
252,320,23696,5,4,0:3:0:0:
382,221,23844,1,0,0:3:0:0:
268,205,23993,1,0,0:3:0:0:
366,336,24141,1,0,0:3:0:0:
484,240,24290,2,0,B|484:192|484:192|460:144|396:136,1,144,4|0,0:3|0:3,0:3:0:0:
384,56,24735,2,0,P|324:100|344:188,1,144,4|0,0:3|0:3,0:3:0:0:
480,132,25181,1,0,0:3:0:0:
392,204,25329,1,0,0:3:0:0:
280,176,25478,1,4,0:3:0:0:
296,60,25627,5,0,0:3:0:0:
296,60,25701,1,0,0:3:0:0:
296,60,25775,2,0,B|332:52|332:52|392:68,1,72,0|4,0:3|0:3,0:3:0:0:
480,132,26072,1,0,0:3:0:0:
392,204,26221,1,0,0:3:0:0:
280,176,26369,1,0,0:3:0:0:
296,292,26518,1,0,0:3:0:0:
388,260,26666,6,0,P|348:236|236:260,1,144,4|0,0:3|0:3,0:3:0:0:
160,344,27112,2,0,L|88:236,1,108,4|0,0:3|0:3,0:3:0:0:
100,254,27409,2,0,P|112:204|172:196,1,108,0|0,0:3|0:3,0:3:0:0:
236,192,27706,1,0,0:3:0:0:
236,192,27854,6,0,L|236:92,1,72,4|0,0:3|0:3,0:3:0:0:
88,92,28151,2,0,B|124:84|124:84|180:92,1,72,4|0,0:3|0:3,0:3:0:0:
424,92,28448,2,0,B|388:84|388:84|332:92,1,72,4|0,0:3|0:3,0:3:0:0:
276,192,28745,2,0,L|276:92,1,72,4|0,0:3|0:3,0:3:0:0:
276,120,28968,5,0,0:3:0:0:
276,120,29042,2,0,B|292:124|292:124|152:100,1,144,4|0,0:3|0:3,0:3:0:0:
68,88,29488,1,4,0:3:0:0:
148,192,29636,1,0,0:3:0:0:
96,312,29785,2,0,B|64:288|64:288|36:232,2,72,0|0|0,0:3|0:3|0:3,0:3:0:0:
348,316,30230,2,0,B|300:296|300:296|188:304,1,144,4|0,0:3|0:3,0:3:0:0:
208,302,30602,1,0,0:3:0:0:
208,302,30676,2,0,L|208:136,1,144,4|0,0:3|0:3,0:3:0:0:
208,158,31047,1,0,0:3:0:0:
208,158,31122,1,0,0:3:0:0:
208,36,31270,1,0,0:3:0:0:
208,36,31419,6,0,P|152:28|132:64,1,72,4|0,0:3|0:3,0:3:0:0:
132,44,31641,2,0,L|96:93,1,36,0|0,0:3|0:3,0:3:0:0:
96,292,31864,2,0,L|80:200,1,72,4|0,0:3|0:3,0:3:0:0:
184,104,32161,2,0,L|171:174,1,72,0|0,0:3|0:3,0:3:0:0:
236,308,32458,1,0,0:3:0:0:
236,308,32607,6,0,B|276:304|276:304|292:248,1,72,4|0,0:3|0:3,0:3:0:0:
280,220,32829,1,0,0:3:0:0:
280,220,32904,2,0,B|328:200|328:200|360:240,1,72,4|0,0:3|0:3,0:3:0:0:
364,264,33127,1,0,0:3:0:0:
364,264,33201,1,4,0:3:0:0:
388,112,33349,1,0,0:3:0:0:
460,248,33498,2,0,L|424:180,1,72,2|0,0:3|0:3,0:3:0:0:
388,112,33795,6,0,P|340:80|216:88,2,161.999995056153
124,272,34983,2,0,P|172:304|232:312,1,107.999996704102
256,288,35428,2,0,L|256:352,1,53.9999983520508
256,100,35874,2,0,L|256:36,1,53.9999983520508
256,196,36171,6,0,L|256:32,2,161.999995056153,4|0|0,0:0|0:0|0:0,0:0:0:0:
256,316,37359,2,0,L|256:80,1,215.999993408203
444,108,38250,6,0,P|416:96|344:104,1,72,2|0,0:0|0:0,0:0:0:0:
288,32,38547,2,0,P|272:100|320:188,1,144,4|0,0:3|0:3,0:3:0:0:
352,260,38993,2,0,P|356:312|324:344,2,72,4|0|0,0:3|0:3|0:3,0:3:0:0:
412,172,39438,2,0,B|376:160|376:160|312:172,1,72,8|0,0:3|0:3,0:3:0:0:
342,166,39661,1,0,0:3:0:0:
342,166,39735,2,0,L|164:168,1,144,4|0,0:3|0:3,0:3:0:0:
232,256,40181,2,0,P|248:296|232:328,1,72,4|0,0:3|0:3,0:3:0:0:
152,88,40478,2,0,P|136:48|152:16,2,72,0|8|0,0:3|0:3|0:3,0:3:0:0:
152,88,40849,5,0,0:3:0:0:
152,88,40924,2,0,L|296:88,1,144,4|0,0:3|0:3,0:3:0:0:
388,196,41369,1,4,0:3:0:0:
388,196,41518,1,0,0:3:0:0:
388,196,41666,1,0,0:3:0:0:
388,196,41815,2,0,B|320:220|320:220|224:192,1,144,8|4,0:3|0:3,0:3:0:0:
104,272,42260,2,0,B|140:264|140:264|204:280,2,72,0|0|4,0:3|0:3|0:3,0:3:0:0:
104,272,42631,5,0,0:3:0:0:
104,272,42706,2,0,L|76:176,1,72,0|0,0:3|0:3,0:3:0:0:
84,128,43003,2,0,L|104:58,1,72,8|0,0:3|0:3,0:3:0:0:
407,58,43300,6,0,L|428:128,1,72,4|0,0:3|0:3,0:3:0:0:
407,326,43597,2,0,L|428:256,1,72,0|4,0:3|0:3,0:3:0:0:
252,112,43894,2,0,B|292:116|292:116|332:164,1,72,0|0,0:3|0:3,0:3:0:0:
252,272,44191,2,0,B|292:268|292:268|332:220,1,72,8|0,0:3|0:3,0:3:0:0:
408,192,44488,2,0,L|504:192,2,72,4|0|0,0:3|0:3|0:3,0:3:0:0:
320,192,44933,1,4,0:3:0:0:
252,112,45082,5,0,0:3:0:0:
252,272,45230,1,0,0:3:0:0:
140,52,45379,1,8,0:3:0:0:
140,332,45528,1,0,0:3:0:0:
40,192,45676,5,6,0:3:0:0:
472,192,45973,5,6,0:3:0:0:
176,192,46270,5,6,0:3:0:0:
336,192,46567,5,6,0:3:0:0:
124,344,46864,5,0,0:0:0:0:
124,328,46938,1,0,0:0:0:0:
124,308,47013,1,0,0:0:0:0:
124,292,47087,1,0,0:0:0:0:
108,280,47161,5,8,0:0:0:0:
108,264,47235,1,0,0:0:0:0:
108,244,47310,1,8,0:0:0:0:
108,228,47384,1,0,0:0:0:0:
96,212,47458,5,8,0:0:0:0:
96,196,47532,1,0,0:0:0:0:
96,176,47607,1,0,0:0:0:0:
96,160,47681,1,0,0:0:0:0:
84,148,47755,5,0,0:0:0:0:
84,132,47829,1,0,0:0:0:0:
84,112,47904,1,0,0:0:0:0:
84,96,47978,1,0,0:0:0:0:
72,84,48052,6,0,B|156:52|156:52|256:80,1,180,4|0,0:3|0:3,0:3:0:0:
372,112,48498,1,4,0:3:0:0:
419,229,48646,1,0,0:3:0:0:
295,212,48795,1,0,0:3:0:0:
372,112,48943,1,8,0:1:0:0:
372,112,49092,1,0,0:3:0:0:
419,229,49240,1,4,0:3:0:0:
352,312,49389,5,0,0:3:0:0:
236,312,49537,1,0,0:3:0:0:
184,196,49686,1,4,0:3:0:0:
316,212,49834,2,0,B|328:172|328:172|296:124,1,90,0|0,0:3|0:3,0:3:0:0:
316,212,50131,2,0,P|284:236|212:244,1,90,8|0,0:1|0:3,0:3:0:0:
235,246,50428,2,0,B|136:248|136:248|100:272|56:240,1,180,4|0,0:3|0:3,0:3:0:0:
92,148,50874,1,4,0:3:0:0:
92,148,51023,2,0,P|76:112|96:56,1,90,0|0,0:3|0:3,0:3:0:0:
232,24,51320,2,0,P|248:60|228:116,1,90,8|0,0:1|0:3,0:3:0:0:
140,76,51617,5,4,0:3:0:0:
168,76,51691,1,0,0:3:0:0:
196,76,51765,1,0,0:3:0:0:
224,76,51839,1,0,0:3:0:0:
252,76,51914,1,6,0:3:0:0:
252,76,51988,1,0,0:3:0:0:
252,76,52062,1,0,0:3:0:0:
252,76,52136,1,0,0:3:0:0:
252,76,52211,1,4,0:3:0:0:
280,76,52285,1,0,0:3:0:0:
308,76,52359,1,0,0:3:0:0:
336,76,52433,1,0,0:3:0:0:
364,76,52508,1,6,0:3:0:0:
364,76,52582,1,0,0:3:0:0:
364,76,52656,1,0,0:3:0:0:
364,76,52730,1,0,0:3:0:0:
364,76,52805,6,0,P|412:152|332:232,1,180,4|0,0:3|0:3,0:3:0:0:
224,176,53250,2,0,L|324:152,1,90,4|0,0:3|0:3,0:3:0:0:
312,336,53547,2,0,L|284:228,2,90,0|8|0,0:3|0:1|0:3,0:3:0:0:
312,336,53919,1,0,0:3:0:0:
312,336,53993,2,0,P|280:324|196:336,1,90,4|0,0:3|0:3,0:3:0:0:
136,344,54290,2,0,P|104:336|56:264,1,90,0|4,0:3|0:3,0:3:0:0:
224,324,54587,2,0,L|192:200,1,90,0|0,0:3|0:3,0:3:0:0:
176,136,54884,2,0,P|196:112|140:84,1,90,8|0,0:1|0:3,0:3:0:0:
41,113,55181,5,4,0:3:0:0:
194,205,55329,1,0,0:3:0:0:
72,236,55478,1,0,0:3:0:0:
163,83,55627,1,4,0:3:0:0:
471,113,55775,1,0,0:3:0:0:
318,205,55924,1,0,0:3:0:0:
440,236,56072,1,8,0:1:0:0:
349,83,56221,1,0,0:3:0:0:
256,340,56369,5,12,0:3:0:0:
256,340,56443,1,0,0:3:0:0:
256,340,56518,1,0,0:3:0:0:
256,340,56592,1,0,0:3:0:0:
256,312,56666,1,4,0:3:0:0:
256,284,56740,1,0,0:3:0:0:
256,256,56815,1,0,0:3:0:0:
256,228,56889,1,0,0:3:0:0:
256,200,56963,1,12,0:3:0:0:
256,200,57037,1,0,0:3:0:0:
256,200,57112,1,0,0:3:0:0:
256,200,57186,1,0,0:3:0:0:
256,172,57260,1,4,0:3:0:0:
256,144,57334,1,0,0:3:0:0:
256,116,57409,1,0,0:3:0:0:
256,88,57483,1,0,0:3:0:0:
256,60,57557,6,0,P|352:40|424:92,1,180,12|0,0:3|0:3,0:3:0:0:
496,148,58003,2,0,P|448:188|400:168,1,90,4|0,0:3|0:3,0:3:0:0:
320,152,58300,2,0,P|304:188|340:244,2,90,0|8|0,0:3|0:1|0:3,0:3:0:0:
388,68,58745,1,4,0:3:0:0:
288,28,58894,1,0,0:3:0:0:
180,28,59042,2,0,B|152:52|152:52|152:92|152:92|184:136,1,90,0|4,0:3|0:3,0:3:0:0:
204,184,59339,2,0,L|80:208,1,90,0|0,0:3|0:3,0:3:0:0:
115,201,59562,1,0,0:3:0:0:
115,201,59636,2,0,B|120:228|120:228|52:244,1,90,8|0,0:1|0:3,0:3:0:0:
59,242,59859,5,0,0:3:0:0:
59,242,59933,2,0,P|88:308|204:296,1,180,4|0,0:3|0:3,0:3:0:0:
452,242,60379,1,4,0:3:0:0:
452,242,60528,2,0,P|424:308|308:296,1,180,0|8,0:3|0:1,0:3:0:0:
252,188,60973,1,0,0:3:0:0:
120,156,61122,5,4,0:3:0:0:
120,156,61196,1,0,0:3:0:0:
120,156,61270,1,0,0:3:0:0:
256,72,61419,1,4,0:3:0:0:
256,72,61493,1,0,0:3:0:0:
256,72,61567,1,0,0:3:0:0:
392,156,61716,1,4,0:3:0:0:
392,156,61790,1,0,0:3:0:0:
392,156,61864,1,0,0:3:0:0:
252,278,62013,2,0,L|252:170,1,90,2|0,0:3|0:3,0:3:0:0:
256,72,62310,5,4,0:3:0:0:
256,72,62458,2,0,P|216:64|160:72,1,90,4|0,0:3|0:3,0:3:0:0:
344,74,62755,2,0,P|304:66|248:74,1,90,4|0,0:3|0:3,0:3:0:0:
432,76,63052,2,0,P|392:68|336:76,1,90,4|0,0:3|0:3,0:3:0:0:
167,69,63349,1,4,0:3:0:0:
167,69,63498,1,0,0:3:0:0:
256,192,63646,1,0,0:3:0:0:
256,192,63795,1,4,0:3:0:0:
345,315,63943,2,0,B|364:268|364:268|336:212,1,90,4|0,0:3|0:3,0:3:0:0:
167,69,64240,2,0,B|148:116|148:116|176:172,2,90,4|0|0,0:3|0:3|0:3,0:3:0:0:
380,112,64686,5,4,0:3:0:0:
380,112,64834,2,4,L|272:112,1,90,4|0,0:3|0:3,0:3:0:0:
216,154,65131,2,0,B|231:130|231:130|320:102,1,90,4|0,0:3|0:3,0:3:0:0:
142,196,65428,2,0,B|157:172|157:172|216:154|216:154|224:256,1,180,4|4,0:3|0:3,0:3:0:0:
232,320,65874,1,0,0:3:0:0:
232,320,66022,1,0,0:3:0:0:
344,280,66171,1,4,0:3:0:0:
344,280,66319,1,4,0:3:0:0:
456,240,66468,1,0,0:3:0:0:
456,240,66616,1,4,0:3:0:0:
456,240,66765,2,4,L|404:128,1,90,4|4,0:3|0:3,0:3:0:0:
400,44,67062,6,0,B|368:40|368:40|276:80,1,90,6|0,0:3|0:3,0:3:0:0:
315,63,67285,1,2,0:3:0:0:
315,63,67359,1,2,0:3:0:0:
315,63,67433,1,2,0:3:0:0:
315,63,67508,2,0,L|208:64,1,90,0|4,0:3|0:3,0:3:0:0:
72,152,67805,2,0,L|192:152,1,90,6|0,0:3|0:3,0:3:0:0:
276,180,68102,2,0,B|276:348|276:348|416:176,1,360,6|0,0:3|0:3,0:3:0:0:
397,199,68844,6,4,B|436:148|436:148|488:240,2,135,4|4|4,0:3|0:3|0:3,0:3:0:0:
397,199,69438,6,0,L|336:96,1,90,4|0,0:3|0:3,0:3:0:0:
408,52,69735,2,0,L|326:152,1,90,0|4,0:3|0:3,0:3:0:0:
248,228,70032,1,0,0:3:0:0:
396,164,70181,1,0,0:3:0:0:
248,228,70329,1,8,0:1:0:0:
396,240,70478,2,0,B|304:304|304:304|244:304,1,135,2|0,0:3|0:3,0:3:0:0:
281,304,70775,2,0,L|168:304,1,90,2|0,0:3|0:3,0:3:0:0:
88,332,71072,5,6,0:3:0:0:
28,200,71221,1,0,0:3:0:0:
172,212,71369,1,0,0:3:0:0:
96,252,71518,1,8,0:1:0:0:
108,108,71666,1,0,0:3:0:0:
108,108,71815,2,0,B|136:92|136:92|208:108,1,90,4|0,0:3|0:3,0:3:0:0:
195,19,72112,2,0,B|208:76|208:76|192:104,1,90,0|4,0:3|0:3,0:3:0:0:
156,196,72409,1,0,0:3:0:0:
240,76,72557,1,0,0:3:0:0:
156,196,72706,1,8,0:1:0:0:
312,80,72854,6,0,L|252:160,1,90,0|4,0:3|0:3,0:3:0:0:
258,152,73077,1,0,0:3:0:0:
258,152,73151,1,0,0:3:0:0:
404,156,73300,1,6,0:3:0:0:
404,156,73374,1,0,0:3:0:0:
404,156,73448,1,0,0:3:0:0:
404,300,73597,1,4,0:3:0:0:
404,300,73671,1,0,0:3:0:0:
404,300,73745,1,0,0:3:0:0:
260,300,73894,1,6,0:3:0:0:
260,300,73968,1,0,0:3:0:0:
260,300,74042,1,0,0:3:0:0:
336,192,74191,6,0,L|228:192,1,90,4|0,0:3|0:3,0:3:0:0:
310,142,74488,2,0,P|262:158|250:222,1,90,0|4,0:3|0:3,0:3:0:0:
276,276,74785,1,0,0:3:0:0:
188,296,74933,1,0,0:3:0:0:
116,244,75082,1,8,0:1:0:0:
84,328,75230,2,0,L|120:236,1,90,0|4,0:3|0:3,0:3:0:0:
116,244,75528,2,0,P|80:224|128:204,1,90,0|0,0:3|0:3,0:3:0:0:
102,193,75825,2,0,P|136:188|172:44,1,180,4|0,0:3|0:3,0:3:0:0:
324,68,76270,5,8,0:1:0:0:
324,68,76419,2,0,P|336:144|360:160,1,90,0|4,0:3|0:3,0:3:0:0:
428,132,76716,2,0,P|432:176|392:220,1,90,0|0,0:3|0:3,0:3:0:0:
464,280,77013,2,0,P|412:296|320:224,1,180,4|0,0:3|0:3,0:3:0:0:
256,316,77458,1,8,0:1:0:0:
220,196,77607,1,0,0:3:0:0:
256,76,77755,5,12,0:3:0:0:
288,196,77904,1,0,0:3:0:0:
288,196,77978,1,0,0:3:0:0:
288,196,78052,1,4,0:3:0:0:
160,192,78201,1,0,0:3:0:0:
36,188,78349,2,0,P|48:132|96:96,1,90,12|0,0:3|0:3,0:3:0:0:
160,52,78646,2,0,L|268:52,1,90,4|0,0:3|0:3,0:3:0:0:
360,52,78943,1,12,0:3:0:0:
104,292,80131,6,0,L|184:272,1,72,4|0,0:3|0:3,0:3:0:0:
408,292,80428,2,0,L|328:272,1,72,4|0,0:3|0:3,0:3:0:0:
136,144,80726,2,0,P|172:136|216:176,1,72,4|0,0:3|0:3,0:3:0:0:
376,144,81023,2,0,P|340:136|296:176,1,72,4|0,0:3|0:3,0:3:0:0:
256,220,81320,2,0,L|256:312,1,72,4|0,0:3|0:3,0:3:0:0:
408,92,82508,6,0,L|328:112,1,72,4|0,0:3|0:3,0:3:0:0:
104,92,82805,2,0,L|184:112,1,72,4|0,0:3|0:3,0:3:0:0:
376,240,83103,2,0,P|340:248|296:208,1,72,4|0,0:3|0:3,0:3:0:0:
136,240,83400,2,0,P|172:248|216:208,1,72,4|0,0:3|0:3,0:3:0:0:
256,164,83697,6,0,L|256:72,1,72,4|0,0:3|0:0,0:0:0:0:
256,8,83993,1,0,0:0:0:0:
376,8,84141,1,2,0:0:0:0:
376,92,84290,2,0,L|376:172,1,72,2|0,0:0|0:0,0:0:0:0:
256,236,84587,2,0,L|256:164,1,72,8|0,0:0|0:0,0:0:0:0:
136,92,84884,2,0,L|136:164,1,72,2|0,0:0|0:0,0:0:0:0:
136,340,85181,5,0,0:0:0:0:
336,288,85329,2,0,L|416:288,1,72,2|0,0:0|0:0,0:0:0:0:
256,236,85627,1,0,0:0:0:0:
176,288,85775,2,0,L|96:288,1,72,8|0,0:0|0:0,0:0:0:0:
256,340,86072,5,2,0:0:0:0:
256,192,86221,1,0,0:0:0:0:
336,288,86369,1,0,0:0:0:0:
416,236,86518,2,0,L|416:160,1,72,2|0,0:0|0:0,0:0:0:0:
216,48,86815,2,0,L|216:136,1,72,0|8,0:0|0:0,0:0:0:0:
336,196,87112,2,0,L|336:116,2,72,0|2|2,0:0|0:0|0:0,0:0:0:0:
336,288,87557,1,2,0:0:0:0:
416,236,87706,1,0,0:0:0:0:
256,160,87854,5,2,0:0:0:0:
256,176,87928,1,2,0:0:0:0:
256,196,88003,1,2,0:0:0:0:
256,212,88077,1,2,0:0:0:0:
256,228,88151,2,0,L|256:324,1,72,4|0,3:0|0:0,0:0:0:0:
416,336,88448,6,0,L|416:256,1,72,2|0,0:0|0:0,0:0:0:0:
416,136,88745,1,0,0:0:0:0:
496,288,88894,2,0,L|496:208,1,72,2|0,0:0|0:0,0:0:0:0:
496,88,89191,1,0,0:0:0:0:
344,24,89339,2,0,L|416:24,1,72,8|0,0:0|0:0,0:0:0:0:
344,184,89636,6,0,L|232:184,1,108,2|0,0:0|0:0,0:0:0:0:
208,184,89933,2,0,L|208:100,1,72,0|2,0:0|0:0,0:0:0:0:
208,24,90230,1,2,0:0:0:0:
208,24,90379,1,0,0:0:0:0:
344,24,90528,1,8,0:0:0:0:
344,184,90676,1,0,0:0:0:0:
208,184,90825,6,0,L|128:184,1,72,2|0,0:0|0:0,0:0:0:0:
16,184,91122,1,0,0:0:0:0:
68,100,91270,2,0,L|140:100,1,72,2|0,0:0|0:0,0:0:0:0:
276,100,91567,5,0,0:0:0:0:
344,24,91716,1,8,0:0:0:0:
344,184,91864,1,0,0:0:0:0:
208,184,92013,5,2,0:0:0:0:
412,100,92161,1,0,0:0:0:0:
208,24,92310,5,2,0:0:0:0:
412,100,92458,1,0,0:0:0:0:
276,100,92607,5,2,0:0:0:0:
344,184,92755,1,0,0:0:0:0:
412,100,92904,1,8,0:0:0:0:
344,24,93052,1,0,0:0:0:0:
136,100,93201,6,0,L|224:100,1,72,2|0,0:0|0:0,0:0:0:0:
412,100,93498,1,0,0:0:0:0:
412,100,93646,1,2,0:0:0:0:
476,184,93795,2,0,L|476:268,1,72
344,288,94092,2,0,L|344:208,1,72,8|0,0:0|0:0,0:0:0:0:
412,28,94389,6,0,L|412:108,1,72,2|0,0:0|0:0,0:0:0:0:
412,360,94686,1,0,0:0:0:0:
272,288,94834,2,0,L|352:288,1,72,2|0,0:0|0:0,0:0:0:0:
412,216,95131,1,0,0:0:0:0:
272,288,95280,2,0,L|200:288,1,72,8|0,0:0|0:0,0:0:0:0:
132,360,95577,5,2,0:0:0:0:
132,216,95726,1,0,0:0:0:0:
272,288,95874,1,0,0:0:0:0:
272,136,96023,1,2,0:0:0:0:
412,360,96171,5,0,0:0:0:0:
272,288,96320,1,0,0:0:0:0:
412,216,96468,1,8,0:0:0:0:
272,136,96617,1,0,0:0:0:0:
132,216,96765,6,0,L|132:324,1,108,2|0,0:0|0:0,0:0:0:0:
132,360,97062,2,0,L|216:360,1,72,2|0,0:0|0:0,0:0:0:0:
412,288,97359,1,2,0:0:0:0:
396,288,97433,1,2,0:0:0:0:
376,288,97508,1,2,0:0:0:0:
360,288,97582,1,2,0:0:0:0:
344,288,97656,2,0,L|248:288,1,72,8|0,3:0|0:0,0:0:0:0:
204,136,97953,6,0,L|348:136,1,135.000005149842,4|0,0:0|0:0,0:0:0:0:
400,216,98399,2,0,L|480:216,2,67.5000025749208,0|8|0,0:0|0:0|0:0,0:0:0:0:
360,320,98844,2,0,L|428:320,1,67.5000025749208
339,136,99141,6,0,L|204:136,1,135.000005149842,2|0,0:0|0:0,0:0:0:0:
148,216,99587,2,0,L|68:216,2,67.5000025749208,0|8|0,0:0|0:0|0:0,0:0:0:0:
184,320,100032,2,0,L|116:320,1,67.5000025749208
0,272,100329,6,0,L|0:137,1,135.000005149842,2|0,0:0|0:0,0:0:0:0:
148,20,100775,2,0,L|148:100,1,67.5000025749208,0|8,0:0|0:0,0:0:0:0:
148,352,101072,1,0,0:0:0:0:
332,316,101221,2,0,L|332:240,1,67.5000025749208,2|0,0:0|0:0,0:0:0:0:
408,148,101518,2,0,L|408:308,1,135.000005149842,8|0,3:0|0:0,0:0:0:0:
408,284,102112,1,2,0:0:0:0:
256,352,102409,5,0,0:0:0:0:
256,188,102557,1,0,0:0:0:0:
408,284,102706,2,0,L|408:192,1,90,8|0,0:0|0:0,0:0:0:0:
408,80,103003,1,0,0:0:0:0:
488,216,103151,2,0,L|488:120,1,90,8|0,0:0|0:0,0:0:0:0:
408,80,103448,1,0,0:0:0:0:
328,172,103597,2,0,L|328:264,1,90,2|0,0:0|0:0,0:0:0:0:
488,306,103894,6,0,L|488:206,1,90,2|0,0:0|0:0,0:0:0:0:
488,126,104191,1,0,0:0:0:0:
408,80,104339,1,2,0:0:0:0:
408,80,104414,1,0,0:0:0:0:
408,80,104488,1,0,0:0:0:0:
488,126,104636,1,2,0:0:0:0:
408,172,104785,2,0,L|308:172,1,90,8|0,0:0|0:0,0:0:0:0:
168,308,105082,6,0,L|380:308,1,180,2|0,0:0|0:0,0:0:0:0:
488,224,105527,2,0,L|308:224,1,180,2|0,0:0|0:0,0:0:0:0:
168,224,105973,2,0,L|168:132,1,90,2|0,0:0|0:0,0:0:0:0:
308,56,106270,2,0,L|308:146,1,90,2|0,0:0|0:0,0:0:0:0:
188,252,106567,2,0,L|188:160,1,90,8|0,0:0|0:0,0:0:0:0:
328,80,106864,2,0,L|328:170,1,90,2|2,0:0|0:0,0:0:0:0:
328,252,107161,1,0,0:0:0:0:
256,212,107310,1,0,0:0:0:0:
328,170,107458,6,0,L|424:170,1,90,6|0,0:0|0:0,0:0:0:0:
188,88,107755,2,0,L|98:88,1,90,0|2,0:0|0:0,0:0:0:0:
12,252,108052,2,0,L|120:252,1,90
328,252,108349,1,0,0:0:0:0:
188,252,108498,1,0,0:0:0:0:
188,88,108646,5,2,0:0:0:0:
328,168,108795,1,0,0:0:0:0:
188,252,108943,5,0,0:0:0:0:
328,168,109092,1,2,0:0:0:0:
144,168,109240,5,0,0:0:0:0:
256,48,109389,1,0,0:0:0:0:
368,168,109537,1,8,3:0:0:0:
256,296,109686,1,2,0:0:0:0:
100,168,109834,6,0,L|272:168,1,135,2|0,1:0|0:0,0:0:0:0:
256,168,110131,2,0,L|256:56,1,90,2|0,1:0|0:0,0:0:0:0:
428,48,110428,2,0,L|428:138,1,90,2|0,1:0|0:0,0:0:0:0:
428,352,110726,1,2,1:0:0:0:
428,352,111171,5,8,0:0:0:0:
428,352,111245,1,8,0:0:0:0:
428,352,111320,1,8,0:0:0:0:
492,288,111468,1,8,1:3:0:0:
428,220,111617,2,0,L|332:220,1,90,4|0,3:0|0:0,0:0:0:0:
248,136,111914,2,0,L|368:136,1,90,2|8,3:0|0:0,0:0:0:0:
496,52,112211,6,0,L|352:52,1,135,6|0,0:0|0:0,0:0:0:0:
340,52,112508,1,0,0:0:0:0:
160,224,112656,2,0,L|160:132,1,90,6|0,0:0|0:0,0:0:0:0:
204,56,112953,1,0,0:0:0:0:
248,136,113102,2,0,L|248:228,1,90,10|0,0:0|0:0,0:0:0:0:
248,256,113325,5,0,0:0:0:0:
248,256,113399,1,2,0:0:0:0:
328,196,113547,1,0,0:0:0:0:
172,196,113696,2,0,L|68:196,1,90,0|2,0:0|0:0,0:0:0:0:
16,320,113993,2,0,L|124:320,1,90
248,360,114290,2,0,L|248:256,1,90,8|0,0:0|0:0,0:0:0:0:
328,56,114587,6,0,L|172:56,1,135,2|0,0:0|0:0,0:0:0:0:
172,56,114884,1,0,0:0:0:0:
172,196,115032,1,2,0:0:0:0:
328,196,115181,1,0,0:0:0:0:
248,136,115329,1,0,0:0:0:0:
248,256,115478,5,8,0:0:0:0:
348,196,115627,1,0,0:0:0:0:
152,196,115775,5,2,0:0:0:0:
328,56,115924,1,0,0:0:0:0:
348,196,116072,5,2,0:0:0:0:
172,56,116221,1,0,0:0:0:0:
248,256,116369,5,2,0:0:0:0:
252,144,116518,1,0,0:0:0:0:
252,144,116592,1,0,0:0:0:0:
252,144,116666,2,0,L|252:40,1,90,12|0,0:0|0:0,0:0:0:0:
348,196,116963,2,0,L|444:196,1,90,4|0,0:0|0:0,0:0:0:0:
248,256,117260,1,0,0:0:0:0:
152,196,117409,2,0,L|52:196,1,90,2|0,0:0|0:0,0:0:0:0:
248,136,117706,5,0,0:0:0:0:
248,256,117854,2,0,L|248:352,1,90,8|0,0:0|0:0,0:0:0:0:
248,346,118077,1,0,0:0:0:0:
248,346,118151,1,2,0:0:0:0:
152,300,118300,1,0,0:0:0:0:
152,196,118448,2,0,L|152:100,1,90,0|2,0:0|0:0,0:0:0:0:
348,196,118745,2,0,L|348:316,1,90
248,346,119042,2,0,L|248:246,1,90,8|0,0:0|0:0,0:0:0:0:
444,136,119339,6,0,L|444:292,1,135,2|0,0:0|0:0,0:0:0:0:
444,288,119636,2,0,L|348:288,1,90,0|2,0:0|0:0,0:0:0:0:
258,196,119933,2,0,L|354:196,1,90
256,344,120230,2,0,L|152:344,1,90,8|0,0:0|0:0,0:0:0:0:
56,264,120527,6,0,L|216:264,1,135,6|0,1:0|0:0,0:0:0:0:
191,129,120825,6,0,L|191:269,1,135,6|0,1:0|0:0,0:0:0:0:
191,264,121122,6,0,L|335:264,1,135,6|0,1:0|0:0,0:0:0:0:
326,129,121419,6,0,L|326:293,1,135,6|0,1:0|0:0,0:0:0:0:
326,264,121716,6,0,L|472:264,1,135,6|0,0:0|0:0,0:0:0:0:
461,264,122013,1,0,0:0:0:0:
388,86,122161,6,0,L|388:176,1,90,6|0,0:0|0:0,0:0:0:0:
392,352,122458,1,0,0:0:0:0:
472,264,122607,2,0,L|472:174,1,90,8|0,0:0|0:0,0:0:0:0:
472,128,122829,5,0,0:0:0:0:
472,128,122904,1,10,0:0:0:0:
302,129,123052,1,0,0:0:0:0:
392,352,123201,1,0,0:0:0:0:
472,264,123349,1,2,0:0:0:0:
392,208,123498,2,0,L|288:208,1,90
208,312,123795,2,0,L|324:312,1,90,8|0,0:0|0:0,0:0:0:0:
472,264,124092,6,0,L|472:148,1,90,2|0,0:0|0:0,0:0:0:0:
472,80,124389,1,0,0:0:0:0:
392,208,124537,1,2,0:0:0:0:
302,129,124686,2,0,L|302:39,1,90
184,72,124983,2,0,L|184:172,1,90,8|0,0:0|0:0,0:0:0:0:
184,348,125280,5,2,0:0:0:0:
80,240,125428,1,0,0:0:0:0:
184,348,125577,1,2,0:0:0:0:
256,192,125726,1,0,0:0:0:0:
184,348,125874,1,0,0:0:0:0:
108,144,126023,1,2,0:0:0:0:
108,144,126097,1,0,0:0:0:0:
108,144,126171,1,8,0:0:0:0:
80,240,126320,1,0,0:0:0:0:
304,344,126468,6,0,L|416:344,1,90,2|0,0:0|0:0,0:0:0:0:
392,240,126765,1,0,0:0:0:0:
216,240,126914,2,0,L|124:240,1,90,2|0,0:0|0:0,0:0:0:0:
32,240,127211,1,0,0:0:0:0:
216,240,127359,2,0,L|312:240,1,90,8|0,0:0|0:0,0:0:0:0:
392,240,127656,5,2,0:0:0:0:
304,144,127805,1,0,0:0:0:0:
304,344,127953,1,0,0:0:0:0:
126,240,128102,2,0,L|226:240,1,90,2|0,0:0|0:0,0:0:0:0:
392,240,128399,1,0,0:0:0:0:
304,144,128547,2,0,L|200:144,1,90,8|0,0:0|0:0,0:0:0:0:
64,48,128844,6,0,L|180:48,1,90,2|0,0:0|0:0,0:0:0:0:
256,244,129141,1,0,0:0:0:0:
448,48,129290,2,0,L|332:48,1,90,2|0,0:0|0:0,0:0:0:0:
256,48,129587,5,0,0:0:0:0:
156,144,129735,1,8,0:0:0:0:
356,144,129884,1,0,0:0:0:0:
256,244,130032,5,2,0:0:0:0:
176,64,130181,1,0,0:0:0:0:
256,244,130329,1,2,0:0:0:0:
336,64,130478,1,0,0:0:0:0:
256,360,130627,5,2,0:0:0:0:
88,192,130775,1,0,0:0:0:0:
256,48,130924,1,8,0:0:0:0:
420,192,131072,1,0,0:0:0:0:
256,192,131221,5,8,3:0:0:0:
256,48,131369,1,0,0:0:0:0:
256,48,131443,1,0,0:0:0:0:
256,48,131518,1,0,0:0:0:0:
156,272,131666,6,0,L|66:272,1,90,6|0,0:0|0:0,0:0:0:0:
356,112,131963,2,0,L|446:112,1,90,4|0,0:0|0:0,0:0:0:0:
256,48,132260,6,0,B|256:72|256:72|252:76|252:76|260:76|260:76|260:80|260:80|252:80|252:80|260:84|260:84|252:84|252:84|256:88|256:88|256:200,1,180,6|0,0:0|0:0,0:0:0:0:
256,364,132706,2,0,L|256:264,1,90,0|2,0:0|0:0,0:0:0:0:
158,192,133003,1,8,0:0:0:0:
354,192,133151,1,0,0:0:0:0:
256,48,133300,2,0,L|256:144,1,90
256,244,133597,5,2,0:0:0:0:
256,138,133745,1,0,0:0:0:0:
354,192,133894,1,0,0:0:0:0:
352,84,134042,1,2,0:0:0:0:
444,192,134191,2,0,L|350:192,1,90
158,192,134488,1,8,0:0:0:0:
158,192,134636,1,0,0:0:0:0:
256,340,134785,6,0,L|440:340,1,180,2|0,0:0|0:0,0:0:0:0:
256,48,135230,2,0,L|72:48,1,180,2|0,0:0|0:0,0:0:0:0:
28,192,135676,2,0,L|132:192,1,90,8|0,0:0|0:0,0:0:0:0:
256,340,135973,6,0,L|152:340,1,90,2|0,0:0|0:0,0:0:0:0:
28,340,136270,1,0,0:0:0:0:
28,192,136419,2,0,L|28:56,1,135,2|0,0:0|0:0,0:0:0:0:
28,32,136716,2,0,L|132:32,1,90,0|8,0:0|0:0,0:0:0:0:
256,32,137013,1,0,0:0:0:0:
348,192,137161,6,0,L|240:192,1,90,2|0,0:0|0:0,0:0:0:0:
96,264,137458,2,0,L|200:264,1,90,2|0,0:0|0:0,0:0:0:0:
256,112,137755,2,0,L|152:112,1,90,2|0,0:0|0:0,0:0:0:0:
4,344,138052,2,0,L|160:344,1,135,8|0,3:0|0:0,0:0:0:0:
172,344,138349,6,0,L|172:244,1,90,10|0,0:0|0:0,0:0:0:0:
172,112,138646,1,0,0:0:0:0:
96,264,138795,2,0,L|96:168,1,90,8|0,0:0|0:0,0:0:0:0:
256,112,139092,1,0,0:0:0:0:
336,160,139240,2,0,L|336:56,1,90,2|0,0:0|0:0,0:0:0:0:
420,256,139537,6,0,L|288:256,1,90,2|0,0:0|0:0,0:0:0:0:
256,256,139834,1,0,0:0:0:0:
92,344,139983,2,0,L|208:344,1,90,2|0,0:0|0:0,0:0:0:0:
256,344,140280,1,0,0:0:0:0:
256,256,140428,2,0,L|256:152,1,90,8|0,0:0|0:0,0:0:0:0:
256,52,140726,5,8,0:0:0:0:
168,192,140874,1,0,0:0:0:0:
168,192,141023,1,0,0:0:0:0:
344,192,141171,5,8,0:0:0:0:
256,52,141320,1,0,0:0:0:0:
256,52,141469,1,0,0:0:0:0:
256,256,141617,2,0,L|256:346,1,90,8|0,3:0|0:0,0:0:0:0:
452,296,141914,6,0,L|452:161,1,135,6|0,1:0|0:0,0:0:0:0:
452,129,142211,2,0,L|348:129,1,90,2|0,1:0|0:0,0:0:0:0:
192,348,142508,6,0,L|336:348,1,135,6|0,1:0|0:0,0:0:0:0:
360,348,142805,2,0,L|360:258,1,90,2|0,1:0|0:0,0:0:0:0:
112,320,143102,5,4,0:0:0:0:
52,252,143250,1,0,0:0:0:0:
104,180,143399,1,0,0:0:0:0:
28,128,143547,1,0,0:0:0:0:
84,56,143696,1,0,0:0:0:0:
204,136,143844,5,0,0:0:0:0:
296,100,143993,1,8,0:0:0:0:
372,164,144141,1,0,0:0:0:0:
492,28,144290,5,4,0:0:0:0:
144,216,144586,1,0,0:0:0:0:
156,304,144735,1,0,0:0:0:0:
412,352,145032,5,10,0:0:0:0:
396,264,145181,1,0,0:0:0:0:
468,212,145329,1,0,0:0:0:0:
484,300,145478,1,4,0:0:0:0:
452,124,145775,5,0,0:0:0:0:
374,170,145924,1,8,0:0:0:0:
284,152,146072,1,0,0:0:0:0:
196,132,146221,1,0,0:0:0:0:
108,112,146369,1,0,0:0:0:0:
30,158,146518,1,8,0:0:0:0:
30,158,146666,5,12,0:0:0:0:
120,196,146815,1,2,0:0:0:0:
196,132,146963,1,8,0:0:0:0:
292,212,147112,1,10,0:0:0:0:
288,192,147186,1,0,0:0:0:0:
284,168,147260,1,8,0:0:0:0:
456,192,147409,5,8,0:0:0:0:
416,272,147557,1,0,0:0:0:0:
476,336,147706,1,2,0:0:0:0:
264,308,147854,5,12,0:0:0:0:
264,308,147928,1,0,0:0:0:0:
264,308,148003,1,0,0:0:0:0:
264,308,148151,1,8,0:0:0:0:
248,220,148300,1,4,0:0:0:0:
160,236,148448,1,0,0:0:0:0:
176,324,148597,1,0,0:0:0:0:
212,268,148745,1,8,0:0:0:0:
212,268,148894,1,4,0:0:0:0:
352,280,149042,5,4,0:0:0:0:
352,280,149116,1,0,0:0:0:0:
352,280,149191,1,0,0:0:0:0:
352,280,149339,1,8,0:0:0:0:
370,376,149488,1,4,0:0:0:0:
466,359,149636,1,0,0:0:0:0:
449,262,149785,1,0,0:0:0:0:
409,324,149933,1,8,0:0:0:0:
409,324,150082,1,0,0:0:0:0:
312,140,150230,5,4,0:0:0:0:
312,140,150305,1,0,0:0:0:0:
312,140,150379,1,0,0:0:0:0:
312,140,150528,1,8,0:0:0:0:
207,160,150676,1,4,0:0:0:0:
226,266,150824,1,0,0:0:0:0:
332,247,150973,1,0,0:0:0:0:
264,203,151121,1,8,0:0:0:0:
264,203,151270,1,0,0:0:0:0:
108,364,151419,5,4,0:0:0:0:
108,364,151493,1,0,0:0:0:0:
108,364,151567,1,0,0:0:0:0:
108,364,151716,1,0,0:0:0:0:
224,343,151864,1,4,0:0:0:0:
203,226,152013,1,0,0:0:0:0:
87,247,152161,1,0,0:0:0:0:
161,295,152310,1,8,0:0:0:0:
161,295,152458,1,0,0:0:0:0:
24,176,152607,5,4,0:0:0:0:
24,176,152681,1,0,0:0:0:0:
24,176,152756,1,0,0:0:0:0:
24,176,152904,1,8,0:0:0:0:
48,49,153052,1,4,0:0:0:0:
176,72,153201,1,0,0:0:0:0:
153,200,153350,1,0,0:0:0:0:
100,118,153498,1,8,0:0:0:0:
100,118,153646,1,0,0:0:0:0:
85,260,153795,5,4,0:0:0:0:
85,260,154092,5,0,0:0:0:0:
153,200,154240,1,8,0:0:0:0:
237,228,154389,1,0,0:0:0:0:
309,176,154537,1,8,0:0:0:0:
393,208,154686,1,0,0:0:0:0:
325,268,154834,1,8,0:0:0:0:
341,356,154983,5,4,0:0:0:0:
253,328,155280,1,8,0:0:0:0:
253,328,155428,1,0,0:0:0:0:
413,296,155726,5,2,0:0:0:0:
413,296,156023,1,8,0:0:0:0:
444,76,162112,5,4,0:0:0:0:
356,64,162260,1,0,0:0:0:0:
344,152,162409,1,8,0:0:0:0:
180,336,162557,5,8,0:0:0:0:
177,312,162631,1,0,0:0:0:0:
174,288,162706,1,0,0:0:0:0:
76,304,162854,1,0,0:0:0:0:
64,204,163003,1,8,0:0:0:0:
160,188,163151,1,0,0:0:0:0:
268,60,163300,5,4,0:0:0:0:
252,148,163448,1,0,0:0:0:0:
236,236,163597,1,8,0:0:0:0:
408,176,163745,5,8,0:0:0:0:
408,176,163820,1,0,0:0:0:0:
408,176,163894,1,0,0:0:0:0:
336,288,164042,1,0,0:0:0:0:
452,360,164191,1,8,0:0:0:0:
452,360,164265,1,0,0:0:0:0:
452,360,164339,1,0,0:0:0:0:
430,268,164488,5,4,0:0:0:0:
72,212,164785,1,0,0:0:0:0:
104,128,164933,1,8,0:0:0:0:
104,128,165008,1,0,0:0:0:0:
104,128,165082,1,0,0:0:0:0:
188,164,165230,1,0,0:0:0:0:
260,112,165379,5,2,0:0:0:0:
344,148,165528,5,8,0:0:0:0:
412,88,165676,1,0,0:0:0:0:
456,168,165825,1,8,0:0:0:0:
388,224,165973,1,0,0:0:0:0:
272,340,166122,5,0,0:0:0:0:
152,276,166270,5,2,0:0:0:0:
68,248,166418,1,0,0:0:0:0:
16,320,166567,1,0,0:0:0:0:
436,268,166864,5,2,0:0:0:0:
488,108,167161,1,2,0:0:0:0:
312,180,167458,1,2,0:0:0:0:
256,16,167755,1,2,0:0:0:0:
204,180,168052,1,2,0:0:0:0:
28,108,168349,1,2,0:0:0:0:
80,268,168646,1,2,0:0:0:0:
260,336,168943,1,2,0:0:0:0:
368,60,169240,5,4,0:0:0:0:
324,140,169537,1,0,0:0:0:0:
388,204,169834,1,0,0:0:0:0:
468,160,170131,1,0,0:0:0:0:
456,76,170577,5,8,0:0:0:0:
400,136,170874,1,8,0:0:0:0:
400,136,171023,1,8,0:0:0:0:
320,116,171320,1,8,0:0:0:0:
96,220,171617,5,2,0:0:0:0:
40,328,179933,5,4,0:0:0:0:
174,226,180230,1,0,0:0:0:0:
75,242,180528,5,0,0:0:0:0:
251,289,180824,1,0,0:0:0:0:
232,204,181122,5,0,0:0:0:0:
367,104,181419,1,0,0:0:0:0:
268,120,181717,5,0,0:0:0:0:
444,167,182013,1,0,0:0:0:0:
468,160,183498,5,4,0:0:0:0:
468,160,183795,5,0,0:0:0:0:
381,142,183943,1,8,0:0:0:0:
310,199,184092,1,0,0:0:0:0:
237,252,184240,1,0,0:0:0:0:
213,245,184315,1,0,0:0:0:0:
190,239,184389,5,8,0:0:0:0:
116,328,184537,1,0,0:0:0:0:
12,272,184686,1,10,0:0:0:0:
100,256,184834,5,8,0:0:0:0:
100,256,184909,1,0,0:0:0:0:
100,256,184983,1,0,0:0:0:0:
196,280,185131,1,8,0:0:0:0:
292,308,185280,1,0,0:0:0:0:
388,280,185428,1,0,0:0:0:0:
388,280,185503,1,0,0:0:0:0:
388,280,185577,1,8,0:0:0:0:
484,308,185726,1,8,0:0:0:0:
456,212,185874,5,12,0:0:0:0:
372,180,186023,1,0,0:0:0:0:
340,96,186171,1,0,0:0:0:0:
256,132,186320,1,8,0:0:0:0:
172,100,186468,1,0,0:0:0:0:
104,160,186617,1,8,0:0:0:0:
104,160,186691,1,0,0:0:0:0:
104,160,186765,1,8,0:0:0:0:
16,148,186914,1,0,0:0:0:0:
44,232,187062,5,12,0:0:0:0:
104,60,187211,1,0,0:1:0:0:
264,144,187359,1,4,0:0:0:0:
248,236,187508,5,10,0:0:0:0:
400,209,187657,1,4,0:1:0:0:
456,352,187805,1,2,0:0:0:0:
456,352,187879,1,0,0:0:0:0:
456,352,187953,1,12,0:0:0:0:
456,352,188102,5,8,0:0:0:0:
468,272,188250,1,4,0:0:0:0:
480,192,188399,1,8,0:0:0:0:
488,112,188547,5,8,0:0:0:0:
372,64,188695,1,0,0:0:0:0:
276,144,188844,1,8,0:0:0:0:
264,224,188993,5,8,0:0:0:0:
177,241,189141,1,0,0:0:0:0:
87,260,189290,1,8,0:0:0:0:
0,273,189438,1,8,0:0:0:0:
52,344,189587,5,2,0:0:0:0:
32,192,189735,1,2,0:0:0:0:
160,64,189884,5,2,0:0:0:0:
148,172,190032,1,2,0:0:0:0:
208,348,190181,5,2,0:0:0:0:
269,206,190329,1,2,0:0:0:0:
348,340,190478,5,10,0:0:0:0:
408,196,190627,1,4,0:0:0:0:
300,92,190775,1,8,0:0:0:0:
228,228,190924,1,8,0:0:0:0:
228,228,191072,1,8,0:0:0:0:
144,288,191221,5,4,0:0:0:0:
95,203,191369,1,0,0:0:0:0:
173,143,191518,1,8,0:0:0:0:
166,47,191666,1,0,0:0:0:0:
73,8,191815,5,4,0:0:0:0:
200,96,192112,1,2,0:0:0:0:
324,72,192409,1,2,0:0:0:0:
448,48,192706,1,2,0:0:0:0:
448,48,193003,5,4,0:0:0:0:
360,32,193151,1,0,0:0:0:0:
360,32,193226,1,0,0:0:0:0:
360,32,193300,1,8,0:0:0:0:
344,120,193448,1,0,0:0:0:0:
328,208,193597,1,8,0:0:0:0:
244,236,193745,5,0,0:0:0:0:
108,188,193894,1,8,0:0:0:0:
36,312,194042,1,0,0:0:0:0:
8,224,194191,5,10,0:0:0:0:
136,272,194339,1,0,0:0:0:0:
216,152,194488,1,8,0:0:0:0:
80,100,194636,1,0,0:0:0:0:
164,284,194785,5,8,0:0:0:0:
260,308,194933,1,0,0:0:0:0:
348,264,195082,1,8,0:0:0:0:
444,288,195230,1,0,0:0:0:0:
500,204,195379,5,4,0:0:0:0:
456,124,195528,1,0,0:0:0:0:
412,44,195676,1,0,0:0:0:0:
220,232,195825,5,8,0:0:0:0:
175,154,195973,1,4,0:0:0:0:
253,106,196122,1,0,0:0:0:0:
297,183,196270,1,8,0:0:0:0:
60,60,196419,1,0,0:0:0:0:
28,144,196567,5,6,0:0:0:0:
184,312,196716,1,2,0:1:0:0:
88,336,196864,5,6,0:0:0:0:
244,100,197013,1,2,0:1:0:0:
340,116,197161,5,6,0:0:0:0:
440,340,197310,1,2,0:1:0:0:
440,340,197384,1,0,0:0:0:0:
440,340,197458,1,12,0:0:0:0:
344,312,197607,5,0,0:0:0:0:
252,272,197755,1,12,0:0:0:0:
340,228,197904,1,8,0:0:0:0:
432,192,198052,1,0,0:0:0:0:
436,92,198201,1,8,0:0:0:0:
340,64,198349,1,8,0:3:0:0:
280,144,198498,5,8,0:0:0:0:
148,88,198646,1,0,0:0:0:0:
56,200,198795,1,8,0:3:0:0:
128,324,198943,1,12,0:0:0:0:
268,292,199092,1,0,0:0:0:0:
356,312,199240,5,0,0:0:0:0:
444,324,199389,1,0,0:0:0:0:
416,240,199537,1,0,0:0:0:0:
384,156,199686,5,0,0:0:0:0:
448,32,199834,1,8,0:0:0:0:
472,172,199983,1,0,0:0:0:0:
368,76,200131,5,12,0:0:0:0:
508,96,200280,1,0,0:0:0:0:
348,164,200428,5,8,0:0:0:0:
208,144,200577,1,4,0:0:0:0:
328,248,200726,5,8,0:0:0:0:
468,268,200875,1,0,0:0:0:0:
308,332,201023,5,12,0:0:0:0:
168,312,201172,1,0,0:0:0:0:
68,336,201320,5,4,0:0:0:0:
89,211,201468,1,2,0:0:0:0:
208,172,201617,1,4,0:0:0:0:
312,244,201765,1,2,0:0:0:0:
452,176,201914,5,4,0:0:0:0:
431,301,202062,1,2,0:0:0:0:
312,340,202211,1,4,0:0:0:0:
208,268,202359,1,2,0:0:0:0:
88,304,202508,5,4,0:0:0:0:
124,176,202656,1,10,0:0:0:0:
127,195,202730,1,10,0:0:0:0:
130,214,202805,1,10,0:0:0:0:
372,276,202953,5,4,0:0:0:0:
296,308,203102,1,0,0:0:0:0:
252,240,203250,1,0,0:0:0:0:
328,208,203399,1,0,0:0:0:0:
460,360,203547,5,6,0:0:0:0:
312,260,203844,1,4,0:0:0:0:
312,260,203919,1,4,0:0:0:0:
312,260,203993,1,4,0:0:0:0:
312,260,204141,5,10,0:0:0:0:
460,208,204290,1,8,0:0:0:0:
220,144,204438,1,2,0:0:0:0:
460,48,204587,1,8,0:0:0:0:
300,12,204735,1,2,0:0:0:0:
352,128,204884,5,6,0:0:0:0:
