osu file format v14

[General]
AudioFilename: Responsibility Response.mp3
AudioLeadIn: 0
PreviewTime: 182310
Countdown: 0
SampleSet: Soft
StackLeniency: 0.7
Mode: 0
LetterboxInBreaks: 0
WidescreenStoryboard: 0

[Editor]
DistanceSpacing: 0.9
BeatDivisor: 4
GridSize: 4
TimelineZoom: 1.8

[Metadata]
Title:Responsibility Response
TitleUnicode:Responsibility Response
Artist:Yonezawa Madoka
ArtistUnicode:米澤円
Creator:ShiraKai
Version:Phantom
Source:Another
Tags:kacha Guy Sinch Rei24 Poruteri P.A.WORKS Songs party -歌宴- 赤澤泉美 Akazawa Izumi
BeatmapID:627765
BeatmapSetID:276997

[Difficulty]
HPDrainRate:7
CircleSize:4
OverallDifficulty:8
ApproachRate:9
SliderMultiplier:1.6
SliderTickRate:2

[Events]
//Background and Video events
0,0,"BG.jpg",0,0
//Break Periods
2,69638,78343
2,171223,179333
//Storyboard Layer 0 (Background)
//Storyboard Layer 1 (Fail)
//Storyboard Layer 2 (Pass)
//Storyboard Layer 3 (Foreground)
//Storyboard Sound Samples

[TimingPoints]
528,297.029702970297,4,2,1,40,1,0
528,-133.333333333333,4,2,1,40,0,0
4686,-133.333333333333,4,2,5,60,0,0
4983,-133.333333333333,4,2,5,30,0,0
5280,-100,4,2,2,50,0,0
8993,-100,4,2,3,50,0,0
10032,-100,4,2,2,50,0,0
11221,-100,4,2,2,55,0,0
12409,-100,4,2,2,60,0,0
14785,-100,4,2,2,45,0,0
18349,-100,4,2,4,55,0,0
18572,-100,4,2,4,10,0,0
18646,-100,4,2,4,55,0,0
18869,-100,4,2,4,10,0,0
18943,-100,4,2,4,55,0,0
19166,-100,4,2,4,10,0,0
19240,-100,4,2,2,45,0,0
23102,-100,4,2,4,55,0,0
24290,-100,4,2,6,45,0,0
27854,-100,4,2,4,55,0,0
28077,-100,4,2,4,10,0,0
28151,-100,4,2,4,55,0,0
28374,-100,4,2,4,10,0,0
28448,-100,4,2,4,55,0,0
28671,-100,4,2,4,10,0,0
28745,-100,4,2,6,45,0,0
32607,-100,4,2,4,55,0,0
32829,-100,4,2,4,10,0,0
32904,-100,4,2,4,55,0,0
33127,-100,4,2,4,10,0,0
33201,-100,4,2,4,55,0,0
33498,-83.3333333333333,4,2,1,60,0,0
33795,-133.333333333333,4,2,1,35,0,0
38547,-100,4,2,2,45,0,0
44488,-100,4,2,2,50,0,0
45082,-100,4,2,2,55,0,0
45676,-83.3333333333333,4,2,2,60,0,0
45899,-83.3333333333333,4,2,2,10,0,0
45973,-83.3333333333333,4,2,2,60,0,0
46196,-83.3333333333333,4,2,2,10,0,0
46270,-83.3333333333333,4,2,2,60,0,0
46493,-83.3333333333333,4,2,2,10,0,0
46567,-83.3333333333333,4,2,2,60,0,0
46790,-83.3333333333333,4,2,2,10,0,0
47013,-100,4,2,2,40,0,0
47458,-100,4,2,5,40,0,0
47755,-200,4,2,1,30,0,0
47978,-200,4,2,1,10,0,0
48052,-90.9090909090909,4,2,2,70,0,1
56295,-90.9090909090909,4,2,2,70,0,0
56369,-76.9230769230769,4,2,2,80,0,1
56592,-76.9230769230769,4,2,2,10,0,0
56666,-76.9230769230769,4,2,2,80,0,1
56889,-76.9230769230769,4,2,2,10,0,0
56963,-76.9230769230769,4,2,2,80,0,1
57186,-76.9230769230769,4,2,2,10,0,0
57260,-76.9230769230769,4,2,2,80,0,1
57483,-76.9230769230769,4,2,2,10,0,0
57557,-90.9090909090909,4,2,2,70,0,1
62310,-83.3333333333333,4,2,2,70,0,1
62458,-90.9090909090909,4,2,2,70,0,1
63498,-83.3333333333333,4,2,2,70,0,1
63646,-90.9090909090909,4,2,2,70,0,1
64686,-83.3333333333333,4,2,2,70,0,1
64834,-90.9090909090909,4,2,2,70,0,1
65874,-90.9090909090909,4,2,2,75,0,1
67062,-90.9090909090909,4,2,2,70,0,1
69438,-100,4,2,5,50,0,0
78943,-100,4,2,2,40,0,0
82508,-100,4,2,2,50,0,0
82730,-100,4,2,2,10,0,0
82805,-100,4,2,2,50,0,0
83028,-100,4,2,2,10,0,0
83102,-100,4,2,2,50,0,0
83325,-100,4,2,2,10,0,0
83399,-100,4,2,2,50,0,0
83622,-100,4,2,2,10,0,0
83696,-100,4,2,6,45,0,0
87260,-100,4,2,4,55,0,0
88448,-100,4,2,6,45,0,0
92013,-100,4,2,4,55,0,0
92235,-100,4,2,4,10,0,0
92310,-100,4,2,4,55,0,0
92532,-100,4,2,4,10,0,0
92607,-100,4,2,4,55,0,0
92829,-100,4,2,4,10,0,0
92904,-100,4,2,6,45,0,0
96765,-100,4,2,4,55,0,0
97953,-133.333333333333,4,2,1,35,0,0
102706,-100,4,2,2,45,0,0
108646,-100,4,2,2,50,0,0
109240,-100,4,2,2,55,0,0
109834,-83.3333333333333,4,2,2,60,0,0
110057,-83.3333333333333,4,2,1,10,0,0
110131,-83.3333333333333,4,2,2,60,0,0
110354,-83.3333333333333,4,2,1,10,0,0
110428,-83.3333333333333,4,2,2,60,0,0
110651,-83.3333333333333,4,2,1,10,0,0
110726,-83.3333333333333,4,2,2,60,0,0
110948,-83.3333333333333,4,2,1,10,0,0
111171,-100,4,2,7,50,0,0
112211,-90.9090909090909,4,2,2,70,0,1
120527,-76.9230769230769,4,2,2,80,0,1
120750,-76.9230769230769,4,2,2,10,0,0
120825,-76.9230769230769,4,2,2,80,0,1
121047,-76.9230769230769,4,2,2,10,0,0
121122,-76.9230769230769,4,2,2,80,0,1
121344,-76.9230769230769,4,2,2,10,0,0
121419,-76.9230769230769,4,2,2,80,0,1
121641,-76.9230769230769,4,2,2,10,0,0
121716,-90.9090909090909,4,2,2,70,0,1
126468,-83.3333333333333,4,2,2,70,0,1
126617,-90.9090909090909,4,2,2,70,0,1
127656,-83.3333333333333,4,2,2,70,0,1
127805,-90.9090909090909,4,2,2,70,0,1
128844,-83.3333333333333,4,2,2,70,0,1
128993,-90.9090909090909,4,2,2,70,0,1
130032,-90.9090909090909,4,2,2,75,0,1
130255,-90.9090909090909,4,2,2,10,0,1
130329,-90.9090909090909,4,2,2,75,0,1
130552,-90.9090909090909,4,2,2,10,0,1
130627,-90.9090909090909,4,2,2,75,0,1
130849,-90.9090909090909,4,2,2,10,0,1
130924,-90.9090909090909,4,2,2,75,0,1
131146,-90.9090909090909,4,2,2,10,0,1
131221,-90.9090909090909,4,2,2,70,0,1
133003,-90.9090909090909,4,2,6,40,0,1
133597,-100,4,2,2,50,0,0
138349,-100,4,2,4,60,0,0
139240,-100,4,2,2,50,0,0
141914,-76.9230769230769,4,2,4,60,0,0
142136,-76.9230769230769,4,2,4,10,0,0
142211,-76.9230769230769,4,2,4,60,0,0
142433,-76.9230769230769,4,2,4,10,0,0
142508,-76.9230769230769,4,2,4,60,0,0
142730,-76.9230769230769,4,2,4,10,0,0
142805,-76.9230769230769,4,2,4,60,0,0
143028,-76.9230769230769,4,2,4,10,0,0
143102,-100,4,2,2,50,0,0
146666,-100,4,2,4,60,0,0
147557,-100,4,2,2,50,0,0
147854,-100,4,2,2,55,0,0
148745,-83.3333333333333,4,2,2,55,0,0
149042,-100,4,2,2,55,0,0
149933,-83.3333333333333,4,2,2,55,0,0
150230,-100,4,2,2,55,0,0
151122,-83.3333333333333,4,2,2,55,0,0
151419,-100,4,2,2,55,0,0
152310,-83.3333333333333,4,2,2,55,0,0
152607,-100,4,2,2,60,0,0
156023,-200,4,2,2,40,0,0
156765,-200,4,2,2,20,0,0
157359,-133.333333333333,4,2,1,35,0,0
162112,-100,4,2,2,45,0,0
168052,-100,4,2,2,50,0,0
168646,-100,4,2,2,55,0,0
169240,-76.9230769230769,4,2,2,60,0,0
169463,-76.9230769230769,4,2,2,10,0,0
169537,-76.9230769230769,4,2,2,60,0,0
169760,-76.9230769230769,4,2,2,10,0,0
169834,-76.9230769230769,4,2,2,60,0,0
170057,-76.9230769230769,4,2,2,10,0,0
170131,-76.9230769230769,4,2,2,60,0,0
170354,-76.9230769230769,4,2,2,10,0,0
170726,-100,4,2,1,40,0,0
171023,-100,4,2,5,60,0,0
179933,-166.666666666667,4,2,2,30,0,0
180230,-125,4,2,2,35,0,0
180528,-100,4,2,2,40,0,0
180825,-83.3333333333333,4,2,2,45,0,0
181122,-71.4285714285714,4,2,2,50,0,0
181419,-62.5,4,2,2,55,0,0
181716,-55.5555555555556,4,2,2,60,0,0
182013,-50,4,2,2,70,0,0
183498,-90.9090909090909,4,2,2,80,0,1
191815,-76.9230769230769,4,2,2,90,0,1
192037,-76.9230769230769,4,2,2,10,0,1
192112,-66.6666666666667,4,2,2,90,0,1
192334,-66.6666666666667,4,2,2,10,0,1
192409,-58.8235294117647,4,2,2,90,0,1
192631,-58.8235294117647,4,2,2,10,0,1
192706,-52.6315789473684,4,2,2,90,0,1
192928,-52.6315789473684,4,2,2,10,0,1
193003,-90.9090909090909,4,2,2,80,0,1
197755,-83.3333333333333,4,2,2,80,0,1
197904,-90.9090909090909,4,2,2,80,0,1
198943,-83.3333333333333,4,2,2,80,0,1
199092,-90.9090909090909,4,2,2,80,0,1
200131,-83.3333333333333,4,2,2,80,0,1
200280,-90.9090909090909,4,2,2,80,0,1
201320,-90.9090909090909,4,2,2,85,0,1
203844,-90.9090909090909,4,2,3,65,0,1
204884,-100,4,2,2,60,0,0
208448,-83.3333333333333,4,2,4,70,0,0
208671,-83.3333333333333,4,2,4,10,0,0
208745,-83.3333333333333,4,2,4,70,0,0
208968,-83.3333333333333,4,2,4,10,0,0
209042,-83.3333333333333,4,2,4,70,0,0
209265,-83.3333333333333,4,2,4,10,0,0
209339,-83.3333333333333,4,2,4,70,0,0
209562,-83.3333333333333,4,2,4,10,0,0
209636,-100,4,2,2,60,0,0
215428,-133.333333333333,4,2,2,60,0,0
215948,-133.333333333333,4,2,1,10,0,0
216023,-200,4,2,1,20,0,0
216468,-200,4,2,1,5,0,0

[HitObjects]
99,199,528,6,0,P|128:199|158:192,1,60.0000022888184,8|0,0:1|0:0,0:0:0:0:
222,138,825,1,8,0:0:0:0:
110,79,973,2,0,L|99:198,1,120.000004577637,8|2,0:1|0:0,0:0:0:0:
402,305,1567,6,0,L|412:185,1,120.000004577637,8|2,0:1|0:0,0:0:0:0:
422,101,2013,1,8,0:0:0:0:
323,178,2161,2,0,L|333:58,1,120.000004577637,8|2,0:1|0:0,0:0:0:0:
222,138,2607,2,0,L|225:197,1,60.0000022888184,8|0,0:0|0:0,0:0:0:0:
278,317,2904,6,0,L|281:257,2,60.0000022888184,8|0|8,0:1|0:0|0:0,0:0:0:0:
169,363,3349,2,0,L|157:243,1,120.000004577637,8|2,0:1|0:0,0:0:0:0:
52,7,3943,6,0,L|40:126,1,120.000004577637,8|2,0:1|0:0,0:0:0:0:
25,209,4389,1,0,3:0:0:0:
107,195,4537,1,2,0:0:0:0:
189,178,4686,1,8,0:0:0:0:
15,292,4983,1,0,0:0:0:0:
176,99,5280,6,0,L|188:177,1,80,12|0,0:0|0:0,0:0:0:0:
209,280,5577,1,2,0:0:0:0:
351,137,5726,2,0,L|272:123,1,80,8|0,0:0|0:0,0:0:0:0:
176,99,6023,1,2,0:0:0:0:
307,8,6171,2,0,L|376:47,1,80,8|0,0:0|0:0,0:0:0:0:
436,184,6468,6,0,L|512:160,1,80,8|0,0:0|0:0,0:0:0:0:
423,106,6765,1,2,0:0:0:0:
349,240,6914,2,0,L|425:263,1,80,8|0,0:0|0:0,0:0:0:0:
336,339,7211,1,2,0:0:0:0:
266,210,7359,1,0,0:0:0:0:
199,368,7508,1,2,0:0:0:0:
132,265,7656,6,0,P|171:265|209:279,1,80,12|0,0:0|0:0,0:0:0:0:
63,325,7953,1,2,0:0:0:0:
111,173,8102,2,0,P|150:173|188:187,1,80,8|0,0:0|0:0,0:0:0:0:
42,233,8399,1,2,0:0:0:0:
84,87,8547,2,0,P|123:87|161:101,1,80,8|0,0:0|0:0,0:0:0:0:
266,210,8844,5,8,0:0:0:0:
317,117,8993,1,8,0:0:0:0:
317,117,9067,1,8,0:0:0:0:
317,117,9141,1,8,0:0:0:0:
266,210,9290,1,2,0:0:0:0:
392,167,9438,2,0,P|402:128|400:88,1,80,8|0,0:0|0:0,0:0:0:0:
290,30,9735,2,0,P|256:51|232:83,1,80,8|0,0:0|0:0,0:0:0:0:
266,210,10032,5,8,0:0:0:0:
266,210,10181,1,0,0:0:0:0:
392,167,10329,1,2,0:0:0:0:
321,284,10478,5,8,0:0:0:0:
321,284,10627,1,0,0:0:0:0:
317,117,10775,1,2,0:0:0:0:
186,210,10924,2,0,P|226:214|265:210,1,80,8|0,0:0|0:0,0:0:0:0:
175,107,11221,5,8,0:0:0:0:
186,210,11369,1,0,0:0:0:0:
89,171,11518,1,2,0:0:0:0:
135,301,11666,5,8,0:0:0:0:
186,210,11815,1,0,0:0:0:0:
243,298,11963,1,2,0:0:0:0:
51,333,12112,2,0,L|61:250,1,80,8|0,0:0|0:0,0:0:0:0:
86,78,12409,5,8,0:0:0:0:
186,210,12557,1,0,0:0:0:0:
2,195,12706,1,2,0:0:0:0:
175,107,12854,5,8,0:0:0:0:
135,301,13003,1,0,0:0:0:0:
294,206,13151,1,2,0:0:0:0:
89,171,13300,5,8,0:0:0:0:
82,14,14785,6,0,B|94:51|94:51|80:137|80:137|89:170,1,160,2|0,1:2|0:0,0:0:0:0:
115,278,15230,2,0,B|140:274|161:263|161:263|214:283|271:267,1,160,2|0,0:0|0:0,0:0:0:0:
251,108,15676,2,0,P|217:129|197:163,1,80,0|0,3:0|0:0,0:0:0:0:
440,174,15973,6,0,B|415:178|394:189|394:189|341:169|284:185,1,160,2|0,1:2|0:0,0:0:0:0:
284,184,16419,1,2,0:0:0:0:
429,330,16567,2,0,P|441:293|445:253,1,80
414,94,16864,1,0,3:0:0:0:
360,161,17013,1,0,0:3:0:0:
343,36,17161,6,0,P|414:5|486:35,1,160,2|0,1:2|0:0,0:0:0:0:
284,184,17607,2,0,L|124:175,1,160,2|0,0:0|0:0,0:0:0:0:
51,91,18052,2,0,P|22:119|6:155,1,80,0|0,3:0|0:0,0:0:0:0:
164,191,18349,6,0,L|292:183,1,120,4|0,0:0|0:0,0:0:0:0:
153,271,18646,6,0,L|25:263,1,120,4|0,0:0|0:0,0:0:0:0:
173,348,18943,6,0,L|301:340,1,120,4|0,0:0|0:0,0:0:0:0:
387,330,19240,5,0,3:0:0:0:
248,266,19389,1,0,0:0:0:0:
345,177,19537,6,0,B|346:193|346:193|354:206|355:221|355:221|362:237|362:237|366:268|366:268|385:299|386:329,1,160,2|0,1:2|0:0,0:0:0:0:
248,266,19983,1,2,0:0:0:0:
345,176,20131,2,0,P|384:183|421:196,1,80
343,69,20428,2,0,P|303:75|266:88,1,80,0|0,3:0|0:0,0:0:0:0:
182,176,20726,6,0,B|140:175|97:162|97:162|81:198|81:233,1,160,2|0,1:2|0:0,0:0:0:0:
3,144,21171,2,0,P|7:106|23:59,2,80,2|0|0,0:0|0:0|0:0,0:0:0:0:
98,311,21617,2,0,P|94:273|78:226,1,80,0|0,3:0|0:0,0:0:0:0:
149,21,21914,6,0,P|157:100|182:176,1,160,2|0,1:2|0:0,0:0:0:0:
257,295,22359,2,0,B|219:310|192:341,1,80,2|0,0:0|0:0,0:0:0:0:
347,318,22656,2,0,B|357:271|324:228|324:228|326:192|340:166,1,160
407,62,23102,6,0,P|367:75|323:76,1,80,4|0,0:0|0:0,0:0:0:0:
208,75,23399,2,0,P|239:102|262:140,1,80,4|0,0:0|0:0,0:0:0:0:
347,319,23696,2,0,P|345:300|349:280,4,40,6|2|2|2|0,0:0|0:0|0:0|0:0|3:0,0:0:0:0:
439,300,24141,1,2,0:0:0:0:
266,343,24290,6,0,P|268:264|307:195,1,160,2|0,1:2|0:0,0:0:0:0:
184,281,24735,2,0,P|106:293|32:266,1,160,2|0,0:0|0:0,0:0:0:0:
119,175,25181,1,8,0:0:0:0:
184,281,25329,1,0,0:0:0:0:
264,104,25478,6,0,L|184:108,1,80,2|0,1:2|0:0,0:0:0:0:
334,26,25775,1,0,0:0:0:0:
334,26,25924,2,0,P|359:56|372:94,1,80,2|0,0:0|0:0,0:0:0:0:
296,207,26221,1,0,0:0:0:0:
161,96,26369,2,0,L|240:91,1,80,8|0,0:0|0:0,0:0:0:0:
440,177,26666,6,0,B|368:167|368:167|383:213|366:252,1,160,2|0,1:2|0:0,0:0:0:0:
479,338,27112,2,0,B|441:325|402:340|402:340|364:351|321:338,1,160
217,207,27557,2,0,P|256:202|296:207,1,80,8|0,0:0|0:0,0:0:0:0:
212,326,27854,6,0,B|209:294|209:294|221:239|221:239|217:207,1,120,4|0,0:0|0:0,0:0:0:0:
116,267,28151,6,0,B|129:237|129:237|167:196|167:196|179:166,1,120,4|0,0:0|0:0,0:0:0:0:
62,176,28448,6,0,B|88:157|88:157|141:140|141:140|167:120,1,120,4|0,0:0|0:0,0:0:0:0:
203,83,28745,5,8,0:0:0:0:
116,267,28894,1,0,0:0:0:0:
46,75,29042,6,0,B|90:70|90:70|167:87|167:87|203:83,1,160,2|0,1:2|0:0,0:0:0:0:
336,197,29488,1,2,0:0:0:0:
301,41,29636,2,0,L|294:122,1,80
418,149,29933,2,0,L|425:229,1,80,8|0,0:0|0:0,0:0:0:0:
266,254,30230,6,0,L|259:333,1,80,2|0,1:2|0:0,0:0:0:0:
336,197,30527,1,0,0:0:0:0:
197,139,30676,2,0,L|183:298,1,160,2|0,0:0|0:0,0:0:0:0:
32,210,31122,2,0,P|70:200|109:210,1,80,8|0,0:0|0:0,0:0:0:0:
236,66,31419,6,0,P|197:56|158:66,2,80,2|0|0,1:2|0:0|0:0,0:0:0:0:
336,197,31864,2,0,L|347:117,1,80,2|0,0:0|0:0,0:0:0:0:
456,90,32161,2,0,L|445:11,2,80,0|8|0,0:0|0:0|0:0,0:0:0:0:
336,197,32607,6,0,B|383:190|383:190|450:215,1,120,4|0,0:0|0:0,0:0:0:0:
489,250,32904,6,0,B|442:243|442:243|374:268,1,120,4|0,0:0|0:0,0:0:0:0:
332,299,33201,5,6,0:0:0:0:
371,293,33275,1,2,0:0:0:0:
409,303,33349,1,2,0:0:0:0:
447,317,33423,1,2,0:0:0:0:
477,348,33498,6,0,B|420:339|420:339|339:370,1,143.999995605469,8|0,0:3|0:0,0:0:0:0:
248,305,33795,6,0,P|304:322|339:370,1,120.000004577637,2|0,0:0|0:0,0:0:0:0:
151,277,34240,2,0,P|186:229|242:211,1,120.000004577637,2|0,0:0|0:0,0:0:0:0:
80,335,34686,2,0,P|65:309|61:279,1,60.0000022888184,2|0,0:0|0:0,0:0:0:0:
143,157,34983,6,0,L|152:288,1,120.000004577637,2|0,0:0|0:0,0:0:0:0:
59,83,35428,2,0,L|68:214,1,120.000004577637,2|0,0:0|0:0,0:0:0:0:
168,66,35874,1,2,0:0:0:0:
261,139,36023,1,0,0:0:0:0:
380,54,36171,6,0,L|260:38,1,120.000004577637,2|0,0:0|0:0,0:0:0:0:
344,192,36617,2,0,L|469:192,1,120.000004577637,2|0,0:0|0:0,0:0:0:0:
380,330,37062,2,0,L|320:337,1,60.0000022888184,2|0,0:0|0:0,0:0:0:0:
219,301,37359,6,0,B|216:274|216:274|224:256|224:256|219:245|219:245|230:227|230:227|231:203|231:203|252:263|234:337,1,240.000009155274,2|0,0:0|3:0,0:0:0:0:
234,336,38250,2,0,L|174:331,1,60.0000022888184,2|0,0:0|0:0,0:0:0:0:
72,220,38547,6,0,L|231:203,1,160,6|0,0:0|0:0,0:0:0:0:
381,167,38993,1,2,0:0:0:0:
282,87,39141,1,0,0:0:0:0:
231,202,39290,1,2,0:0:0:0:
112,107,39438,2,0,L|191:114,1,80,8|0,0:0|0:0,0:0:0:0:
381,167,39735,5,2,0:0:0:0:
282,87,39884,1,0,0:0:0:0:
328,252,40032,1,0,0:0:0:0:
464,133,40181,1,2,0:0:0:0:
464,133,40255,1,0,0:0:0:0:
464,133,40329,1,0,0:0:0:0:
401,34,40478,1,0,0:0:0:0:
301,171,40627,2,0,L|380:167,1,80,8|0,0:0|0:0,0:0:0:0:
503,339,40924,6,0,P|433:305|363:339,1,160,2|0,0:0|0:0,0:0:0:0:
189,252,41369,2,0,P|258:218|328:252,1,160,2|2,0:0|0:0,0:0:0:0:
161,345,41815,2,0,P|103:294|103:216,1,160,8|2,0:0|0:0,0:0:0:0:
199,104,42260,5,0,0:0:0:0:
116,225,42409,2,0,L|36:215,1,80,0|2,0:0|0:0,0:0:0:0:
210,114,42706,2,0,L|130:123,1,80,0|2,0:0|0:0,0:0:0:0:
292,26,43003,2,0,P|320:54|333:91,1,80,8|0,0:0|0:0,0:0:0:0:
296,208,43300,6,0,P|374:209|435:258,1,160,6|0,0:0|0:0,0:0:0:0:
327,326,43745,1,0,0:0:0:0:
207,204,43894,2,0,L|218:122,1,80,2|0,0:0|0:0,0:0:0:0:
127,305,44191,2,0,L|116:223,1,80,10|0,0:0|0:0,0:0:0:0:
36,73,44488,5,8,0:0:0:0:
32,88,44636,1,0,0:0:0:0:
125,60,44785,1,8,0:0:0:0:
119,91,44933,1,0,0:0:0:0:
220,42,45082,1,8,0:0:0:0:
209,104,45230,1,0,0:0:0:0:
312,26,45379,1,8,0:0:0:0:
295,120,45527,1,0,0:0:0:0:
412,16,45676,6,0,B|399:70|384:117|384:117|420:102,1,143.999995605469,10|0,0:1|0:0,0:0:0:0:
420,102,45973,6,0,B|398:152|374:196|374:196|412:188,1,143.999995605469,10|0,0:1|0:0,0:0:0:0:
413,188,46270,6,0,B|382:233|352:273|352:273|391:271,1,143.999995605469,10|0,0:1|0:0,0:0:0:0:
391,271,46567,6,0,B|355:309|316:344|316:344|354:349,1,143.999995605469,10|0,0:1|0:0,0:0:0:0:
355,349,47013,6,0,L|262:334,1,80,0|2,0:0|0:0,0:0:0:0:
140,287,47310,1,2,0:0:0:0:
180,173,47458,2,0,P|216:189|242:219,1,80,8|0,0:0|0:0,0:0:0:0:
105,357,47755,6,0,L|124:290,1,60
140,288,48052,6,2,B|84:301|21:284|21:284|50:266|60:245,1,176.000005371094,6|0,0:0|0:0,0:0:0:0:
171,86,48498,2,0,L|180:173,1,88.000002685547,2|0,0:0|0:0,0:0:0:0:
54,111,48795,1,2,0:0:0:0:
54,111,48943,2,0,L|63:24,1,88.000002685547,8|0,0:0|0:0,0:0:0:0:
180,173,49240,5,2,0:0:0:0:
338,65,49389,2,0,L|252:43,1,88.000002685547
273,213,49686,1,2,0:0:0:0:
428,172,49834,2,0,L|342:150,1,88.000002685547,0|2,0:0|0:0,0:0:0:0:
342,309,50131,2,0,L|428:287,1,88.000002685547,8|0,0:0|0:0,0:0:0:0:
273,213,50428,6,0,B|239:230|217:277|223:317|223:317|195:308|170:313,1,176.000005371094,2|0,0:0|0:0,0:0:0:0:
84,354,50874,1,2,0:0:0:0:
2,258,51023,2,0,P|45:254|88:264,1,88.000002685547,0|2,0:0|0:0,0:0:0:0:
200,164,51320,2,0,P|156:160|113:170,1,88.000002685547,8|0,0:0|0:0,0:0:0:0:
2,258,51617,5,2,0:0:0:0:
61,71,51765,1,0,0:0:0:0:
113,170,51914,1,10,0:0:0:0:
2,165,52062,1,0,0:0:0:0:
166,31,52211,1,2,0:0:0:0:
113,170,52359,1,0,0:0:0:0:
113,170,52433,1,0,0:0:0:0:
113,170,52508,1,8,0:0:0:0:
249,87,52656,1,0,0:0:0:0:
285,190,52805,6,0,L|200:164,1,88.000002685547,6|0,0:0|0:0,0:0:0:0:
325,24,53102,1,0,3:0:0:0:
325,24,53250,2,0,L|360:104,1,88.000002685547,2|0,0:0|0:0,0:0:0:0:
445,260,53547,1,2,0:0:0:0:
450,168,53696,2,0,P|406:173|371:198,1,88.000002685547,8|0,0:0|0:0,0:0:0:0:
249,345,53993,5,2,0:0:0:0:
213,239,54141,2,0,P|298:250|357:313,1,176.000005371094,0|2,0:0|0:0,0:0:0:0:
213,240,54587,2,0,L|206:150,1,88.000002685547,0|2,0:0|0:0,0:0:0:0:
326,24,54884,2,0,L|319:111,1,88.000002685547,8|0,0:0|0:0,0:0:0:0:
184,297,55181,6,0,L|170:121,1,176.000005371094,2|0,0:0|0:0,0:0:0:0:
34,190,55627,1,2,0:0:0:0:
18,62,55775,2,0,P|61:62|103:76,1,88.000002685547,0|2,0:0|0:0,0:0:0:0:
247,159,56072,2,0,P|290:158|332:144,1,88.000002685547,8|0,0:0|0:0,0:0:0:0:
383,83,56295,1,0,0:0:0:0:
383,83,56369,6,0,P|450:68|460:137,1,155.999992858887,10|0,0:1|0:0,0:0:0:0:
388,180,56666,6,0,P|455:164|465:233,1,155.999992858887,10|0,0:1|0:0,0:0:0:0:
391,273,56963,6,0,P|458:257|468:326,1,155.999992858887,10|0,0:1|0:0,0:0:0:0:
389,358,57260,6,0,B|355:349|355:349|269:358|269:358|236:346,1,155.999992858887,10|0,0:1|0:0,0:0:0:0:
114,311,57557,6,0,P|189:280|237:347,1,176.000005371094,6|0,0:0|0:0,0:0:0:0:
247,159,58003,2,0,P|271:195|285:237,1,88.000002685547,2|0,0:0|0:0,0:0:0:0:
114,311,58300,2,0,L|26:301,2,88.000002685547,2|8|0,0:0|0:0|0:0,0:0:0:0:
247,159,58745,5,2,0:0:0:0:
247,159,58894,2,0,L|342:151,1,88.000002685547
184,236,59191,1,2,0:0:0:0:
350,71,59339,2,0,P|388:92|414:126,1,88.000002685547,0|2,0:0|0:0,0:0:0:0:
184,236,59636,2,0,L|89:228,1,88.000002685547,8|0,0:0|0:0,0:0:0:0:
175,56,59933,6,0,L|350:70,1,176.000005371094,2|0,0:0|0:0,0:0:0:0:
466,154,60379,1,2,0:0:0:0:
345,241,60528,2,0,L|335:140,1,88.000002685547,0|2,0:0|0:0,0:0:0:0:
452,338,60825,2,0,L|442:237,1,88.000002685547,8|0,0:0|0:0,0:0:0:0:
314,361,61122,5,2,0:0:0:0:
314,361,61270,1,0,0:0:0:0:
184,236,61419,1,10,0:0:0:0:
184,236,61567,1,0,0:0:0:0:
201,344,61716,1,2,0:0:0:0:
270,215,61864,1,0,0:0:0:0:
270,215,61938,1,0,0:0:0:0:
270,215,62013,1,8,0:0:0:0:
99,166,62161,1,0,0:0:0:0:
253,46,62310,6,0,P|285:82|301:127,1,95.9999970703126,6|0,0:0|0:0,0:0:0:0:
302,128,62607,5,2,0:0:0:0:
302,128,62755,2,0,L|477:109,1,176.000005371094,8|2,0:0|0:0,0:0:0:0:
365,206,63201,1,8,0:0:0:0:
502,260,63349,1,0,0:0:0:0:
324,295,63498,6,0,L|419:306,1,95.9999970703126,6|0,0:0|0:0,0:0:0:0:
420,307,63795,5,2,0:0:0:0:
420,307,63943,2,0,L|244:319,1,176.000005371094,8|2,0:0|0:0,0:0:0:0:
104,333,64389,1,8,0:0:0:0:
152,201,64537,1,0,0:0:0:0:
341,295,64686,6,0,L|245:306,1,95.9999970703126,6|0,0:0|0:0,0:0:0:0:
246,307,64983,5,2,0:0:0:0:
246,307,65131,2,0,L|422:319,1,176.000005371094,8|2,0:0|0:0,0:0:0:0:
405,196,65577,2,0,L|500:229,1,88.000002685547,8|0,0:0|0:0,0:0:0:0:
246,307,65874,5,8,0:0:0:0:
269,212,66023,1,0,0:0:0:0:
246,307,66171,1,8,0:0:0:0:
199,143,66320,1,0,0:0:0:0:
246,307,66468,1,8,0:0:0:0:
316,128,66617,1,0,0:0:0:0:
246,307,66765,1,8,0:0:0:0:
176,53,66914,1,0,0:0:0:0:
86,246,67062,6,0,L|173:238,1,88.000002685547,4|8,0:0|0:0,0:0:0:0:
173,238,67285,1,2,0:0:0:0:
173,238,67359,1,2,0:0:0:0:
404,137,67508,2,0,L|316:128,1,88.000002685547,8|0,0:0|0:0,0:0:0:0:
89,62,67805,2,0,L|176:53,1,88.000002685547,8|0,0:0|0:0,0:0:0:0:
474,189,68102,6,0,P|440:44|316:130,1,352.000010742188,12|0,0:0|3:0,0:0:0:0:
371,248,68844,2,0,B|376:218|376:218|398:178|398:178|404:138,2,117.333336914063,2|2|2,0:0|0:0|0:0,0:0:0:0:
141,135,69438,5,12,0:0:0:0:
256,192,78943,5,2,0:0:0:0:
256,192,80131,5,2,0:0:0:0:
144,280,80428,1,2,0:0:0:0:
368,280,80726,1,2,0:0:0:0:
256,68,81023,1,2,0:0:0:0:
256,316,81320,5,2,0:0:0:0:
144,280,82508,6,0,B|178:280|178:280|256:316,1,120,2|0,0:0|0:0,0:0:0:0:
368,280,82805,2,0,B|334:280|334:280|255:316,1,120,2|0,0:0|0:0,0:0:0:0:
147,178,83102,2,0,L|255:229,1,120,2|0,0:0|0:0,0:0:0:0:
364,177,83399,2,0,L|256:228,1,120,2|0,0:0|0:0,0:0:0:0:
256,316,83696,6,0,L|256:156,1,160,2|0,1:2|0:0,0:0:0:0:
183,70,84141,2,0,P|255:40|328:67,1,160,2|0,0:0|0:0,0:0:0:0:
464,137,84587,1,8,0:0:0:0:
364,177,84735,1,0,0:0:0:0:
432,65,84884,6,0,L|454:223,1,160,2|0,1:2|0:0,0:0:0:0:
351,323,85329,1,2,0:0:0:0:
285,169,85478,2,0,L|373:178,1,80
351,323,85775,2,0,L|263:314,1,80,8|0,0:0|0:0,0:0:0:0:
218,235,86072,6,0,L|377:252,1,160,2|0,1:2|0:0,0:0:0:0:
169,151,86518,2,0,P|128:218|142:297,1,160,2|0,0:0|0:0,0:0:0:0:
20,114,86963,2,0,P|33:151|41:190,1,80,8|0,0:0|0:0,0:0:0:0:
136,4,87260,6,0,P|122:41|114:80,1,80,4|0,0:0|0:0,0:0:0:0:
218,235,87557,1,4,0:0:0:0:
218,235,87706,1,0,0:0:0:0:
328,85,87854,1,6,0:0:0:0:
296,85,87928,1,2,0:0:0:0:
265,78,88002,1,2,0:0:0:0:
235,71,88076,1,2,0:0:0:0:
203,67,88151,1,2,0:0:0:0:
312,178,88300,1,0,0:0:0:0:
441,57,88448,6,0,B|399:57|399:57|361:43|361:43|320:41|320:41|286:26,1,160,2|0,1:2|0:0,0:0:0:0:
312,178,88894,2,0,B|354:178|354:178|392:164|392:164|433:162|433:162|466:147,1,160,2|0,0:0|0:0,0:0:0:0:
430,296,89339,2,0,B|409:296|409:296|390:289|390:289|369:288|369:288|352:280,1,80,8|0,0:0|0:0,0:0:0:0:
218,235,89636,5,2,1:2:0:0:
259,333,89785,1,0,0:0:0:0:
312,178,89933,1,0,0:0:0:0:
218,235,90082,1,2,0:0:0:0:
146,151,90230,2,0,L|67:167,1,80
76,280,90528,2,0,L|-1:255,1,80,8|0,0:0|0:0,0:0:0:0:
115,68,90825,6,0,P|191:77|232:143,1,160,2|0,1:2|0:0,0:0:0:0:
301,260,91270,2,0,L|468:245,1,160,2|0,0:0|0:0,0:0:0:0:
317,100,91716,2,0,P|309:138|312:178,1,80,8|0,0:0|0:0,0:0:0:0:
431,353,92013,6,0,B|391:334|391:334|315:340,1,120,4|0,0:0|0:0,0:0:0:0:
186,273,92310,6,0,B|226:254|226:254|301:260,1,120,4|0,0:0|0:0,0:0:0:0:
428,191,92607,6,0,B|388:172|388:172|312:178,1,120,4|0,0:0|0:0,0:0:0:0:
238,96,92904,6,0,L|317:100,1,80,8|0,0:0|0:0,0:0:0:0:
172,175,93201,6,0,L|12:184,1,160,2|0,1:2|0:0,0:0:0:0:
186,273,93646,1,2,0:0:0:0:
238,96,93795,2,0,L|158:101,1,80
302,2,94092,2,0,P|333:26|353:60,1,80,8|0,0:0|0:0,0:0:0:0:
466,160,94389,6,0,P|402:208|361:276,1,160,2|0,1:2|0:0,0:0:0:0:
479,275,94834,1,2,0:0:0:0:
360,140,94983,2,0,P|331:166|307:199,1,80
260,303,95280,2,0,P|224:284|186:273,1,80,8|0,0:0|0:0,0:0:0:0:
93,174,95577,6,0,P|54:184|19:203,2,80,2|0|0,1:2|0:0|0:0,0:0:0:0:
237,95,96023,1,2,0:0:0:0:
160,15,96171,2,0,L|143:93,1,80
221,173,96468,2,0,L|237:94,1,80,8|0,0:0|0:0,0:0:0:0:
334,21,96765,5,4,0:0:0:0:
334,21,96914,1,0,3:0:0:0:
373,134,97062,1,4,0:0:0:0:
373,134,97211,1,0,3:0:0:0:
221,173,97359,1,4,0:0:0:0:
225,153,97433,1,0,0:0:0:0:
229,133,97508,1,4,0:0:0:0:
233,114,97581,1,0,0:0:0:0:
237,94,97656,1,4,0:0:0:0:
316,229,97805,1,0,0:0:0:0:
491,156,97953,6,0,L|374:134,1,120.000004577637,2|0,0:0|0:0,0:0:0:0:
316,229,98399,2,0,L|436:229,1,120.000004577637,2|0,0:0|0:0,0:0:0:0:
432,316,98844,2,0,L|490:304,1,60.0000022888184,2|0,0:0|0:0,0:0:0:0:
299,348,99141,6,0,L|317:226,1,120.000004577637,2|0,0:0|0:0,0:0:0:0:
220,312,99587,2,0,B|190:316|190:316|133:308|133:308|101:310,1,120.000004577637,2|0,0:0|0:0,0:0:0:0:
170,194,100032,1,2,0:0:0:0:
220,312,100181,1,0,0:0:0:0:
100,367,100329,6,0,B|96:337|96:337|104:280|104:280|101:248,1,120.000004577637,2|0,0:0|0:0,0:0:0:0:
211,114,100775,2,0,P|152:107|100:136,1,120.000004577637,2|0,0:0|0:0,0:0:0:0:
256,192,101221,2,0,L|322:196,1,60.0000022888184,2|0,0:0|0:0,0:0:0:0:
420,159,101518,6,0,B|423:132|423:132|415:114|415:114|420:103|420:103|409:85|409:85|408:61|408:61|387:121|405:195,1,240.000009155274,2|0,0:0|3:0,0:0:0:0:
405,195,102409,2,0,L|471:191,1,60.0000022888184,2|0,0:0|0:0,0:0:0:0:
399,293,102706,6,0,B|343:285|343:285|241:306,1,160,6|0,0:0|0:0,0:0:0:0:
108,333,103151,1,2,0:0:0:0:
189,233,103300,1,0,0:0:0:0:
57,198,103448,1,2,0:0:0:0:
182,82,103597,2,0,L|229:146,1,80,8|0,0:0|0:0,0:0:0:0:
101,79,103894,6,0,P|139:13|216:12,1,160,2|0,0:0|0:0,0:0:0:0:
331,67,104339,1,2,0:0:0:0:
229,146,104488,1,0,0:0:0:0:
350,208,104636,1,2,0:0:0:0:
350,208,104711,1,0,0:0:0:0:
350,208,104785,2,0,P|389:212|429:208,1,80,8|0,0:0|0:0,0:0:0:0:
307,316,105082,6,0,B|270:306|229:313|229:313|186:321|147:312,1,160,2|0,0:0|0:0,0:0:0:0:
61,170,105527,2,0,P|138:174|189:233,1,160,2|2,0:0|0:0,0:0:0:0:
28,248,105973,2,0,L|67:93,1,160,8|2,0:0|0:0,0:0:0:0:
67,93,106419,5,0,0:0:0:0:
190,234,106567,2,0,L|270:223,1,80,0|2,0:0|0:0,0:0:0:0:
236,124,106864,2,0,L|315:140,1,80,0|2,0:0|0:0,0:0:0:0:
316,35,107161,2,0,L|385:77,1,80,8|0,0:0|0:0,0:0:0:0:
487,191,107458,6,0,P|420:165|388:230,1,160,6|0,0:0|0:0,0:0:0:0:
348,344,107904,1,2,0:0:0:0:
348,344,108052,2,0,L|268:334,1,80
190,234,108349,2,0,L|110:243,1,80,8|0,0:0|0:0,0:0:0:0:
28,331,108646,5,8,0:0:0:0:
107,340,108794,1,0,0:0:0:0:
190,234,108943,1,8,0:0:0:0:
110,243,109091,1,0,0:0:0:0:
28,145,109240,1,8,0:0:0:0:
107,154,109388,1,0,0:0:0:0:
191,57,109537,1,8,0:0:0:0:
111,66,109685,1,0,0:0:0:0:
224,145,109834,6,0,L|356:89,1,143.999995605469,10|0,0:1|0:0,0:0:0:0:
271,161,110131,6,0,L|376:63,1,143.999995605469,10|0,0:1|0:0,0:0:0:0:
325,162,110428,6,0,L|391:34,1,143.999995605469,10|0,0:1|0:0,0:0:0:0:
380,146,110726,6,0,L|398:3,1,143.999995605469,10|0,0:1|0:0,0:0:0:0:
398,3,111171,5,8,0:0:0:0:
398,3,111245,1,8,0:0:0:0:
398,3,111320,1,8,0:0:0:0:
407,102,111468,1,0,0:0:0:0:
503,68,111617,2,0,L|492:147,1,80,8|0,0:0|3:0,0:0:0:0:
380,146,111914,2,0,L|390:225,1,80,8|0,0:0|3:0,0:0:0:0:
428,338,112211,6,0,B|387:349|342:331|342:331|291:312|256:326,1,176.000005371094,6|0,0:0|0:0,0:0:0:0:
179,208,112656,2,0,P|222:208|265:217,1,88.000002685547,2|0,0:0|0:0,0:0:0:0:
116,313,112953,1,2,0:0:0:0:
52,206,113102,2,0,P|52:162|61:119,1,88.000002685547,8|0,0:0|0:0,0:0:0:0:
179,208,113399,5,2,0:0:0:0:
246,64,113547,2,0,P|203:55|160:56,1,88.000002685547
307,208,113844,1,2,0:0:0:0:
333,56,113992,2,0,P|289:55|246:64,1,88.000002685547,0|2,0:0|0:0,0:0:0:0:
307,208,114290,2,0,P|349:216|393:216,1,88.000002685547,8|0,0:0|0:0,0:0:0:0:
456,98,114587,6,0,B|487:136|524:146|524:146|503:179|523:201|513:235,1,176.000005371094,2|0,0:0|0:0,0:0:0:0:
382,322,115032,1,2,0:0:0:0:
307,208,115181,2,0,P|349:199|393:199,1,88.000002685547,0|2,0:0|0:0,0:0:0:0:
259,333,115478,2,0,P|215:333|172:324,1,88.000002685547,8|0,0:0|0:0,0:0:0:0:
59,236,115775,5,2,0:0:0:0:
155,174,115924,1,0,0:0:0:0:
56,116,116072,1,10,0:0:0:0:
59,327,116221,1,0,0:0:0:0:
166,251,116369,1,2,0:0:0:0:
5,179,116518,1,0,0:0:0:0:
5,179,116592,1,0,0:0:0:0:
5,179,116666,1,8,0:0:0:0:
148,76,116815,1,0,0:0:0:0:
307,207,116963,6,0,P|347:132|320:51,1,176.000005371094,6|0,0:0|0:0,0:0:0:0:
238,121,117409,1,2,0:0:0:0:
399,224,117557,2,0,L|486:217,1,88.000002685547,0|2,0:0|0:0,0:0:0:0:
346,48,117854,2,0,P|363:88|367:131,1,88.000002685547,8|0,0:0|0:0,0:0:0:0:
338,296,118151,5,2,0:0:0:0:
171,250,118300,2,0,P|226:187|307:207,1,176.000005371094,0|2,0:0|0:0,0:0:0:0:
109,335,118745,2,0,L|21:326,2,88.000002685547,0|2|8,0:0|0:0|0:0,0:0:0:0:
223,363,119191,1,0,0:0:0:0:
307,207,119339,6,0,P|226:187|171:250,1,176.000005371094,2|0,0:0|0:0,0:0:0:0:
223,363,119785,1,2,0:0:0:0:
307,207,119933,2,0,P|313:164|307:121,1,88.000002685547,0|2,0:0|0:0,0:0:0:0:
158,27,120230,2,0,P|151:70|157:113,1,88.000002685547,8|0,0:0|0:0,0:0:0:0:
194,184,120453,1,0,0:0:0:0:
194,184,120527,6,0,P|132:143|71:184,1,155.999992858887,10|0,0:1|0:0,0:0:0:0:
12,246,120825,6,0,P|79:217|132:268,1,155.999992858887,10|0,0:1|0:0,0:0:0:0:
215,282,121122,6,0,P|143:265|99:324,1,155.999992858887,10|0,0:1|0:0,0:0:0:0:
224,363,121419,6,0,B|258:354|258:354|344:363|344:363|377:351,1,155.999992858887,10|0,0:1|0:0,0:0:0:0:
499,315,121716,6,0,P|424:284|376:351,1,176.000005371094,6|0,0:0|0:0,0:0:0:0:
369,212,122161,2,0,P|333:236|309:272,1,88.000002685547,2|0,0:0|0:0,0:0:0:0:
458,203,122458,2,0,P|455:159|435:120,2,88.000002685547,2|8|0,0:0|0:0|0:0,0:0:0:0:
308,272,122904,5,2,0:0:0:0:
167,197,123052,2,0,P|170:153|190:114,1,88.000002685547
274,39,123349,1,2,0:0:0:0:
284,190,123498,1,0,0:0:0:0:
165,99,123646,1,2,0:0:0:0:
303,15,123795,2,0,P|322:53|325:97,1,88.000002685547,8|0,0:0|0:0,0:0:0:0:
229,256,124092,6,0,L|52:237,1,176.000005371094,2|0,0:0|0:0,0:0:0:0:
160,343,124537,1,2,0:0:0:0:
160,343,124686,2,0,L|247:333,1,88.000002685547,0|2,0:0|0:0,0:0:0:0:
362,211,124983,2,0,P|399:233|432:262,1,88.000002685547,8|0,0:0|0:0,0:0:0:0:
247,332,125280,5,2,0:0:0:0:
284,190,125428,1,0,0:0:0:0:
332,283,125577,1,10,0:0:0:0:
203,179,125726,1,0,0:0:0:0:
321,48,125874,1,2,0:0:0:0:
385,126,126023,1,0,0:0:0:0:
385,126,126097,1,0,0:0:0:0:
385,126,126171,1,8,0:0:0:0:
284,190,126320,1,0,0:0:0:0:
209,70,126468,6,0,L|114:86,1,95.9999970703126,6|0,0:0|0:0,0:0:0:0:
115,87,126765,5,2,0:0:0:0:
115,87,126914,2,0,B|109:153|109:153|120:196|120:196|108:260,1,176.000005371094,8|2,0:0|0:0,0:0:0:0:
94,373,127359,1,8,0:0:0:0:
214,313,127508,1,0,0:0:0:0:
320,384,127656,6,0,L|414:367,1,95.9999970703126,6|0,0:0|0:0,0:0:0:0:
415,368,127953,5,2,0:0:0:0:
415,368,128102,2,0,B|409:302|409:302|420:259|420:259|408:193,1,176.000005371094,8|2,0:0|0:0,0:0:0:0:
277,83,128547,2,0,L|264:170,1,88.000002685547,8|0,0:0|0:0,0:0:0:0:
450,263,128844,6,0,L|435:168,1,95.9999970703126,6|0,0:0|0:0,0:0:0:0:
436,169,129141,5,2,0:0:0:0:
436,169,129290,2,0,B|396:186|352:172|352:172|306:156|264:170,1,176.000005371094,8|2,0:0|0:0,0:0:0:0:
167,71,129735,2,0,P|136:101|113:138,1,88.000002685547,8|0,0:0|0:0,0:0:0:0:
32,268,130032,6,0,P|89:240|137:280,1,132.00000402832,8|0,0:0|0:0,0:0:0:0:
190,343,130329,2,0,L|322:343,1,132.00000402832,8|0,0:0|0:0,0:0:0:0:
479,268,130627,2,0,P|422:240|374:280,1,132.00000402832,8|0,0:0|0:0,0:0:0:0:
322,343,130924,2,0,L|190:343,1,132.00000402832,8|0,0:0|0:0,0:0:0:0:
190,343,131221,5,12,0:0:0:0:
256,192,131369,1,2,0:0:0:0:
256,192,131443,1,2,0:0:0:0:
256,192,131518,1,2,0:0:0:0:
168,71,131666,2,0,L|141:158,1,88.000002685547,8|0,0:0|0:0,0:0:0:0:
370,155,131963,2,0,L|344:71,1,88.000002685547,8|0,0:0|0:0,0:0:0:0:
256,8,132260,6,0,B|251:41|251:41|260:77|260:77|251:112|251:112|260:143|260:143|251:175|251:175|260:212|260:212|252:244|252:244|259:277|259:277|251:312|251:312|256:350,1,352.000010742188,12|0,0:0|3:0,0:0:0:0:
394,232,133003,6,0,L|368:317,1,88.000002685547,8|8,0:0|0:0,0:0:0:0:
144,317,133300,2,0,L|118:232,1,88.000002685547,2|2,0:0|0:0,0:0:0:0:
87,84,133597,5,6,0:0:0:0:
79,85,133745,1,0,0:0:0:0:
71,86,133894,1,0,0:0:0:0:
63,87,134042,1,2,0:0:0:0:
55,89,134191,2,0,B|111:86|111:86|154:100|154:100|212:96,1,160,0|8,0:0|0:0,0:0:0:0:
385,69,134636,1,0,0:0:0:0:
310,15,134785,6,0,L|303:94,1,80,2|0,0:0|0:0,0:0:0:0:
263,170,135082,2,0,L|270:250,1,80,0|2,0:0|0:0,0:0:0:0:
460,295,135379,2,0,P|384:276|321:321,1,160,0|8,0:0|0:0,0:0:0:0:
405,370,135825,1,0,0:0:0:0:
502,233,135973,6,0,P|430:202|351:206,1,160,2|0,0:0|0:0,0:0:0:0:
164,288,136419,2,0,P|227:240|264:170,1,160,2|0,0:0|0:0,0:0:0:0:
200,43,136864,1,8,0:0:0:0:
130,160,137013,1,0,0:0:0:0:
203,29,137161,6,0,L|277:84,1,80,2|0,0:0|0:0,0:0:0:0:
125,173,137458,2,0,L|34:174,1,80,10|0,0:0|0:0,0:0:0:0:
207,18,137755,2,0,L|281:73,1,80,2|0,0:0|0:0,0:0:0:0:
123,183,138052,2,0,L|3:184,1,120,8|0,0:0|0:0,0:0:0:0:
3,184,138349,6,0,P|12:222|12:262,1,80,4|0,0:0|0:0,0:0:0:0:
256,360,138795,2,0,L|256:272,1,80,4|0,0:0|0:0,0:0:0:0:
508,184,139240,2,0,P|499:222|499:262,1,80,8|0,0:0|0:0,0:0:0:0:
342,170,139537,5,2,0:0:0:0:
342,170,139686,1,0,0:0:0:0:
394,91,139834,2,0,P|422:118|436:155,1,80,8|2,0:0|0:0,0:0:0:0:
267,234,140131,1,0,0:0:0:0:
267,234,140280,1,0,0:0:0:0:
273,135,140428,2,0,P|310:144|341:169,1,80,8|0,0:0|0:0,0:0:0:0:
172,253,140726,6,0,B|51:246|51:246|77:274,1,160,6|0,0:0|0:0,0:0:0:0:
244,323,141171,2,0,B|365:316|365:316|338:344,1,160,6|0,0:0|0:0,0:0:0:0:
166,380,141617,2,0,L|86:372,1,80,8|0,0:0|0:0,0:0:0:0:
39,191,141914,6,0,B|68:232|68:232|171:253,1,155.999992858887,4|0,0:0|0:0,0:0:0:0:
88,133,142211,6,0,B|92:183|92:183|171:253,1,155.999992858887,4|0,0:0|0:0,0:0:0:0:
160,107,142508,6,0,B|138:152|138:152|172:253,1,155.999992858887,4|0,0:0|0:0,0:0:0:0:
235,120,142805,6,0,B|193:149|193:149|172:252,1,155.999992858887,4|0,0:0|0:0,0:0:0:0:
271,194,143102,6,0,L|253:275,1,80,6|0,0:0|0:0,0:0:0:0:
403,149,143399,2,0,L|421:230,1,80,0|2,0:0|0:0,0:0:0:0:
252,48,143696,2,0,L|217:204,1,160,0|8,0:0|0:0,0:0:0:0:
184,333,144141,1,0,0:0:0:0:
332,274,144290,6,0,P|293:267|253:272,1,80,2|0,0:0|0:0,0:0:0:0:
347,373,144587,1,0,0:0:0:0:
407,250,144735,2,0,P|367:256|331:274,1,80,2|0,0:0|0:0,0:0:0:0:
492,286,145032,2,0,P|495:246|490:206,1,80,0|8,0:0|0:0,0:0:0:0:
401,58,145329,1,0,0:0:0:0:
403,149,145478,6,0,P|441:141|474:118,1,80,2|0,0:0|0:0,0:0:0:0:
333,1,145775,2,0,P|313:35|310:75,1,80,0|2,0:0|0:0,0:0:0:0:
296,184,146072,2,0,B|272:174|272:174|218:183,1,80
131,87,146369,2,0,B|155:77|155:77|208:86,1,80,8|0,0:0|0:0,0:0:0:0:
67,213,146666,6,0,L|63:129,1,80,4|0,0:0|0:0,0:0:0:0:
223,263,146963,2,0,L|219:179,1,80,4|0,0:0|0:0,0:0:0:0:
146,328,147260,2,0,L|142:244,1,80,4|0,0:0|0:0,0:0:0:0:
302,378,147557,2,0,L|298:294,1,80,8|0,0:0|0:0,0:0:0:0:
296,184,147854,6,0,B|345:193|345:193|405:183|405:183|453:194,1,160,6|0,0:0|0:0,0:0:0:0:
296,97,148300,2,0,B|345:106|345:106|405:96|405:96|453:107,1,160,2|0,0:0|0:0,0:0:0:0:
296,13,148745,2,0,B|345:24|345:24|390:15,1,95.9999970703126,8|0,0:0|0:0,0:0:0:0:
216,184,149042,6,0,B|167:193|167:193|107:183|107:183|58:194,1,160,6|0,0:0|0:0,0:0:0:0:
216,97,149488,2,0,B|167:106|167:106|107:96|107:96|58:107,1,160,2|0,0:0|0:0,0:0:0:0:
216,13,149933,2,0,B|167:24|167:24|118:17,1,95.9999970703126,8|0,0:0|0:0,0:0:0:0:
58,194,150230,6,0,B|107:183|107:183|167:193|167:193|216:184,1,160,6|0,0:0|0:0,0:0:0:0:
58,280,150676,2,0,B|106:268|106:268|166:278|166:278|215:269,1,160,2|0,0:0|0:0,0:0:0:0:
58,363,151122,2,0,B|110:352|110:352|153:360,1,95.9999970703126,8|0,0:0|0:0,0:0:0:0:
453,194,151419,6,0,B|405:183|405:183|345:193|345:193|296:184,1,160,6|0,0:0|0:0,0:0:0:0:
454,280,151864,2,0,B|405:268|405:268|345:278|345:278|296:269,1,160,2|0,0:0|0:0,0:0:0:0:
454,363,152311,2,0,B|402:352|402:352|359:360,1,95.9999970703126,8|0,0:0|0:0,0:0:0:0:
255,381,152607,6,0,L|255:221,1,160,6|0,0:0|0:0,0:0:0:0:
196,82,153052,2,0,B|149:63|149:63|184:166,1,160,2|0,0:0|0:0,0:0:0:0:
316,82,153498,2,0,B|363:63|363:63|327:166,1,160,10|4,0:0|0:0,0:0:0:0:
327,166,154092,5,8,0:0:0:0:
184,166,154240,1,0,3:0:0:0:
316,82,154389,1,8,0:0:0:0:
255,221,154537,1,0,3:0:0:0:
196,82,154686,1,8,0:0:0:0:
395,115,154834,1,0,3:0:0:0:
115,111,154983,5,12,0:0:0:0:
255,19,155280,1,8,0:0:0:0:
255,19,155428,1,8,0:0:0:0:
395,115,155726,1,8,0:0:0:0:
255,135,156023,6,2,B|261:160|253:189|253:189|264:220|264:220|253:252|253:252|259:273|259:273|252:303|257:329,1,200,14|8,0:1|0:3,0:1:0:0:
257,329,157359,6,0,B|244:336|244:336|228:328|228:328|196:340|176:333|143:343,1,120.000004577637,2|0,0:0|0:0,0:0:0:0:
80,232,157805,2,0,B|93:238|93:238|109:230|109:230|141:242|161:235|194:245,1,120.000004577637,2|0,0:0|0:0,0:0:0:0:
255,135,158250,2,0,P|225:138|198:151,1,60.0000022888184,2|0,0:0|0:0,0:0:0:0:
324,193,158547,6,0,P|343:137|329:80,1,120.000004577637,2|0,0:0|0:0,0:0:0:0:
324,193,158993,2,0,P|382:182|424:140,1,120.000004577637,2|0,0:0|0:0,0:0:0:0:
324,193,159438,2,0,P|342:216|369:228,1,60.0000022888184,2|0,0:0|0:0,0:0:0:0:
457,320,159735,6,0,B|411:317|370:339|370:339|357:367,1,120.000004577637,2|0,0:0|0:0,0:0:0:0:
205,280,160181,2,0,B|256:247|256:247|306:277,1,120.000004577637,2|0,0:0|0:0,0:0:0:0:
154,367,160627,2,0,L|129:313,1,60.0000022888184,2|0,0:0|0:0,0:0:0:0:
91,213,160924,6,0,B|63:215|63:215|48:227|48:227|36:224|36:224|20:239|20:239|-2:245|-2:245|60:253|129:220,1,240.000009155274,2|0,0:0|3:0,0:0:0:0:
129,220,161815,2,0,L|139:155,1,60.0000022888184,2|0,0:0|0:0,0:0:0:0:
237,60,162112,6,0,B|241:140|241:140|273:212,1,160,6|0,0:0|0:0,0:0:0:0:
138,160,162557,1,2,0:0:0:0:
237,60,162706,2,0,P|276:62|313:77,1,80,0|2,0:0|0:0,0:0:0:0:
405,144,163003,2,0,P|444:141|481:126,1,80,8|0,0:0|0:0,0:0:0:0:
371,36,163300,6,0,L|345:193,1,160,2|0,0:0|0:0,0:0:0:0:
316,328,163745,1,2,0:0:0:0:
407,276,163894,1,0,0:0:0:0:
272,209,164042,1,2,0:0:0:0:
272,209,164117,1,0,0:0:0:0:
272,209,164191,1,8,0:0:0:0:
200,302,164339,1,0,0:0:0:0:
134,202,164488,6,0,B|162:198|182:169|182:169|213:197|244:185|272:209,1,160
407,276,164933,2,0,B|389:253|354:250|354:250|363:210|337:189|344:152,1,160,0|2,0:0|0:0,0:0:0:0:
334,1,165379,2,0,B|323:27|338:59|338:59|298:71|293:104|258:117,1,160,8|2,0:0|0:0,0:0:0:0:
134,202,165825,1,0,0:0:0:0:
148,81,165973,6,0,P|173:111|191:146,1,80,0|2,0:0|0:0,0:0:0:0:
63,167,166270,2,0,P|99:180|132:201,1,80,0|2,0:0|0:0,0:0:0:0:
17,274,166567,2,0,P|55:267|94:269,1,80,8|0,0:0|0:0,0:0:0:0:
218,347,166864,6,0,P|177:292|242:273,1,160,6|0,0:0|0:0,0:0:0:0:
337,316,167310,1,2,0:0:0:0:
428,265,167458,2,0,P|430:226|423:186,1,80,0|2,0:0|0:0,0:0:0:0:
316,113,167755,2,0,P|309:152|311:192,1,80,8|0,0:0|0:0,0:0:0:0:
404,59,168052,5,8,0:0:0:0:
404,59,168201,1,0,0:0:0:0:
316,113,168349,1,8,0:0:0:0:
316,113,168498,1,0,0:0:0:0:
223,160,168646,1,8,0:0:0:0:
223,160,168795,1,0,0:0:0:0:
130,206,168943,1,8,0:0:0:0:
130,206,169092,1,0,0:0:0:0:
37,251,169240,6,0,B|145:244|145:244|106:272,1,155.999992858887,10|0,0:1|0:0,0:0:0:0:
130,206,169537,6,0,B|237:198|237:198|199:226,1,155.999992858887,10|0,0:1|0:0,0:0:0:0:
223,160,169834,6,0,B|330:152|330:152|292:180,1,155.999992858887,10|0,0:1|0:0,0:0:0:0:
316,113,170131,6,0,B|423:105|423:105|385:133,1,155.999992858887,10|0,0:1|0:0,0:0:0:0:
37,251,170726,5,0,3:0:0:0:
130,206,170875,1,2,0:0:0:0:
223,160,171023,1,8,0:0:0:0:
368,158,179933,6,0,L|354:214,1,47.9999985351563,8|0,0:0|0:0,0:0:0:0:
352,216,180230,6,0,L|336:153,1,64,8|0,0:0|0:0,0:0:0:0:
333,144,180528,6,0,L|313:221,1,80,8|0,0:0|0:0,0:0:0:0:
309,235,180825,6,0,L|283:134,1,95.9999970703126,8|0,0:0|0:0,0:0:0:0:
285,131,181122,6,0,L|257:239,1,111.999996582031,8|0,0:0|0:0,0:0:0:0:
255,252,181419,6,0,L|223:127,1,128,8|0,0:0|0:0,0:0:0:0:
222,114,181716,6,0,L|187:253,1,143.999995605469,8|0,0:0|0:0,0:0:0:0:
184,267,182013,6,0,L|145:111,1,160,8|0,0:0|0:0,0:0:0:0:
145,101,183498,6,0,L|113:274,1,176.000005371094,6|0,0:0|0:0,0:0:0:0:
33,124,183943,2,0,L|28:211,1,88.000002685547,2|0,0:0|0:0,0:0:0:0:
145,101,184240,1,2,0:0:0:0:
4,26,184389,2,0,L|8:113,1,88.000002685547,8|0,0:0|0:0,0:0:0:0:
48,240,184686,5,2,0:0:0:0:
219,134,184834,2,0,L|131:121,1,88.000002685547
289,25,185131,1,2,0:0:0:0:
289,25,185280,2,0,P|323:52|343:90,1,88.000002685547
392,203,185577,1,8,0:0:0:0:
216,276,185726,1,0,0:0:0:0:
302,353,185874,6,0,B|324:294|312:222|312:222|321:248|334:257,1,176.000005371094,2|0,0:0|0:0,0:0:0:0:
476,244,186320,1,2,0:0:0:0:
476,96,186468,2,0,L|388:101,1,88.000002685547,0|2,0:0|0:0,0:0:0:0:
311,200,186765,2,0,L|223:194,1,88.000002685547,8|0,0:0|0:0,0:0:0:0:
75,218,187062,5,2,0:0:0:0:
166,90,187211,1,0,0:0:0:0:
94,252,187359,1,8,0:0:0:0:
83,50,187508,1,0,0:0:0:0:
111,293,187656,1,2,0:0:0:0:
223,194,187805,1,0,0:0:0:0:
223,194,187879,1,0,0:0:0:0:
223,194,187953,1,8,0:0:0:0:
42,133,188102,1,0,0:0:0:0:
217,16,188250,6,0,B|260:56|249:117|249:117|275:97|309:95,1,176.000005371094,6|0,0:0|0:0,0:0:0:0:
398,207,188696,2,0,P|354:207|310:199,1,88.000002685547,2|0,0:0|0:0,0:0:0:0:
406,109,188993,1,2,0:0:0:0:
448,317,189141,2,0,P|404:309|363:294,1,88.000002685547,8|0,0:0|0:0,0:0:0:0:
223,194,189438,5,2,0:0:0:0:
302,333,189587,2,0,B|312:280|298:268|308:204|308:204|301:232|286:245,1,176.000005371094,0|2,0:0|0:0,0:0:0:0:
158,277,190032,2,0,P|115:284|72:275,1,88.000002685547,0|2,0:0|0:0,0:0:0:0:
73,90,190329,2,0,P|116:82|165:94,1,88.000002685547,8|0,0:0|0:0,0:0:0:0:
223,194,190552,1,0,0:0:0:0:
223,194,190627,6,0,L|48:179,1,176.000005371094,2|0,0:0|0:0,0:0:0:0:
216,343,191072,1,2,0:0:0:0:
272,177,191221,2,0,L|184:169,1,88.000002685547,0|2,0:0|0:0,0:0:0:0:
369,71,191518,2,0,P|382:112|386:156,1,88.000002685547,8|0,0:0|0:0,0:0:0:0:
386,259,191740,1,0,0:0:0:0:
386,259,191815,6,0,P|406:201|352:229,1,155.999992858887,10|0,0:1|0:0,0:0:0:0:
343,228,192112,6,0,P|407:193|396:265,1,180.000006866455,10|0,0:1|0:0,0:0:0:0:
409,268,192409,6,0,P|406:184|337:232,1,204.000003890991,10|0,0:1|0:0,0:0:0:0:
327,217,192706,6,0,P|417:184|412:280,1,227.999993911743,10|0,0:1|0:0,0:0:0:0:
301,331,193003,6,0,B|257:335|207:325|207:325|166:317|125:327,1,176.000005371094,6|0,0:0|0:0,0:0:0:0:
28,365,193448,1,2,0:0:0:0:
10,228,193597,2,0,P|53:232|94:248,1,88.000002685547,0|2,0:0|0:0,0:0:0:0:
219,153,193894,2,0,P|175:157|134:173,1,88.000002685547,8|0,0:0|0:0,0:0:0:0:
256,255,194191,5,2,0:0:0:0:
256,255,194339,2,0,L|263:79,1,176.000005371094,0|2,0:0|0:0,0:0:0:0:
365,222,194785,1,0,0:0:0:0:
389,119,194933,1,2,0:0:0:0:
450,281,195082,1,8,0:0:0:0:
501,189,195230,1,0,0:0:0:0:
341,349,195379,6,0,B|301:360|256:347|256:347|257:354|257:354|217:336|176:348,1,176.000005371094,2|0,0:0|0:0,0:0:0:0:
58,276,195825,1,2,0:0:0:0:
166,163,195973,2,0,P|179:204|185:248,1,88.000002685547,0|2,0:0|0:0,0:0:0:0:
39,131,196270,2,0,P|45:87|58:45,1,88.000002685547,8|0,0:0|0:0,0:0:0:0:
58,276,196567,5,2,0:0:0:0:
261,200,196716,1,0,0:0:0:0:
123,328,196864,1,8,0:0:0:0:
331,229,197013,1,0,0:0:0:0:
123,103,197161,1,2,0:0:0:0:
50,357,197310,1,0,0:0:0:0:
50,357,197384,1,0,0:0:0:0:
50,357,197458,1,8,0:0:0:0:
274,281,197607,1,0,0:0:0:0:
108,208,197755,6,0,P|61:198|14:206,1,95.9999970703126,6|0,0:0|0:0,0:0:0:0:
15,207,198052,5,2,0:0:0:0:
15,207,198201,2,0,B|44:83|44:83|41:113|48:131,1,176.000005371094,8|2,0:0|0:0,0:0:0:0:
208,198,198646,2,0,P|251:204|295:199,1,88.000002685547,8|0,0:0|0:0,0:0:0:0:
405,27,198943,6,0,P|357:18|310:22,1,95.9999970703126,6|0,0:0|0:0,0:0:0:0:
311,23,199240,5,2,0:0:0:0:
311,23,199389,2,0,L|295:198,1,176.000005371094,8|2,0:0|0:0,0:0:0:0:
430,256,199834,2,0,P|389:272|354:299,1,88.000002685547,8|0,0:0|0:0,0:0:0:0:
241,365,200131,6,0,P|193:363|145:355,1,95.9999970703126,6|0,0:0|0:0,0:0:0:0:
146,356,200428,5,2,0:0:0:0:
146,356,200577,2,0,B|153:268|153:268|106:279|66:267,1,176.000005371094,8|2,0:0|0:0,0:0:0:0:
255,156,201023,2,0,L|255:243,1,88.000002685547,8|0,0:0|0:0,0:0:0:0:
191,84,201320,5,8,0:0:0:0:
148,183,201468,1,0,0:0:0:0:
321,84,201617,1,8,0:0:0:0:
364,183,201765,1,0,0:0:0:0:
173,38,201914,1,8,0:0:0:0:
428,128,202062,1,0,0:0:0:0:
88,128,202211,1,8,0:0:0:0:
339,38,202359,1,0,0:0:0:0:
255,243,202508,6,0,L|255:156,1,88.000002685547,6|8,0:0|0:0,0:0:0:0:
255,155,202730,1,2,0:0:0:0:
255,155,202805,1,2,0:0:0:0:
425,337,202953,2,0,P|381:333|338:324,1,88.000002685547,8|0,0:0|0:0,0:0:0:0:
87,337,203250,2,0,P|130:333|173:324,1,88.000002685547,8|0,0:0|0:0,0:0:0:0:
255,67,203547,6,0,L|255:243,1,176.000005371094,12|2,0:0|0:0,0:0:0:0:
256,360,203993,1,8,0:0:0:0:
256,360,204141,1,2,0:0:0:0:
330,253,204290,1,8,0:0:0:0:
330,253,204438,1,2,0:0:0:0:
177,177,204587,1,8,0:0:0:0:
177,177,204735,1,2,0:0:0:0:
331,117,204884,6,0,P|370:117|409:128,1,80,6|0,0:0|0:0,0:0:0:0:
177,177,205181,2,0,P|137:177|98:167,1,80,0|2,0:0|0:0,0:0:0:0:
330,253,205478,1,0,0:0:0:0:
256,360,205627,1,0,0:0:0:0:
177,177,205775,1,8,0:0:0:0:
350,31,205924,6,0,P|384:50|412:79,1,80,0|2,0:0|0:0,0:0:0:0:
177,177,206221,2,0,P|137:177|98:187,1,80
335,314,206518,2,0,B|403:315|459:277|459:277|455:294|449:303,1,160,2|0,0:0|0:0,0:0:0:0:
255,359,206963,2,0,P|249:320|256:281,1,80,8|0,0:0|0:0,0:0:0:0:
331,117,207260,5,2,0:0:0:0:
331,117,207409,1,0,0:0:0:0:
264,200,207557,1,0,0:0:0:0:
149,93,207706,1,2,0:0:0:0:
347,38,207854,2,0,L|330:121,1,80
193,255,208151,2,0,L|176:176,1,80,8|0,0:0|0:0,0:0:0:0:
84,32,208448,6,0,B|58:83|71:135|71:135|55:118|40:112,1,143.999995605469,4|0,0:0|0:0,0:0:0:0:
31,116,208745,6,0,B|56:135|68:160|68:160|57:189|71:210|61:245,1,143.999995605469,4|0,0:0|0:0,0:0:0:0:
60,254,209042,6,0,B|62:233|74:210|74:210|64:271|73:306,1,143.999995605469,4|0,0:0|0:0,0:0:0:0:
79,314,209339,6,0,B|108:313|139:328|139:328|150:323|150:323|182:339|218:330,1,143.999995605469,4|0,0:0|0:0,0:0:0:0:
252,204,209636,6,0,P|216:222|192:254,1,80,6|0,0:0|0:0,0:0:0:0:
341,218,209933,2,0,P|342:178|327:141,1,80,0|2,0:0|0:0,0:0:0:0:
283,287,210230,1,0,0:0:0:0:
283,287,210379,2,0,P|316:308|355:313,1,80,0|8,0:0|0:0,0:0:0:0:
405,116,210676,2,0,P|365:121|332:142,1,80,0|6,0:0|0:0,0:0:0:0:
433,254,210973,5,2,0:0:0:0:
433,254,211047,1,2,0:0:0:0:
433,254,211122,1,10,0:0:0:0:
488,163,211270,1,2,0:0:0:0:
433,254,211419,1,8,0:0:0:0:
309,86,211567,1,2,0:0:0:0:
341,218,211716,1,8,0:0:0:0:
208,90,211864,1,2,0:0:0:0:
239,209,212013,5,6,0:0:0:0:
309,86,212161,1,0,0:0:0:0:
309,86,212235,1,0,0:0:0:0:
309,86,212310,1,8,0:0:0:0:
143,21,212458,2,0,P|126:57|120:96,1,80,4|0,0:0|0:0,0:0:0:0:
34,163,212755,2,0,P|50:199|56:238,1,80,4|0,0:0|0:0,0:0:0:0:
44,349,213052,1,10,0:0:0:0:
44,349,213201,6,0,B|90:337|90:337|156:351|156:351|199:341,1,160,4|8,0:0|0:0,0:0:0:0:
239,209,213646,2,0,P|291:236|325:285,1,120,4|0,0:0|0:0,0:0:0:0:
330,321,213943,1,10,0:0:0:0:
466,203,214092,2,0,P|426:206|388:220,1,80,2|0,0:0|0:0,0:0:0:0:
462,326,214389,5,14,0:0:0:0:
512,113,214537,1,6,0:0:0:0:
462,326,214834,5,6,0:0:0:0:
512,113,215131,1,6,0:0:0:0:
295,181,215428,2,0,B|247:190|202:181|202:181|233:210|239:249|225:287,1,210.000008010865,4|0,0:1|0:0,0:0:0:0:
116,266,216023,6,0,P|140:226|149:272,1,120,2|0,0:0|0:0,0:0:0:0:
