osu file format v14

[General]
AudioFilename: Yokomin feat. Yuzuki Yukari - Proof.mp3
AudioLeadIn: 0
PreviewTime: 65660
Countdown: 0
SampleSet: Soft
StackLeniency: 0.7
Mode: 3
LetterboxInBreaks: 0
SpecialStyle: 0
WidescreenStoryboard: 0

[Editor]
DistanceSpacing: 1.3
BeatDivisor: 4
GridSize: 4
TimelineZoom: 1.2

[Metadata]
Title:Proof -Album ver-
TitleUnicode:Proof -Album ver-
Artist:Yokomin
ArtistUnicode:Yokomin
Creator:[ A v a l o n ]
Version:Easy
Source:
Tags:Vocaloid feat. 結月ゆかり Yuzuki Yukari かずち Kazuchi Yokomin8005 よこミンP YokominP
BeatmapID:1016362
BeatmapSetID:465705

[Difficulty]
HPDrainRate:6.5
CircleSize:4
OverallDifficulty:7
ApproachRate:5
SliderMultiplier:1.4
SliderTickRate:1

[Events]
//Background and Video events
0,0,"01.jpg",0,0
//Break Periods
//Storyboard Layer 0 (Background)
//Storyboard Layer 1 (Fail)
//Storyboard Layer 2 (Pass)
//Storyboard Layer 3 (Foreground)
//Storyboard Sound Samples

[TimingPoints]
8,434.782608695652,4,2,1,55,1,0
20877,-100,4,2,1,40,0,0
27834,-100,4,2,1,55,0,0
66094,-100,4,2,1,55,0,1
93921,-100,4,2,1,55,0,0

[HitObjects]
448,192,8,128,0,2616:0:0:0:0:
320,192,2616,128,0,3486:0:0:0:0:
192,192,3486,128,0,6094:0:0:0:0:
64,192,6094,128,0,6964:0:0:0:0:
320,192,6964,128,0,8703:0:0:0:0:
192,192,8703,128,0,10442:0:0:0:0:
448,192,10442,128,0,13486:0:0:0:0:
320,192,13268,128,2,13486:0:0:0:0:
64,192,13486,1,8,0:0:0:0:
192,192,13486,1,0,0:0:0:0:
320,192,13921,1,4,0:0:0:0:
448,192,13921,1,2,0:0:0:0:
320,192,14355,1,0,0:0:0:0:
448,192,14790,1,8,0:0:0:0:
64,192,14790,1,0,0:0:0:0:
192,192,15225,1,2,0:0:0:0:
192,192,15660,1,0,0:0:0:0:
64,192,16094,128,2,16529:0:0:0:0:
192,192,16529,1,8,0:0:0:0:
448,192,16529,128,0,16964:0:0:0:0:
320,192,16964,1,2,0:0:0:0:
448,192,17399,1,2,0:0:0:0:
64,192,17399,1,4,0:0:0:0:
192,192,17834,1,0,0:0:0:0:
64,192,18268,1,8,0:0:0:0:
448,192,18268,1,0,0:0:0:0:
320,192,18703,1,2,0:0:0:0:
320,192,19138,1,0,0:0:0:0:
192,192,19573,1,8,0:0:0:0:
64,192,19573,1,0,0:0:0:0:
448,192,20007,128,2,20442:0:0:0:0:
64,192,20442,128,0,20877:0:0:0:0:
192,192,20442,1,8,0:0:0:0:
320,192,20877,1,2,0:0:0:0:
448,192,20877,1,4,0:0:0:0:
320,192,21312,1,0,0:0:0:0:
64,192,21747,1,8,0:0:0:0:
448,192,21747,1,0,0:0:0:0:
192,192,22181,1,2,0:0:0:0:
192,192,22616,1,0,0:0:0:0:
448,192,23051,128,2,23486:0:0:0:0:
64,192,23486,1,8,0:0:0:0:
192,192,23486,1,0,0:0:0:0:
320,192,23921,1,2,0:0:0:0:
448,192,24355,1,4,0:0:0:0:
64,192,24355,1,2,0:0:0:0:
192,192,24790,1,0,0:0:0:0:
320,192,25225,1,8,0:0:0:0:
448,192,25225,1,0,0:0:0:0:
64,192,25660,1,2,0:0:0:0:
320,192,26094,1,0,0:0:0:0:
192,192,26529,128,2,26964:0:0:0:0:
64,192,26964,1,8,0:0:0:0:
448,192,26964,1,0,0:0:0:0:
64,192,27399,1,4,0:0:0:0:
448,192,27399,1,8,0:0:0:0:
320,192,27616,1,6,0:0:0:0:
64,192,27834,1,2,0:0:0:0:
448,192,27834,1,4,0:0:0:0:
192,192,28268,1,0,0:0:0:0:
320,192,28703,1,8,0:0:0:0:
448,192,28703,1,0,0:0:0:0:
64,192,29138,1,2,0:0:0:0:
320,192,29573,1,0,0:0:0:0:
192,192,30007,1,0,0:0:0:0:
64,192,30442,1,8,0:0:0:0:
448,192,30442,1,0,0:0:0:0:
320,192,30877,1,2,0:0:0:0:
192,192,31312,1,2,0:0:0:0:
64,192,31312,1,4,0:0:0:0:
448,192,31747,1,0,0:0:0:0:
192,192,32181,1,8,0:0:0:0:
320,192,32181,1,0,0:0:0:0:
64,192,32616,1,2,0:0:0:0:
448,192,33051,1,0,0:0:0:0:
192,192,33486,1,8,0:0:0:0:
320,192,33486,1,0,0:0:0:0:
64,192,33921,128,8,34355:0:0:0:0:
448,192,34355,1,8,0:0:0:0:
320,192,34573,1,2,0:0:0:0:
64,192,34790,1,4,0:0:0:0:
192,192,34790,128,2,36529:0:0:0:0:
448,192,36529,1,8,0:0:0:0:
448,192,36747,1,8,0:0:0:0:
64,192,36964,128,2,37399:0:0:0:0:
320,192,37399,128,2,37834:0:0:0:0:
192,192,37834,128,8,38268:0:0:0:0:
320,192,38268,1,2,0:0:0:0:
448,192,38268,1,4,0:0:0:0:
320,192,38703,1,8,0:0:0:0:
192,192,38703,1,0,0:0:0:0:
448,192,39138,1,8,0:0:0:0:
64,192,39138,1,0,0:0:0:0:
320,192,39573,1,8,0:0:0:0:
64,192,39573,1,0,0:0:0:0:
192,192,40007,1,8,0:0:0:0:
448,192,40007,1,0,0:0:0:0:
320,192,40442,1,8,0:0:0:0:
448,192,40442,1,0,0:0:0:0:
64,192,40877,1,8,0:0:0:0:
192,192,40877,1,0,0:0:0:0:
64,192,41312,1,8,0:0:0:0:
448,192,41312,1,0,0:0:0:0:
192,192,41529,1,8,0:0:0:0:
320,192,41747,1,8,0:0:0:0:
64,192,41747,1,4,0:0:0:0:
192,192,42181,1,8,0:0:0:0:
448,192,42181,1,0,0:0:0:0:
320,192,42616,1,8,0:0:0:0:
192,192,42616,1,0,0:0:0:0:
320,192,43051,1,8,0:0:0:0:
64,192,43051,1,0,0:0:0:0:
448,192,43486,1,8,0:0:0:0:
64,192,43486,1,0,0:0:0:0:
320,192,43921,1,8,0:0:0:0:
192,192,43921,1,0,0:0:0:0:
192,192,44355,1,8,0:0:0:0:
448,192,44355,1,0,0:0:0:0:
320,192,44790,1,8,0:0:0:0:
64,192,44790,1,0,0:0:0:0:
192,192,45225,1,4,0:0:0:0:
64,192,45225,1,8,0:0:0:0:
320,192,45660,1,8,0:0:0:0:
448,192,45660,1,0,0:0:0:0:
320,192,46094,1,8,0:0:0:0:
64,192,46094,1,0,0:0:0:0:
448,192,46529,1,8,0:0:0:0:
192,192,46529,1,0,0:0:0:0:
320,192,46964,1,8,0:0:0:0:
192,192,46964,1,0,0:0:0:0:
320,192,47399,1,8,0:0:0:0:
64,192,47399,1,0,0:0:0:0:
64,192,47834,1,8,0:0:0:0:
192,192,47834,1,0,0:0:0:0:
448,192,48268,1,8,0:0:0:0:
64,192,48268,1,0,0:0:0:0:
320,192,48486,1,8,0:0:0:0:
192,192,48703,1,8,0:0:0:0:
448,192,48703,1,4,0:0:0:0:
64,192,49138,1,8,0:0:0:0:
320,192,49138,1,0,0:0:0:0:
448,192,49573,1,8,0:0:0:0:
64,192,49573,1,0,0:0:0:0:
320,192,50007,1,8,0:0:0:0:
448,192,50007,1,0,0:0:0:0:
192,192,50442,1,2,0:0:0:0:
64,192,50442,1,4,0:0:0:0:
448,192,50660,128,8,51529:0:0:0:0:
320,192,51094,128,2,51529:0:0:0:0:
64,192,51529,1,2,0:0:0:0:
192,192,51747,1,8,0:0:0:0:
320,192,51964,1,2,0:0:0:0:
448,192,52181,1,2,0:0:0:0:
64,192,52181,128,4,52616:0:0:0:0:
448,192,52616,1,8,0:0:0:0:
192,192,53051,1,2,0:0:0:0:
320,192,53268,1,2,0:0:0:0:
64,192,53486,1,8,0:0:0:0:
192,192,53703,1,2,0:0:0:0:
320,192,54138,1,2,0:0:0:0:
448,192,54355,1,8,0:0:0:0:
192,192,54573,1,2,0:0:0:0:
320,192,54790,1,2,0:0:0:0:
64,192,55007,1,2,0:0:0:0:
448,192,55225,1,8,0:0:0:0:
192,192,55442,1,2,0:0:0:0:
320,192,55660,128,6,56094:0:0:0:0:
64,192,56094,1,8,0:0:0:0:
64,192,56529,1,2,0:0:0:0:
320,192,56747,1,2,0:0:0:0:
192,192,56964,1,8,0:0:0:0:
448,192,57181,1,2,0:0:0:0:
320,192,57616,1,2,0:0:0:0:
64,192,57834,1,8,0:0:0:0:
192,192,58051,1,2,0:0:0:0:
448,192,58268,1,2,0:0:0:0:
320,192,58486,1,2,0:0:0:0:
64,192,58703,1,8,0:0:0:0:
192,192,58921,1,2,0:0:0:0:
320,192,59138,128,6,59573:0:0:0:0:
64,192,59573,1,8,0:0:0:0:
192,192,60007,1,2,0:0:0:0:
448,192,60225,1,2,0:0:0:0:
64,192,60442,1,8,0:0:0:0:
320,192,60660,1,2,0:0:0:0:
192,192,61094,1,2,0:0:0:0:
448,192,61312,1,8,0:0:0:0:
448,192,61529,1,2,0:0:0:0:
64,192,61747,1,2,0:0:0:0:
320,192,61964,1,2,0:0:0:0:
192,192,62181,1,8,0:0:0:0:
320,192,62399,1,2,0:0:0:0:
448,192,62616,128,6,63051:0:0:0:0:
192,192,63051,1,8,0:0:0:0:
320,192,63268,1,2,0:0:0:0:
64,192,63486,1,8,0:0:0:0:
64,192,63703,1,8,0:0:0:0:
448,192,64138,1,8,0:0:0:0:
192,192,64355,128,0,64790:0:0:0:0:
320,192,64790,128,0,65225:0:0:0:0:
64,192,65225,128,0,65442:0:0:0:0:
448,192,65442,128,0,65660:0:0:0:0:
192,192,65660,128,2,66094:0:0:0:0:
320,192,66094,1,4,0:0:0:0:
448,192,66094,1,2,0:0:0:0:
320,192,66421,1,2,0:0:0:0:
320,192,66747,1,2,0:0:0:0:
64,192,66964,1,8,0:0:0:0:
448,192,67616,1,2,0:0:0:0:
320,192,67834,1,2,0:0:0:0:
320,192,68160,1,2,0:0:0:0:
320,192,68486,1,2,0:0:0:0:
64,192,68703,1,8,0:0:0:0:
192,192,68921,1,2,0:0:0:0:
320,192,69138,1,8,0:0:0:0:
192,192,69355,1,2,0:0:0:0:
320,192,69573,1,2,0:0:0:0:
448,192,69573,1,4,0:0:0:0:
320,192,69899,1,2,0:0:0:0:
320,192,70225,1,2,0:0:0:0:
64,192,70442,1,8,0:0:0:0:
448,192,71094,1,2,0:0:0:0:
320,192,71312,1,2,0:0:0:0:
320,192,71638,1,2,0:0:0:0:
320,192,71964,1,2,0:0:0:0:
64,192,72181,1,8,0:0:0:0:
448,192,72399,1,2,0:0:0:0:
192,192,72616,128,8,73051:0:0:0:0:
320,192,73051,1,2,0:0:0:0:
448,192,73051,1,4,0:0:0:0:
320,192,73377,1,2,0:0:0:0:
320,192,73703,1,2,0:0:0:0:
64,192,73921,1,8,0:0:0:0:
448,192,74573,1,2,0:0:0:0:
320,192,74790,1,2,0:0:0:0:
320,192,75116,1,2,0:0:0:0:
320,192,75442,1,2,0:0:0:0:
64,192,75660,1,8,0:0:0:0:
192,192,76094,1,2,0:0:0:0:
448,192,76529,1,2,0:0:0:0:
448,192,76855,1,2,0:0:0:0:
192,192,77181,1,2,0:0:0:0:
320,192,77399,1,8,0:0:0:0:
448,192,78051,1,2,0:0:0:0:
64,192,78268,1,2,0:0:0:0:
64,192,78594,1,2,0:0:0:0:
320,192,78921,1,2,0:0:0:0:
192,192,79138,1,8,0:0:0:0:
448,192,79355,1,2,0:0:0:0:
320,192,79573,128,8,80007:0:0:0:0:
192,192,80007,1,2,0:0:0:0:
64,192,80007,1,4,0:0:0:0:
320,192,80225,1,2,0:0:0:0:
448,192,80442,1,8,0:0:0:0:
192,192,80660,1,2,0:0:0:0:
320,192,80877,1,2,0:0:0:0:
64,192,81094,1,2,0:0:0:0:
192,192,81312,128,8,81747:0:0:0:0:
320,192,81747,1,0,0:0:0:0:
64,192,81964,128,0,82399:0:0:0:0:
448,192,82399,1,2,0:0:0:0:
192,192,82616,1,8,0:0:0:0:
320,192,82834,1,2,0:0:0:0:
64,192,83051,1,8,0:0:0:0:
64,192,83268,1,8,0:0:0:0:
448,192,83486,1,6,0:0:0:0:
320,192,83703,1,2,0:0:0:0:
64,192,83921,1,8,0:0:0:0:
192,192,84138,1,2,0:0:0:0:
320,192,84355,1,2,0:0:0:0:
448,192,84573,1,2,0:0:0:0:
64,192,84790,1,8,0:0:0:0:
320,192,85007,1,2,0:0:0:0:
192,192,85225,1,2,0:0:0:0:
448,192,85442,1,2,0:0:0:0:
320,192,85660,1,8,0:0:0:0:
64,192,85877,1,2,0:0:0:0:
192,192,86094,1,2,0:0:0:0:
320,192,86312,1,2,0:0:0:0:
64,192,86529,128,8,86964:0:0:0:0:
448,192,86964,1,6,0:0:0:0:
320,192,87181,1,2,0:0:0:0:
192,192,87399,1,8,0:0:0:0:
64,192,87616,1,2,0:0:0:0:
320,192,87834,1,2,0:0:0:0:
192,192,88051,1,2,0:0:0:0:
448,192,88268,1,8,0:0:0:0:
320,192,88486,1,2,0:0:0:0:
64,192,88703,1,2,0:0:0:0:
192,192,88921,1,2,0:0:0:0:
320,192,89138,1,8,0:0:0:0:
64,192,89355,1,2,0:0:0:0:
448,192,89573,1,2,0:0:0:0:
192,192,89790,1,2,0:0:0:0:
320,192,90007,1,8,0:0:0:0:
64,192,90225,1,2,0:0:0:0:
320,192,90442,1,2,0:0:0:0:
448,192,90442,1,4,0:0:0:0:
320,192,90768,1,2,0:0:0:0:
320,192,91094,1,2,0:0:0:0:
192,192,91312,1,8,0:0:0:0:
64,192,91312,1,0,0:0:0:0:
64,192,91964,1,2,0:0:0:0:
448,192,92181,1,2,0:0:0:0:
320,192,92181,1,0,0:0:0:0:
320,192,92507,1,2,0:0:0:0:
320,192,92834,1,2,0:0:0:0:
192,192,93051,1,8,0:0:0:0:
64,192,93051,128,0,93486:0:0:0:0:
448,192,93486,128,2,93921:0:0:0:0:
192,192,93921,1,2,0:0:0:0:
64,192,93921,1,4,0:0:0:0:
192,192,94247,1,2,0:0:0:0:
448,192,94573,1,2,0:0:0:0:
320,192,94790,1,2,0:0:0:0:
320,192,95116,1,2,0:0:0:0:
192,192,95442,1,2,0:0:0:0:
448,192,95660,1,2,0:0:0:0:
64,192,95986,1,2,0:0:0:0:
320,192,96312,1,2,0:0:0:0:
448,192,96529,1,8,0:0:0:0:
192,192,96855,1,2,0:0:0:0:
320,192,97181,1,2,0:0:0:0:
448,192,97399,1,4,0:0:0:0:
64,192,97399,1,2,0:0:0:0:
192,192,97725,1,2,0:0:0:0:
320,192,98051,1,2,0:0:0:0:
64,192,98268,1,2,0:0:0:0:
64,192,98594,1,2,0:0:0:0:
448,192,98921,1,2,0:0:0:0:
192,192,99138,1,2,0:0:0:0:
320,192,99464,1,2,0:0:0:0:
64,192,99790,1,2,0:0:0:0:
448,192,100007,1,2,0:0:0:0:
320,192,100334,1,8,0:0:0:0:
192,192,100660,1,2,0:0:0:0:
64,192,100877,1,2,0:0:0:0:
448,192,100877,1,4,0:0:0:0:
320,192,101203,1,2,0:0:0:0:
192,192,101529,1,2,0:0:0:0:
448,192,101747,1,8,0:0:0:0:
448,192,102073,1,8,0:0:0:0:
192,192,102399,1,8,0:0:0:0:
320,192,102616,1,2,0:0:0:0:
64,192,102942,1,2,0:0:0:0:
448,192,103268,1,2,0:0:0:0:
192,192,103486,1,8,0:0:0:0:
320,192,103812,1,8,0:0:0:0:
448,192,104138,1,8,0:0:0:0:
64,192,104355,1,2,0:0:0:0:
192,192,104355,1,4,0:0:0:0:
320,192,104681,1,2,0:0:0:0:
64,192,105007,128,2,105660:0:0:0:0:
448,192,105660,128,8,106094:0:0:0:0:
192,192,106094,1,8,0:0:0:0:
320,192,106421,1,0,0:0:0:0:
320,192,106747,1,0,0:0:0:0:
64,192,106964,1,0,0:0:0:0:
448,192,107290,1,0,0:0:0:0:
448,192,107616,1,0,0:0:0:0:
192,192,107834,1,4,0:0:0:0:
64,192,107834,128,2,108268:0:0:0:0:
320,192,108268,1,2,0:0:0:0:
64,192,108703,1,8,0:0:0:0:
448,192,108703,128,0,109029:0:0:0:0:
192,192,109247,1,2,0:0:0:0:
64,192,109464,1,2,0:0:0:0:
320,192,109681,1,2,0:0:0:0:
192,192,109790,1,2,0:0:0:0:
448,192,110007,1,2,0:0:0:0:
192,192,110225,1,2,0:0:0:0:
320,192,110334,1,2,0:0:0:0:
64,192,110551,1,2,0:0:0:0:
448,192,110768,128,2,111094:0:0:0:0:
64,192,111312,128,2,111747:0:0:0:0:
192,192,111312,1,4,0:0:0:0:
320,192,111747,1,2,0:0:0:0:
448,192,112181,128,8,112507:0:0:0:0:
192,192,112725,1,2,0:0:0:0:
64,192,112942,1,2,0:0:0:0:
320,192,113160,1,2,0:0:0:0:
448,192,113377,1,2,0:0:0:0:
192,192,113594,1,2,0:0:0:0:
320,192,113703,1,2,0:0:0:0:
64,192,113921,128,8,114138:0:0:0:0:
192,192,114355,128,2,114573:0:0:0:0:
64,192,114790,1,2,0:0:0:0:
448,192,114790,128,4,115225:0:0:0:0:
320,192,115225,128,2,115660:0:0:0:0:
64,192,115660,1,8,0:0:0:0:
192,192,115877,1,2,0:0:0:0:
448,192,116203,1,2,0:0:0:0:
448,192,116421,1,2,0:0:0:0:
64,192,116638,1,2,0:0:0:0:
320,192,116747,1,2,0:0:0:0:
448,192,116964,1,2,0:0:0:0:
192,192,117181,1,2,0:0:0:0:
320,192,117290,1,2,0:0:0:0:
64,192,117507,1,2,0:0:0:0:
448,192,117725,128,2,118051:0:0:0:0:
192,192,118268,1,4,0:0:0:0:
64,192,118268,128,2,118703:0:0:0:0:
320,192,118703,1,2,0:0:0:0:
448,192,119138,128,8,119464:0:0:0:0:
192,192,119681,1,2,0:0:0:0:
64,192,119899,1,2,0:0:0:0:
320,192,120116,1,2,0:0:0:0:
192,192,120225,1,2,0:0:0:0:
448,192,120442,1,2,0:0:0:0:
192,192,120660,1,2,0:0:0:0:
320,192,120768,1,2,0:0:0:0:
64,192,120986,1,2,0:0:0:0:
448,192,121203,128,2,121529:0:0:0:0:
192,192,121747,1,4,0:0:0:0:
64,192,121747,128,2,122181:0:0:0:0:
320,192,122181,1,2,0:0:0:0:
448,192,122616,128,8,122942:0:0:0:0:
192,192,123160,1,2,0:0:0:0:
64,192,123377,1,2,0:0:0:0:
320,192,123594,1,2,0:0:0:0:
448,192,123812,1,2,0:0:0:0:
192,192,124029,1,2,0:0:0:0:
320,192,124138,1,2,0:0:0:0:
64,192,124355,1,8,0:0:0:0:
448,192,124573,1,2,0:0:0:0:
64,192,124790,1,8,0:0:0:0:
192,192,125007,1,2,0:0:0:0:
320,192,125225,128,2,128051:0:0:0:0:
448,192,125225,1,4,0:0:0:0:
