osu file format v14

[General]
AudioFilename: Yokomin - Colorful Pastel.mp3
AudioLeadIn: 0
PreviewTime: 84079
Countdown: 0
SampleSet: Soft
StackLeniency: 0.7
Mode: 3
LetterboxInBreaks: 0
EpilepsyWarning: 1
SpecialStyle: 0
WidescreenStoryboard: 1

[Editor]
Bookmarks: 26563,59621,132996,244207,250703
DistanceSpacing: 1
BeatDivisor: 4
GridSize: 4
TimelineZoom: 1.6

[Metadata]
Title:Colorful Pastel
TitleUnicode:カラフル・パステル
Artist:Yokomin
ArtistUnicode:Yokomin
Creator:[ A v a l o n ]
Version:Hyper
Source:
Tags:Vocaloid feat. 結月ゆかり Yuzuki Yukari かずち Kazuchi Yokomin8005 よこミンP YokominP [Shana_Lesus] Kuo Kyoka Raymond CDY arviejhay
BeatmapID:1053312
BeatmapSetID:494699

[Difficulty]
HPDrainRate:8
CircleSize:4
OverallDifficulty:8
ApproachRate:5
SliderMultiplier:1.4
SliderTickRate:1

[Events]
//Background and Video events
0,0,"Background.jpg",0,0
//Break Periods
//Storyboard Layer 0 (Background)
//Storyboard Layer 1 (Fail)
//Storyboard Layer 2 (Pass)
//Storyboard Layer 3 (Foreground)
//Storyboard Sound Samples

[TimingPoints]
1532,382.165605095541,4,2,1,50,1,0
29047,-117.647058823529,4,2,1,40,0,0
35162,-111.111111111111,4,2,1,40,0,0
58092,-100,4,2,1,50,0,0
84079,-100,4,2,1,50,0,1
108156,-200,4,2,1,50,0,1
108283,-133.333333333333,4,2,1,50,0,1
108347,-100,4,2,1,50,0,1
108410,-80,4,2,1,50,0,1
108474,-66.6666666666667,4,2,1,50,0,1
108538,-200,4,2,1,50,0,0
108665,-133.333333333333,4,2,1,50,0,0
108729,-100,4,2,1,50,0,0
108793,-80,4,2,1,50,0,0
108856,-66.6666666666667,4,2,1,50,0,0
108920,-200,4,2,1,50,0,0
109047,-133.333333333333,4,2,1,50,0,0
109111,-100,4,2,1,50,0,0
109175,-80,4,2,1,50,0,0
109239,-66.6666666666667,4,2,1,50,0,0
109302,-100,4,2,1,50,0,0
111595,-200,4,2,1,50,0,0
111723,-133.333333333333,4,2,1,50,0,0
111786,-100,4,2,1,50,0,0
111850,-80,4,2,1,50,0,0
111914,-66.6666666666667,4,2,1,50,0,0
111974,-200,4,2,1,50,0,0
112105,-133.333333333333,4,2,1,50,0,0
112168,-100,4,2,1,50,0,0
112232,-80,4,2,1,50,0,0
112296,-66.6666666666667,4,2,1,50,0,0
112360,-100,4,2,1,50,0,0
114653,-200,4,2,1,50,0,0
114780,-133.333333333333,4,2,1,50,0,0
114844,-100,4,2,1,50,0,0
114907,-80,4,2,1,50,0,0
114971,-66.6666666666667,4,2,1,50,0,0
115035,-200,4,2,1,50,0,0
115162,-133.333333333333,4,2,1,50,0,0
115226,-100,4,2,1,50,0,0
115289,-80,4,2,1,50,0,0
115353,-66.6666666666667,4,2,1,50,0,0
115417,-100,4,2,1,50,0,0
117710,-200,4,2,1,50,0,0
117837,-133.333333333333,4,2,1,50,0,0
117901,-100,4,2,1,50,0,0
117965,-80,4,2,1,50,0,0
118028,-66.6666666666667,4,2,1,50,0,0
118092,-200,4,2,1,50,0,0
118219,-133.333333333333,4,2,1,50,0,0
118283,-100,4,2,1,50,0,0
118347,-80,4,2,1,50,0,0
118410,-66.6666666666667,4,2,1,50,0,0
118474,-100,4,2,1,50,0,0
132996,-111.111111111111,4,2,1,40,0,0
145226,-105.263157894737,4,2,1,45,0,0
157455,-100,4,2,1,50,0,0
169684,-100,4,2,1,50,0,1
181914,-111.111111111111,4,2,1,50,0,0
184207,-100,4,2,1,50,0,0
184589,-200,4,2,1,50,0,0
184716,-133.333333333333,4,2,1,50,0,0
184780,-100,4,2,1,50,0,0
184844,-80,4,2,1,50,0,0
184907,-66.6666666666667,4,2,1,50,0,0
184971,-100,4,2,1,50,0,1
206372,-100,4,2,1,50,0,0
244398,-133.333333333333,4,2,1,50,0,0

[HitObjects]
448,192,1532,5,0,0:0:0:0:
320,192,1627,1,0,0:0:0:0:
64,192,1723,1,0,0:0:0:0:
192,192,1818,1,0,0:0:0:0:
448,192,1914,128,0,2105:0:0:0:0:
192,192,2105,1,0,0:0:0:0:
64,192,2200,1,0,0:0:0:0:
320,192,2296,1,0,0:0:0:0:
192,192,2391,1,0,0:0:0:0:
448,192,2487,1,0,0:0:0:0:
320,192,2582,1,0,0:0:0:0:
64,192,2678,128,0,2869:0:0:0:0:
448,192,2869,1,0,0:0:0:0:
192,192,2965,1,0,0:0:0:0:
320,192,3060,1,0,0:0:0:0:
64,192,3156,1,0,0:0:0:0:
192,192,3251,1,0,0:0:0:0:
320,192,3347,1,0,0:0:0:0:
448,192,3442,128,0,3633:0:0:0:0:
192,192,3633,1,0,0:0:0:0:
64,192,3729,1,0,0:0:0:0:
320,192,3824,1,0,0:0:0:0:
192,192,3920,1,0,0:0:0:0:
448,192,4016,1,0,0:0:0:0:
320,192,4111,1,0,0:0:0:0:
64,192,4207,128,0,4398:0:0:0:0:
448,192,4398,1,0,0:0:0:0:
192,192,4493,1,0,0:0:0:0:
320,192,4589,1,2,0:0:0:0:
448,192,4589,1,4,0:0:0:0:
64,192,4589,1,0,0:0:0:0:
64,192,4780,1,2,0:0:0:0:
448,192,4971,1,8,0:0:0:0:
320,192,4971,1,0,0:0:0:0:
192,192,5162,1,2,0:0:0:0:
64,192,5162,128,0,5544:0:0:0:0:
320,192,5353,1,2,0:0:0:0:
448,192,5353,1,0,0:0:0:0:
448,192,5544,1,2,0:0:0:0:
320,192,5735,1,0,0:0:0:0:
192,192,5735,1,8,0:0:0:0:
64,192,5926,1,2,0:0:0:0:
448,192,5926,128,0,6500:0:0:0:0:
320,192,6117,1,2,0:0:0:0:
192,192,6117,1,0,0:0:0:0:
320,192,6309,1,2,0:0:0:0:
192,192,6500,1,8,0:0:0:0:
64,192,6500,1,0,0:0:0:0:
320,192,6691,1,2,0:0:0:0:
64,192,6882,1,0,0:0:0:0:
448,192,6882,1,2,0:0:0:0:
192,192,7073,1,2,0:0:0:0:
448,192,7264,1,0,0:0:0:0:
64,192,7264,1,8,0:0:0:0:
320,192,7455,1,2,0:0:0:0:
192,192,7646,1,2,0:0:0:0:
64,192,7646,1,4,0:0:0:0:
448,192,7646,1,0,0:0:0:0:
64,192,7837,1,2,0:0:0:0:
448,192,8028,1,0,0:0:0:0:
320,192,8028,1,8,0:0:0:0:
192,192,8219,1,2,0:0:0:0:
64,192,8219,128,0,8602:0:0:0:0:
320,192,8410,1,2,0:0:0:0:
448,192,8410,1,0,0:0:0:0:
448,192,8602,1,2,0:0:0:0:
192,192,8793,1,0,0:0:0:0:
320,192,8793,1,8,0:0:0:0:
64,192,8984,1,2,0:0:0:0:
448,192,8984,128,0,9557:0:0:0:0:
320,192,9175,1,0,0:0:0:0:
192,192,9175,1,2,0:0:0:0:
320,192,9366,1,2,0:0:0:0:
192,192,9557,1,0,0:0:0:0:
64,192,9557,1,8,0:0:0:0:
320,192,9748,1,2,0:0:0:0:
448,192,9939,1,2,0:0:0:0:
64,192,10130,1,0,0:0:0:0:
192,192,10130,1,8,0:0:0:0:
448,192,10321,1,0,0:0:0:0:
320,192,10321,1,2,0:0:0:0:
64,192,10512,1,0,0:0:0:0:
192,192,10512,1,8,0:0:0:0:
320,192,10703,1,2,0:0:0:0:
448,192,10703,1,0,0:0:0:0:
192,192,10799,1,0,0:0:0:0:
64,192,10895,1,2,0:0:0:0:
192,192,10990,1,0,0:0:0:0:
320,192,11086,1,0,0:0:0:0:
192,192,11277,1,2,0:0:0:0:
320,192,11372,1,0,0:0:0:0:
448,192,11468,1,0,0:0:0:0:
64,192,11468,1,8,0:0:0:0:
192,192,11563,1,0,0:0:0:0:
320,192,11659,1,0,0:0:0:0:
448,192,11754,1,0,0:0:0:0:
192,192,11850,1,2,0:0:0:0:
64,192,11850,1,0,0:0:0:0:
448,192,12041,1,2,0:0:0:0:
320,192,12137,1,0,0:0:0:0:
192,192,12232,1,0,0:0:0:0:
320,192,12328,1,0,0:0:0:0:
192,192,12423,1,2,0:0:0:0:
64,192,12519,1,0,0:0:0:0:
320,192,12614,1,0,0:0:0:0:
448,192,12614,1,2,0:0:0:0:
192,192,12805,1,0,0:0:0:0:
320,192,12901,1,0,0:0:0:0:
448,192,12996,1,0,0:0:0:0:
64,192,12996,1,8,0:0:0:0:
192,192,13092,1,0,0:0:0:0:
320,192,13188,1,2,0:0:0:0:
64,192,13283,1,0,0:0:0:0:
192,192,13379,1,2,0:0:0:0:
448,192,13474,1,0,0:0:0:0:
320,192,13570,1,8,0:0:0:0:
192,192,13665,1,0,0:0:0:0:
448,192,13761,1,2,0:0:0:0:
64,192,13761,1,0,0:0:0:0:
320,192,13856,1,0,0:0:0:0:
192,192,13952,1,2,0:0:0:0:
448,192,14047,1,0,0:0:0:0:
320,192,14143,1,0,0:0:0:0:
192,192,14334,1,2,0:0:0:0:
320,192,14430,1,0,0:0:0:0:
64,192,14525,1,8,0:0:0:0:
448,192,14525,1,0,0:0:0:0:
192,192,14621,1,0,0:0:0:0:
320,192,14716,1,2,0:0:0:0:
192,192,14812,1,0,0:0:0:0:
64,192,14907,1,0,0:0:0:0:
448,192,14907,1,2,0:0:0:0:
320,192,15003,1,0,0:0:0:0:
192,192,15098,1,8,0:0:0:0:
64,192,15194,1,0,0:0:0:0:
320,192,15289,1,2,0:0:0:0:
448,192,15289,1,4,0:0:0:0:
64,192,15481,1,0,0:0:0:0:
192,192,15481,1,8,0:0:0:0:
448,192,15576,1,0,0:0:0:0:
320,192,15576,1,8,0:0:0:0:
64,192,15672,1,0,0:0:0:0:
192,192,15672,1,8,0:0:0:0:
448,192,15767,1,0,0:0:0:0:
320,192,15767,1,8,0:0:0:0:
64,192,15863,1,2,0:0:0:0:
192,192,15958,1,2,0:0:0:0:
448,192,16054,1,8,0:0:0:0:
320,192,16054,1,0,0:0:0:0:
192,192,16149,1,8,0:0:0:0:
64,192,16149,1,0,0:0:0:0:
448,192,16245,1,2,0:0:0:0:
320,192,16340,1,2,0:0:0:0:
192,192,16436,1,8,0:0:0:0:
448,192,16436,1,0,0:0:0:0:
320,192,16531,1,2,0:0:0:0:
64,192,16627,1,8,0:0:0:0:
192,192,16627,1,0,0:0:0:0:
320,192,16723,1,0,0:0:0:0:
448,192,16723,1,8,0:0:0:0:
64,192,16818,1,2,0:0:0:0:
192,192,16818,1,4,0:0:0:0:
448,192,17009,1,2,0:0:0:0:
192,192,17200,1,0,0:0:0:0:
320,192,17200,1,8,0:0:0:0:
64,192,17391,1,2,0:0:0:0:
448,192,17391,128,0,17774:0:0:0:0:
320,192,17582,1,0,0:0:0:0:
192,192,17582,1,2,0:0:0:0:
64,192,17774,1,2,0:0:0:0:
320,192,17965,1,8,0:0:0:0:
448,192,17965,1,0,0:0:0:0:
192,192,18156,1,2,0:0:0:0:
64,192,18156,128,0,18729:0:0:0:0:
320,192,18347,1,0,0:0:0:0:
448,192,18347,1,2,0:0:0:0:
192,192,18538,1,2,0:0:0:0:
320,192,18729,1,8,0:0:0:0:
448,192,18729,1,0,0:0:0:0:
64,192,18920,1,2,0:0:0:0:
192,192,19111,1,2,0:0:0:0:
320,192,19111,1,0,0:0:0:0:
448,192,19302,1,2,0:0:0:0:
64,192,19493,1,8,0:0:0:0:
192,192,19493,1,0,0:0:0:0:
320,192,19684,1,2,0:0:0:0:
448,192,19875,1,4,0:0:0:0:
192,192,19875,1,2,0:0:0:0:
64,192,19875,1,0,0:0:0:0:
64,192,20067,1,2,0:0:0:0:
320,192,20258,1,8,0:0:0:0:
192,192,20258,1,0,0:0:0:0:
448,192,20449,1,2,0:0:0:0:
64,192,20449,128,0,20831:0:0:0:0:
192,192,20640,1,0,0:0:0:0:
320,192,20640,1,2,0:0:0:0:
448,192,20831,1,2,0:0:0:0:
64,192,21022,1,0,0:0:0:0:
192,192,21022,1,8,0:0:0:0:
320,192,21213,1,2,0:0:0:0:
448,192,21213,128,0,21786:0:0:0:0:
64,192,21404,1,0,0:0:0:0:
192,192,21404,1,2,0:0:0:0:
320,192,21595,1,2,0:0:0:0:
192,192,21786,1,0,0:0:0:0:
64,192,21786,1,8,0:0:0:0:
320,192,21977,1,2,0:0:0:0:
192,192,22041,1,2,0:0:0:0:
64,192,22105,1,2,0:0:0:0:
320,192,22168,1,0,0:0:0:0:
448,192,22168,1,8,0:0:0:0:
64,192,22360,1,0,0:0:0:0:
192,192,22360,1,8,0:0:0:0:
320,192,22455,1,8,0:0:0:0:
448,192,22455,1,0,0:0:0:0:
64,192,22551,1,2,0:0:0:0:
192,192,22646,1,2,0:0:0:0:
320,192,22742,1,8,0:0:0:0:
448,192,22742,1,0,0:0:0:0:
64,192,22837,1,0,0:0:0:0:
192,192,22837,1,8,0:0:0:0:
320,192,22933,1,2,0:0:0:0:
448,192,22933,1,4,0:0:0:0:
192,192,23028,1,0,0:0:0:0:
64,192,23124,1,2,0:0:0:0:
192,192,23219,1,0,0:0:0:0:
320,192,23315,1,0,0:0:0:0:
192,192,23506,1,2,0:0:0:0:
320,192,23602,1,0,0:0:0:0:
448,192,23697,1,0,0:0:0:0:
64,192,23697,1,8,0:0:0:0:
192,192,23793,1,0,0:0:0:0:
320,192,23888,1,0,0:0:0:0:
448,192,23984,1,0,0:0:0:0:
64,192,24079,1,0,0:0:0:0:
192,192,24079,1,2,0:0:0:0:
320,192,24270,1,2,0:0:0:0:
448,192,24366,1,0,0:0:0:0:
192,192,24461,1,0,0:0:0:0:
320,192,24557,1,0,0:0:0:0:
64,192,24653,1,2,0:0:0:0:
192,192,24748,1,0,0:0:0:0:
448,192,24844,1,0,0:0:0:0:
320,192,24844,1,2,0:0:0:0:
192,192,25035,1,0,0:0:0:0:
320,192,25130,1,0,0:0:0:0:
64,192,25226,1,0,0:0:0:0:
448,192,25226,1,8,0:0:0:0:
192,192,25321,1,0,0:0:0:0:
320,192,25417,1,2,0:0:0:0:
64,192,25512,1,0,0:0:0:0:
192,192,25608,1,2,0:0:0:0:
448,192,25703,1,0,0:0:0:0:
320,192,25799,1,8,0:0:0:0:
64,192,25895,1,0,0:0:0:0:
448,192,25990,1,2,0:0:0:0:
192,192,25990,1,0,0:0:0:0:
320,192,26086,1,0,0:0:0:0:
64,192,26181,1,2,0:0:0:0:
192,192,26277,1,0,0:0:0:0:
320,192,26372,1,0,0:0:0:0:
192,192,26563,1,2,0:0:0:0:
320,192,26659,1,0,0:0:0:0:
448,192,26754,1,0,0:0:0:0:
64,192,26754,1,8,0:0:0:0:
192,192,26850,1,0,0:0:0:0:
320,192,26946,1,2,0:0:0:0:
192,192,27041,1,0,0:0:0:0:
64,192,27137,1,0,0:0:0:0:
448,192,27137,1,2,0:0:0:0:
320,192,27232,1,0,0:0:0:0:
192,192,27328,1,8,0:0:0:0:
64,192,27423,1,0,0:0:0:0:
448,192,27519,1,2,0:0:0:0:
320,192,27519,1,4,0:0:0:0:
192,192,27710,1,8,0:0:0:0:
64,192,27710,1,0,0:0:0:0:
448,192,27805,1,0,0:0:0:0:
320,192,27805,1,8,0:0:0:0:
64,192,27901,1,2,0:0:0:0:
192,192,27996,1,2,0:0:0:0:
320,192,28092,1,2,0:0:0:0:
192,192,28188,1,2,0:0:0:0:
448,192,28283,128,4,28665:0:0:0:0:
64,192,28283,1,2,0:0:0:0:
64,192,28665,128,4,29047:0:0:0:0:
192,192,28665,1,0,0:0:0:0:
320,192,28665,1,2,0:0:0:0:
192,192,29047,1,0,0:0:0:0:
320,192,29047,1,2,0:0:0:0:
448,192,29047,128,4,34398:0:0:0:0:
192,192,30194,1,0,0:0:0:0:
320,192,30385,1,0,0:0:0:0:
192,192,31340,1,0,0:0:0:0:
64,192,31723,1,0,0:0:0:0:
320,192,32105,1,0,0:0:0:0:
320,192,34207,128,0,34398:0:0:0:25:soft-hitwhistle.wav
64,192,34398,1,0,0:0:0:0:
192,192,34398,1,0,0:0:0:25:soft-hitwhistle.wav
320,192,34589,1,0,0:0:0:25:soft-hitwhistle.wav
448,192,34589,1,0,0:0:0:0:
64,192,34780,1,0,0:0:0:0:
192,192,34780,1,0,0:0:0:25:soft-hitwhistle.wav
320,192,35162,1,2,0:0:0:0:
448,192,35162,1,4,0:0:0:0:
64,192,35162,128,0,35544:0:0:0:0:
192,192,35544,128,0,35926:0:0:0:0:
320,192,35735,1,2,0:0:0:0:
448,192,35926,128,0,36309:0:0:0:0:
64,192,35926,1,8,0:0:0:0:
64,192,36309,128,0,37455:0:0:0:0:
320,192,36500,1,2,0:0:0:0:
320,192,36882,1,2,0:0:0:0:
320,192,37073,1,2,0:0:0:0:
192,192,37455,1,0,0:0:0:0:
448,192,37455,1,8,0:0:0:0:
192,192,38028,1,2,0:0:0:0:
448,192,38219,1,2,0:0:0:0:
320,192,38219,128,0,38602:0:0:0:0:
64,192,38602,128,2,38984:0:0:0:0:
448,192,38984,128,8,39366:0:0:0:0:
320,192,38984,1,0,0:0:0:0:
192,192,39366,128,0,40512:0:0:0:0:
320,192,39557,1,2,0:0:0:0:
320,192,39939,1,2,0:0:0:0:
320,192,40130,1,2,0:0:0:0:
448,192,40512,1,8,0:0:0:0:
64,192,40512,1,0,0:0:0:0:
320,192,41086,1,2,0:0:0:0:
448,192,41277,1,4,0:0:0:0:
64,192,41277,128,0,41659:0:0:0:0:
192,192,41277,1,2,0:0:0:0:
192,192,41659,128,0,42041:0:0:0:0:
320,192,41850,1,2,0:0:0:0:
64,192,42041,1,8,0:0:0:0:
448,192,42041,128,0,42423:0:0:0:0:
320,192,42423,128,0,43570:0:0:0:0:
192,192,42614,1,2,0:0:0:0:
192,192,42996,1,2,0:0:0:0:
192,192,43188,1,2,0:0:0:0:
64,192,43570,1,8,0:0:0:0:
448,192,43570,1,0,0:0:0:0:
64,192,44143,1,2,0:0:0:0:
320,192,44334,128,0,44716:0:0:0:0:
192,192,44334,1,2,0:0:0:0:
448,192,44716,128,0,45098:0:0:0:0:
192,192,44907,1,2,0:0:0:0:
64,192,45098,128,0,45481:0:0:0:0:
320,192,45098,1,8,0:0:0:0:
192,192,45481,128,0,45863:0:0:0:0:
320,192,45672,1,2,0:0:0:0:
448,192,45863,128,0,46627:0:0:0:0:
64,192,45863,1,0,0:0:0:0:
320,192,46054,1,2,0:0:0:0:
320,192,46245,1,2,0:0:0:0:
192,192,46627,1,8,0:0:0:0:
64,192,46627,128,0,47391:0:0:0:0:
192,192,47391,1,4,0:0:0:0:
448,192,47391,128,0,47774:0:0:0:0:
320,192,47391,1,2,0:0:0:0:
320,192,47774,128,0,48156:0:0:0:0:
64,192,47965,1,2,0:0:0:0:
192,192,48156,128,0,48538:0:0:0:0:
448,192,48156,1,8,0:0:0:0:
64,192,48538,128,0,49684:0:0:0:0:
320,192,48729,1,2,0:0:0:0:
320,192,49111,1,2,0:0:0:0:
320,192,49302,1,2,0:0:0:0:
192,192,49684,1,0,0:0:0:0:
448,192,49684,1,8,0:0:0:0:
64,192,50258,1,2,0:0:0:0:
448,192,50449,1,2,0:0:0:0:
320,192,50449,128,0,50831:0:0:0:0:
192,192,50831,128,0,51213:0:0:0:0:
64,192,50831,1,2,0:0:0:0:
448,192,51213,128,0,51595:0:0:0:0:
320,192,51213,1,8,0:0:0:0:
64,192,51595,128,0,52742:0:0:0:0:
320,192,51786,1,2,0:0:0:0:
320,192,52168,1,2,0:0:0:0:
320,192,52360,1,2,0:0:0:0:
192,192,52742,1,0,0:0:0:0:
448,192,52742,1,8,0:0:0:0:
448,192,53315,1,2,0:0:0:0:
64,192,53506,128,0,53888:0:0:0:0:
320,192,53506,1,4,0:0:0:0:
448,192,53506,1,2,0:0:0:0:
192,192,53888,128,0,54270:0:0:0:0:
320,192,54079,1,2,0:0:0:0:
448,192,54270,128,0,54653:0:0:0:0:
64,192,54270,1,8,0:0:0:0:
64,192,54653,128,0,55799:0:0:0:0:
320,192,54844,1,2,0:0:0:0:
320,192,55226,1,2,0:0:0:0:
320,192,55417,1,2,0:0:0:0:
192,192,55799,1,0,0:0:0:0:
448,192,55799,1,8,0:0:0:0:
320,192,56372,1,2,0:0:0:0:
448,192,56563,1,2,0:0:0:0:
64,192,56563,128,0,58092:0:0:0:0:
320,192,57137,1,2,0:0:0:0:
192,192,57328,1,8,0:0:0:0:
448,192,57328,1,0,0:0:0:0:
320,192,57519,1,2,0:0:0:0:
320,192,57710,1,2,0:0:0:0:
192,192,57901,1,8,0:0:0:0:
448,192,57901,1,0,0:0:0:0:
320,192,58092,1,2,0:0:0:0:
448,192,58092,1,4,0:0:0:0:
192,192,58283,1,8,0:0:0:0:
64,192,58283,1,0,0:0:0:0:
320,192,58379,1,8,0:0:0:0:
448,192,58379,1,0,0:0:0:0:
64,192,58474,1,0,0:0:0:0:
192,192,58474,1,8,0:0:0:0:
320,192,58570,1,8,0:0:0:0:
448,192,58570,1,0,0:0:0:0:
64,192,58665,1,2,0:0:0:0:
192,192,58761,1,2,0:0:0:0:
320,192,58856,1,8,0:0:0:0:
448,192,58856,1,0,0:0:0:0:
192,192,58952,1,8,0:0:0:0:
64,192,58952,1,0,0:0:0:0:
448,192,59047,1,2,0:0:0:0:
320,192,59143,1,2,0:0:0:0:
64,192,59239,1,2,0:0:0:0:
192,192,59334,1,2,0:0:0:0:
320,192,59430,1,8,0:0:0:0:
448,192,59525,1,8,0:0:0:0:
64,192,59621,1,4,0:0:0:0:
192,192,59621,1,2,0:0:0:0:
448,192,59812,1,0,0:0:0:0:
320,192,59812,1,2,0:0:0:0:
192,192,60003,1,0,0:0:0:0:
64,192,60003,1,8,0:0:0:0:
448,192,60194,1,0,0:0:0:0:
192,192,60289,1,0,0:0:0:0:
320,192,60385,1,2,0:0:0:0:
448,192,60385,1,0,0:0:0:0:
64,192,60576,1,0,0:0:0:0:
320,192,60672,1,2,0:0:0:0:
448,192,60672,1,0,0:0:0:0:
192,192,60767,1,0,0:0:0:0:
64,192,60767,1,8,0:0:0:0:
320,192,60958,1,2,0:0:0:0:
448,192,60958,1,0,0:0:0:0:
192,192,61054,1,0,0:0:0:0:
64,192,61149,1,0,0:0:0:0:
192,192,61245,1,0,0:0:0:0:
320,192,61340,1,2,0:0:0:0:
448,192,61340,1,0,0:0:0:0:
192,192,61531,1,0,0:0:0:0:
64,192,61531,1,8,0:0:0:0:
320,192,61914,1,2,0:0:0:0:
448,192,61914,1,0,0:0:0:0:
64,192,62009,1,2,0:0:0:0:
192,192,62105,1,2,0:0:0:0:
320,192,62105,1,0,0:0:0:0:
448,192,62200,1,2,0:0:0:0:
64,192,62296,1,8,0:0:0:0:
192,192,62296,1,2,0:0:0:0:
320,192,62391,1,2,0:0:0:0:
64,192,62487,1,0,0:0:0:0:
448,192,62487,1,2,0:0:0:0:
192,192,62582,1,0,0:0:0:0:
320,192,62678,1,0,0:0:0:0:
448,192,62678,1,2,0:0:0:0:
64,192,62869,1,0,0:0:0:0:
320,192,62869,1,2,0:0:0:0:
192,192,63060,1,0,0:0:0:0:
64,192,63060,1,8,0:0:0:0:
448,192,63251,1,0,0:0:0:0:
192,192,63347,1,0,0:0:0:0:
320,192,63442,1,2,0:0:0:0:
448,192,63442,1,0,0:0:0:0:
64,192,63633,1,0,0:0:0:0:
320,192,63729,1,2,0:0:0:0:
192,192,63729,1,0,0:0:0:0:
448,192,63824,1,0,0:0:0:0:
64,192,63824,1,8,0:0:0:0:
320,192,64016,1,2,0:0:0:0:
448,192,64016,1,0,0:0:0:0:
192,192,64111,1,0,0:0:0:0:
64,192,64207,1,0,0:0:0:0:
320,192,64302,1,0,0:0:0:0:
64,192,64398,1,0,0:0:0:0:
192,192,64398,1,2,0:0:0:0:
320,192,64589,1,0,0:0:0:0:
448,192,64589,1,8,0:0:0:0:
192,192,64780,1,0,0:0:0:0:
64,192,64875,1,0,0:0:0:0:
448,192,64971,1,0,0:0:0:0:
320,192,64971,1,2,0:0:0:0:
192,192,65067,1,2,0:0:0:0:
64,192,65067,1,0,0:0:0:0:
320,192,65162,1,2,0:0:0:0:
448,192,65162,1,0,0:0:0:0:
64,192,65353,1,8,0:0:0:0:
192,192,65353,1,2,0:0:0:0:
320,192,65449,1,2,0:0:0:0:
192,192,65544,1,0,0:0:0:0:
448,192,65544,1,2,0:0:0:0:
64,192,65640,1,2,0:0:0:0:
320,192,65735,1,2,0:0:0:0:
448,192,65735,1,4,0:0:0:0:
64,192,65926,1,0,0:0:0:0:
192,192,65926,1,2,0:0:0:0:
320,192,66117,1,0,0:0:0:0:
448,192,66117,1,8,0:0:0:0:
192,192,66309,1,0,0:0:0:0:
64,192,66404,1,0,0:0:0:0:
320,192,66500,1,2,0:0:0:0:
448,192,66500,1,0,0:0:0:0:
64,192,66691,1,0,0:0:0:0:
448,192,66786,1,0,0:0:0:0:
320,192,66786,1,2,0:0:0:0:
192,192,66882,1,8,0:0:0:0:
64,192,66882,1,0,0:0:0:0:
320,192,67073,1,2,0:0:0:0:
448,192,67073,1,0,0:0:0:0:
192,192,67168,1,0,0:0:0:0:
320,192,67264,1,0,0:0:0:0:
448,192,67360,1,0,0:0:0:0:
64,192,67455,1,0,0:0:0:0:
192,192,67455,1,2,0:0:0:0:
320,192,67551,1,0,0:0:0:0:
448,192,67646,1,0,0:0:0:0:
64,192,67646,1,8,0:0:0:0:
192,192,67837,1,0,0:0:0:0:
64,192,67933,1,0,0:0:0:0:
320,192,68028,1,2,0:0:0:0:
448,192,68028,1,0,0:0:0:0:
64,192,68124,1,2,0:0:0:0:
192,192,68219,1,2,0:0:0:0:
320,192,68219,1,0,0:0:0:0:
448,192,68315,1,2,0:0:0:0:
64,192,68410,1,8,0:0:0:0:
192,192,68410,1,2,0:0:0:0:
320,192,68506,1,2,0:0:0:0:
64,192,68602,1,0,0:0:0:0:
448,192,68602,1,2,0:0:0:0:
192,192,68697,1,2,0:0:0:0:
320,192,68793,1,2,0:0:0:0:
448,192,68793,1,0,0:0:0:0:
320,192,68984,1,2,0:0:0:0:
192,192,68984,1,0,0:0:0:0:
64,192,69175,1,8,0:0:0:0:
192,192,69175,1,0,0:0:0:0:
448,192,69366,1,0,0:0:0:0:
192,192,69461,1,0,0:0:0:0:
320,192,69557,1,2,0:0:0:0:
448,192,69557,1,0,0:0:0:0:
64,192,69748,1,0,0:0:0:0:
320,192,69844,1,2,0:0:0:0:
448,192,69844,1,0,0:0:0:0:
192,192,69939,1,8,0:0:0:0:
64,192,69939,1,0,0:0:0:0:
320,192,70130,1,2,0:0:0:0:
448,192,70130,1,0,0:0:0:0:
192,192,70226,1,0,0:0:0:0:
320,192,70321,1,0,0:0:0:0:
448,192,70417,1,0,0:0:0:0:
64,192,70512,1,0,0:0:0:0:
192,192,70512,1,2,0:0:0:0:
448,192,70703,1,8,0:0:0:0:
320,192,70703,1,0,0:0:0:0:
192,192,70895,1,2,0:0:0:0:
320,192,70958,1,2,0:0:0:0:
448,192,71022,1,2,0:0:0:0:
64,192,71086,1,8,0:0:0:0:
192,192,71086,1,0,0:0:0:0:
320,192,71277,1,2,0:0:0:0:
192,192,71340,1,2,0:0:0:0:
64,192,71404,1,2,0:0:0:0:
320,192,71468,1,0,0:0:0:0:
448,192,71468,1,8,0:0:0:0:
64,192,71659,1,0,0:0:0:0:
192,192,71754,1,0,0:0:0:0:
320,192,71850,1,2,0:0:0:0:
448,192,71850,1,4,0:0:0:0:
64,192,71850,1,0,0:0:0:0:
192,192,71946,1,0,0:0:0:0:
320,192,72041,1,2,0:0:0:0:
448,192,72041,1,0,0:0:0:0:
192,192,72232,1,0,0:0:0:0:
64,192,72232,1,8,0:0:0:0:
448,192,72423,1,0,0:0:0:0:
192,192,72519,1,0,0:0:0:0:
320,192,72614,1,2,0:0:0:0:
448,192,72614,1,0,0:0:0:0:
64,192,72805,1,0,0:0:0:0:
448,192,72901,1,0,0:0:0:0:
320,192,72901,1,2,0:0:0:0:
192,192,72996,1,0,0:0:0:0:
64,192,72996,1,8,0:0:0:0:
320,192,73188,1,2,0:0:0:0:
448,192,73188,1,0,0:0:0:0:
192,192,73283,1,0,0:0:0:0:
64,192,73379,1,0,0:0:0:0:
192,192,73474,1,0,0:0:0:0:
448,192,73570,1,0,0:0:0:0:
320,192,73570,1,2,0:0:0:0:
192,192,73761,1,0,0:0:0:0:
64,192,73761,1,8,0:0:0:0:
448,192,73952,1,0,0:0:0:0:
192,192,74047,1,0,0:0:0:0:
320,192,74143,1,2,0:0:0:0:
448,192,74143,1,0,0:0:0:0:
64,192,74239,1,2,0:0:0:0:
192,192,74334,1,2,0:0:0:0:
320,192,74334,1,0,0:0:0:0:
448,192,74430,1,2,0:0:0:0:
64,192,74525,1,2,0:0:0:0:
192,192,74525,1,8,0:0:0:0:
448,192,74621,1,2,0:0:0:0:
64,192,74716,1,0,0:0:0:0:
320,192,74716,1,2,0:0:0:0:
192,192,74812,1,2,0:0:0:0:
320,192,74907,1,2,0:0:0:0:
448,192,74907,1,0,0:0:0:0:
64,192,75098,1,0,0:0:0:0:
448,192,75098,1,2,0:0:0:0:
192,192,75289,1,0,0:0:0:0:
64,192,75289,1,8,0:0:0:0:
320,192,75481,1,0,0:0:0:0:
192,192,75576,1,0,0:0:0:0:
320,192,75672,1,2,0:0:0:0:
448,192,75672,1,0,0:0:0:0:
64,192,75863,1,0,0:0:0:0:
320,192,75958,1,2,0:0:0:0:
192,192,75958,1,0,0:0:0:0:
64,192,76054,1,8,0:0:0:0:
448,192,76054,1,0,0:0:0:0:
320,192,76245,1,2,0:0:0:0:
448,192,76245,1,0,0:0:0:0:
192,192,76340,1,0,0:0:0:0:
64,192,76436,1,0,0:0:0:0:
320,192,76531,1,0,0:0:0:0:
64,192,76627,1,0,0:0:0:0:
192,192,76627,1,2,0:0:0:0:
448,192,76818,1,8,0:0:0:0:
320,192,76818,1,0,0:0:0:0:
192,192,77009,1,0,0:0:0:0:
64,192,77105,1,0,0:0:0:0:
448,192,77200,1,0,0:0:0:0:
320,192,77200,1,2,0:0:0:0:
192,192,77296,1,2,0:0:0:0:
64,192,77296,1,0,0:0:0:0:
320,192,77391,1,2,0:0:0:0:
448,192,77391,1,0,0:0:0:0:
64,192,77582,1,2,0:0:0:0:
448,192,77582,1,8,0:0:0:0:
192,192,77678,1,2,0:0:0:0:
320,192,77774,1,2,0:0:0:0:
192,192,77869,1,2,0:0:0:0:
448,192,77965,1,4,0:0:0:0:
320,192,77965,1,0,0:0:0:0:
64,192,77965,1,2,0:0:0:0:
192,192,78156,1,2,0:0:0:0:
64,192,78347,1,8,0:0:0:0:
448,192,78347,1,0,0:0:0:0:
320,192,78538,1,2,0:0:0:0:
192,192,78633,1,2,0:0:0:0:
448,192,78729,1,0,0:0:0:0:
64,192,78729,1,2,0:0:0:0:
320,192,78824,1,2,0:0:0:0:
192,192,78920,1,2,0:0:0:0:
64,192,78920,1,0,0:0:0:0:
320,192,79111,1,0,0:0:0:0:
448,192,79111,1,8,0:0:0:0:
192,192,79302,1,2,0:0:0:0:
64,192,79493,1,0,0:0:0:0:
448,192,79493,1,2,0:0:0:0:
320,192,79684,1,2,0:0:0:0:
64,192,79875,1,0,0:0:0:0:
448,192,79875,1,8,0:0:0:0:
192,192,80067,1,2,0:0:0:0:
320,192,80162,1,2,0:0:0:0:
448,192,80258,1,2,0:0:0:0:
64,192,80258,1,0,0:0:0:0:
192,192,80353,1,2,0:0:0:0:
320,192,80449,1,2,0:0:0:0:
448,192,80449,1,0,0:0:0:0:
192,192,80640,1,0,0:0:0:0:
64,192,80640,1,8,0:0:0:0:
320,192,80831,1,0,0:0:0:0:
448,192,81022,1,0,0:0:0:0:
192,192,81022,1,8,0:0:0:0:
64,192,81022,128,4,81213:0:0:0:0:
320,192,81213,1,2,0:0:0:0:
320,192,81404,1,2,0:0:0:0:
64,192,81595,1,4,0:0:0:0:
448,192,81595,128,8,81786:0:0:0:0:
192,192,81786,1,2,0:0:0:0:
192,192,81977,1,2,0:0:0:0:
448,192,82168,1,8,0:0:0:0:
64,192,82168,128,4,82360:0:0:0:0:
320,192,82360,1,2,0:0:0:0:
320,192,82551,1,2,0:0:0:0:
448,192,82742,128,0,83315:0:0:0:0:
64,192,82742,1,8,0:0:0:0:
192,192,82742,1,0,0:0:0:0:
320,192,82933,1,0,0:0:0:0:
64,192,82933,1,8,0:0:0:0:
192,192,83124,1,2,0:0:0:0:
320,192,83219,1,2,0:0:0:0:
64,192,83315,1,8,0:0:0:0:
192,192,83315,1,0,0:0:0:0:
320,192,83410,1,8,0:0:0:0:
448,192,83410,1,0,0:0:0:0:
64,192,83506,1,8,0:0:0:0:
192,192,83506,1,0,0:0:0:0:
320,192,83602,1,8,0:0:0:0:
448,192,83602,1,0,0:0:0:0:
64,192,83697,1,2,0:0:0:0:
192,192,83793,1,2,0:0:0:0:
448,192,83888,1,2,0:0:0:0:
320,192,83984,1,2,0:0:0:0:
192,192,84079,1,2,0:0:0:0:
64,192,84079,1,4,0:0:0:0:
448,192,84079,1,0,0:0:0:0:
320,192,84270,1,2,0:0:0:0:
192,192,84366,1,0,0:0:0:0:
320,192,84461,1,0,0:0:0:0:
448,192,84461,1,8,0:0:0:0:
64,192,84557,1,0,0:0:0:0:
192,192,84653,1,2,0:0:0:0:
320,192,84748,1,0,0:0:0:0:
192,192,84844,1,2,0:0:0:0:
448,192,84939,1,0,0:0:0:0:
320,192,85035,1,2,0:0:0:0:
192,192,85130,1,0,0:0:0:0:
448,192,85226,1,8,0:0:0:0:
64,192,85226,1,0,0:0:0:0:
320,192,85321,1,0,0:0:0:0:
192,192,85417,1,2,0:0:0:0:
320,192,85512,1,0,0:0:0:0:
64,192,85608,1,2,0:0:0:0:
192,192,85703,1,0,0:0:0:0:
320,192,85799,1,2,0:0:0:0:
448,192,85895,1,0,0:0:0:0:
192,192,85990,1,0,0:0:0:0:
64,192,85990,1,8,0:0:0:0:
320,192,86086,1,0,0:0:0:0:
64,192,86181,1,2,0:0:0:0:
192,192,86277,1,0,0:0:0:0:
448,192,86372,1,2,0:0:0:0:
320,192,86468,1,0,0:0:0:0:
192,192,86563,1,2,0:0:0:0:
64,192,86659,1,0,0:0:0:0:
320,192,86754,1,0,0:0:0:0:
448,192,86754,1,8,0:0:0:0:
192,192,86850,1,0,0:0:0:0:
320,192,86946,1,2,0:0:0:0:
64,192,87041,1,0,0:0:0:0:
192,192,87137,1,2,0:0:0:0:
448,192,87137,1,4,0:0:0:0:
320,192,87232,1,0,0:0:0:0:
64,192,87328,1,2,0:0:0:0:
192,192,87423,1,0,0:0:0:0:
64,192,87519,1,8,0:0:0:0:
320,192,87519,1,0,0:0:0:0:
448,192,87614,1,0,0:0:0:0:
320,192,87710,1,2,0:0:0:0:
192,192,87805,1,0,0:0:0:0:
64,192,87901,1,2,0:0:0:0:
320,192,87996,1,0,0:0:0:0:
192,192,88092,1,2,0:0:0:0:
448,192,88188,1,0,0:0:0:0:
320,192,88283,1,0,0:0:0:0:
64,192,88283,1,8,0:0:0:0:
192,192,88379,1,0,0:0:0:0:
448,192,88474,1,2,0:0:0:0:
320,192,88570,1,0,0:0:0:0:
64,192,88665,1,2,0:0:0:0:
192,192,88761,1,0,0:0:0:0:
320,192,88856,1,2,0:0:0:0:
448,192,88952,1,0,0:0:0:0:
64,192,89047,1,8,0:0:0:0:
192,192,89047,1,0,0:0:0:0:
320,192,89143,1,0,0:0:0:0:
64,192,89239,1,2,0:0:0:0:
192,192,89334,1,0,0:0:0:0:
320,192,89430,1,2,0:0:0:0:
448,192,89430,1,0,0:0:0:0:
192,192,89621,1,0,0:0:0:0:
448,192,89621,1,8,0:0:0:0:
320,192,89812,1,2,0:0:0:0:
64,192,89812,1,0,0:0:0:0:
192,192,90003,1,0,0:0:0:0:
448,192,90003,1,8,0:0:0:0:
320,192,90194,128,2,90385:0:0:0:0:
64,192,90194,1,0,0:0:0:0:
192,192,90385,128,2,90576:0:0:0:0:
448,192,90385,1,0,0:0:0:0:
64,192,90576,128,0,90767:0:0:0:0:
448,192,90767,128,0,91149:0:0:0:0:
320,192,90767,1,2,0:0:0:0:
64,192,90958,1,0,0:0:0:0:
192,192,90958,1,8,0:0:0:0:
320,192,91149,1,0,0:0:0:0:
192,192,91340,128,0,91531:0:0:0:0:
448,192,91340,1,2,0:0:0:0:
320,192,91531,128,0,91723:0:0:0:0:
64,192,91531,1,2,0:0:0:0:
448,192,91723,128,0,91914:0:0:0:0:
64,192,91914,128,0,92296:0:0:0:0:
192,192,91914,1,2,0:0:0:0:
320,192,92105,1,2,0:0:0:0:
448,192,92105,1,0,0:0:0:0:
192,192,92296,1,0,0:0:0:0:
64,192,92487,1,0,0:0:0:0:
448,192,92487,1,8,0:0:0:0:
320,192,92678,1,2,0:0:0:0:
192,192,92678,1,0,0:0:0:0:
64,192,92869,1,0,0:0:0:0:
320,192,92869,1,2,0:0:0:0:
448,192,93060,1,0,0:0:0:0:
192,192,93060,1,8,0:0:0:0:
64,192,93251,128,0,93442:0:0:0:0:
448,192,93251,1,2,0:0:0:0:
192,192,93442,128,0,93633:0:0:0:0:
320,192,93442,1,2,0:0:0:0:
320,192,93633,128,0,93824:0:0:0:0:
448,192,93824,128,0,94207:0:0:0:0:
192,192,93824,1,2,0:0:0:0:
64,192,94016,1,8,0:0:0:0:
320,192,94016,1,0,0:0:0:0:
192,192,94207,128,0,94398:0:0:0:0:
64,192,94207,1,2,0:0:0:0:
320,192,94398,128,0,94589:0:0:0:0:
448,192,94398,1,2,0:0:0:0:
64,192,94589,128,0,94780:0:0:0:0:
192,192,94589,1,8,0:0:0:0:
448,192,94780,1,4,0:0:0:0:
320,192,94780,1,2,0:0:0:0:
64,192,94971,1,8,0:0:0:0:
448,192,94971,1,0,0:0:0:0:
192,192,95067,1,8,0:0:0:0:
320,192,95067,1,0,0:0:0:0:
64,192,95162,1,8,0:0:0:0:
448,192,95162,1,0,0:0:0:0:
192,192,95258,1,8,0:0:0:0:
320,192,95258,1,0,0:0:0:0:
64,192,95353,1,2,0:0:0:0:
448,192,95353,1,0,0:0:0:0:
192,192,95449,1,2,0:0:0:0:
320,192,95544,1,8,0:0:0:0:
448,192,95544,128,0,95926:0:0:0:0:
192,192,95640,1,8,0:0:0:0:
64,192,95735,1,2,0:0:0:0:
320,192,95831,1,2,0:0:0:0:
64,192,95926,128,0,96309:0:0:0:0:
192,192,95926,1,2,0:0:0:0:
320,192,96022,1,2,0:0:0:0:
448,192,96117,1,8,0:0:0:0:
192,192,96213,1,8,0:0:0:0:
448,192,96309,1,4,0:0:0:0:
320,192,96309,1,2,0:0:0:0:
192,192,96500,1,2,0:0:0:0:
320,192,96595,1,0,0:0:0:0:
192,192,96691,1,8,0:0:0:0:
64,192,96691,1,0,0:0:0:0:
448,192,96786,1,0,0:0:0:0:
320,192,96882,1,2,0:0:0:0:
192,192,96977,1,0,0:0:0:0:
320,192,97073,1,2,0:0:0:0:
64,192,97168,1,0,0:0:0:0:
192,192,97264,1,2,0:0:0:0:
320,192,97360,1,0,0:0:0:0:
64,192,97455,1,8,0:0:0:0:
448,192,97455,1,0,0:0:0:0:
192,192,97551,1,0,0:0:0:0:
320,192,97646,1,2,0:0:0:0:
192,192,97742,1,0,0:0:0:0:
448,192,97837,1,2,0:0:0:0:
320,192,97933,1,0,0:0:0:0:
192,192,98028,1,2,0:0:0:0:
64,192,98124,1,0,0:0:0:0:
320,192,98219,1,8,0:0:0:0:
448,192,98219,1,0,0:0:0:0:
192,192,98315,1,0,0:0:0:0:
320,192,98410,1,2,0:0:0:0:
448,192,98506,1,0,0:0:0:0:
192,192,98602,1,2,0:0:0:0:
320,192,98697,1,0,0:0:0:0:
64,192,98793,1,2,0:0:0:0:
192,192,98888,1,0,0:0:0:0:
320,192,98984,1,0,0:0:0:0:
448,192,98984,1,8,0:0:0:0:
64,192,99079,1,0,0:0:0:0:
192,192,99175,1,2,0:0:0:0:
448,192,99270,1,0,0:0:0:0:
320,192,99366,1,2,0:0:0:0:
64,192,99366,1,4,0:0:0:0:
192,192,99461,1,0,0:0:0:0:
448,192,99557,1,2,0:0:0:0:
320,192,99653,1,0,0:0:0:0:
192,192,99748,1,8,0:0:0:0:
448,192,99748,1,0,0:0:0:0:
64,192,99844,1,0,0:0:0:0:
192,192,99939,1,2,0:0:0:0:
320,192,100035,1,0,0:0:0:0:
448,192,100130,1,2,0:0:0:0:
192,192,100226,1,0,0:0:0:0:
320,192,100321,1,2,0:0:0:0:
64,192,100417,1,0,0:0:0:0:
448,192,100512,1,0,0:0:0:0:
192,192,100512,1,8,0:0:0:0:
320,192,100608,1,0,0:0:0:0:
64,192,100703,1,2,0:0:0:0:
192,192,100799,1,0,0:0:0:0:
448,192,100895,1,2,0:0:0:0:
320,192,100990,1,0,0:0:0:0:
192,192,101086,1,2,0:0:0:0:
64,192,101181,1,0,0:0:0:0:
320,192,101277,1,0,0:0:0:0:
448,192,101277,1,8,0:0:0:0:
192,192,101468,1,2,0:0:0:0:
320,192,101531,1,2,0:0:0:0:
448,192,101595,1,2,0:0:0:0:
192,192,101659,1,8,0:0:0:0:
64,192,101659,1,0,0:0:0:0:
320,192,101850,1,0,0:0:0:0:
448,192,101850,1,8,0:0:0:0:
64,192,101946,1,8,0:0:0:0:
192,192,101946,1,0,0:0:0:0:
448,192,102041,1,2,0:0:0:0:
64,192,102137,1,2,0:0:0:0:
320,192,102232,1,8,0:0:0:0:
448,192,102232,1,0,0:0:0:0:
64,192,102328,1,0,0:0:0:0:
192,192,102328,1,8,0:0:0:0:
448,192,102423,1,2,0:0:0:0:
320,192,102423,128,4,102614:0:0:0:0:
192,192,102614,128,2,102805:0:0:0:0:
64,192,102614,1,0,0:0:0:0:
448,192,102805,128,0,102996:0:0:0:0:
192,192,102996,1,2,0:0:0:0:
64,192,102996,128,0,103379:0:0:0:0:
448,192,103188,1,0,0:0:0:0:
320,192,103188,1,8,0:0:0:0:
192,192,103379,1,0,0:0:0:0:
448,192,103570,1,2,0:0:0:0:
320,192,103570,128,0,103761:0:0:0:0:
64,192,103761,1,2,0:0:0:0:
192,192,103761,128,0,103952:0:0:0:0:
448,192,103952,128,0,104143:0:0:0:0:
64,192,104143,128,0,104525:0:0:0:0:
192,192,104143,1,2,0:0:0:0:
320,192,104334,1,2,0:0:0:0:
448,192,104334,1,0,0:0:0:0:
192,192,104525,1,0,0:0:0:0:
448,192,104716,1,8,0:0:0:0:
320,192,104716,1,0,0:0:0:0:
64,192,104907,1,0,0:0:0:0:
448,192,104907,1,2,0:0:0:0:
64,192,105098,1,0,0:0:0:0:
320,192,105098,1,2,0:0:0:0:
448,192,105289,1,8,0:0:0:0:
192,192,105289,1,0,0:0:0:0:
64,192,105481,128,0,105672:0:0:0:0:
448,192,105481,1,2,0:0:0:0:
192,192,105672,128,0,105863:0:0:0:0:
320,192,105672,1,2,0:0:0:0:
320,192,105863,128,0,106054:0:0:0:0:
448,192,106054,128,0,106436:0:0:0:0:
192,192,106054,1,2,0:0:0:0:
64,192,106245,1,8,0:0:0:0:
320,192,106245,1,0,0:0:0:0:
192,192,106436,128,0,106627:0:0:0:0:
64,192,106436,1,2,0:0:0:0:
320,192,106627,128,0,106818:0:0:0:0:
448,192,106627,1,2,0:0:0:0:
64,192,106818,128,0,107009:0:0:0:0:
192,192,106818,1,8,0:0:0:0:
448,192,107009,1,2,0:0:0:0:
320,192,107073,1,2,0:0:0:0:
192,192,107137,1,2,0:0:0:0:
64,192,107200,1,2,0:0:0:0:
448,192,107264,1,2,0:0:0:0:
320,192,107328,1,2,0:0:0:0:
64,192,107391,1,2,0:0:0:0:
192,192,107455,1,2,0:0:0:0:
320,192,107519,1,2,0:0:0:0:
448,192,107582,1,2,0:0:0:0:
64,192,107646,1,2,0:0:0:0:
192,192,107710,1,2,0:0:0:0:
320,192,107774,1,0,0:0:0:0:
448,192,107774,1,8,0:0:0:0:
64,192,107837,1,2,0:0:0:0:
192,192,107901,1,2,0:0:0:0:
448,192,107965,1,2,0:0:0:0:
320,192,108028,1,2,0:0:0:0:
192,192,108092,1,2,0:0:0:0:
64,192,108156,128,0,108538:0:0:0:0:
448,192,108156,1,8,0:0:0:0:
192,192,108538,1,2,0:0:0:0:
320,192,108538,128,4,108920:0:0:0:0:
448,192,108538,128,0,108920:0:0:0:0:
192,192,108920,128,4,109302:0:0:0:0:
64,192,108920,128,2,109302:0:0:0:0:
448,192,109302,1,0,0:0:0:0:
320,192,109302,1,2,0:0:0:0:
192,192,109398,1,2,0:0:0:0:
320,192,109589,1,2,0:0:0:0:
64,192,109684,1,0,0:0:0:0:
448,192,109684,1,2,0:0:0:0:
192,192,109875,1,2,0:0:0:0:
64,192,109971,1,2,0:0:0:0:
320,192,110067,1,2,0:0:0:0:
448,192,110067,1,0,0:0:0:0:
192,192,110258,1,2,0:0:0:0:
320,192,110353,1,2,0:0:0:0:
64,192,110449,1,0,0:0:0:0:
448,192,110449,1,2,0:0:0:0:
192,192,110544,1,2,0:0:0:0:
320,192,110640,1,2,0:0:0:0:
448,192,110640,1,0,0:0:0:0:
192,192,110831,1,2,0:0:0:0:
64,192,110831,1,8,0:0:0:0:
320,192,110926,1,2,0:0:0:0:
448,192,111022,1,2,0:0:0:0:
320,192,111117,1,2,0:0:0:0:
192,192,111213,1,2,0:0:0:0:
64,192,111213,128,8,111595:0:0:0:0:
448,192,111309,1,2,0:0:0:0:
320,192,111404,1,2,0:0:0:0:
192,192,111500,1,2,0:0:0:0:
320,192,111595,128,2,111977:0:0:0:0:
448,192,111595,128,4,111977:0:0:0:0:
192,192,111977,128,4,112360:0:0:0:0:
64,192,111977,128,2,112360:0:0:0:0:
448,192,112360,128,0,112742:0:0:0:0:
320,192,112360,1,2,0:0:0:0:
192,192,112455,1,2,0:0:0:0:
64,192,112646,1,2,0:0:0:0:
320,192,112742,128,0,113124:0:0:0:0:
192,192,112742,1,2,0:0:0:0:
64,192,112933,1,2,0:0:0:0:
192,192,113028,1,2,0:0:0:0:
64,192,113124,128,0,113697:0:0:0:0:
448,192,113124,1,8,0:0:0:0:
320,192,113315,1,2,0:0:0:0:
448,192,113410,1,2,0:0:0:0:
192,192,113506,1,2,0:0:0:0:
320,192,113602,1,2,0:0:0:0:
192,192,113697,1,8,0:0:0:0:
448,192,113697,1,0,0:0:0:0:
448,192,113888,128,0,114653:0:0:0:0:
320,192,113888,1,2,0:0:0:0:
64,192,113984,1,2,0:0:0:0:
192,192,114079,1,2,0:0:0:0:
320,192,114175,1,2,0:0:0:0:
64,192,114270,1,8,0:0:0:0:
192,192,114270,1,0,0:0:0:0:
64,192,114461,1,2,0:0:0:0:
320,192,114461,1,0,0:0:0:0:
192,192,114653,128,2,115035:0:0:0:0:
64,192,114653,128,4,115035:0:0:0:0:
448,192,115035,128,4,115417:0:0:0:0:
320,192,115035,128,2,115417:0:0:0:0:
192,192,115417,1,0,0:0:0:0:
64,192,115417,1,2,0:0:0:0:
320,192,115512,1,2,0:0:0:0:
192,192,115703,1,2,0:0:0:0:
448,192,115799,1,0,0:0:0:0:
64,192,115799,1,2,0:0:0:0:
320,192,115990,1,2,0:0:0:0:
192,192,116086,1,2,0:0:0:0:
448,192,116181,1,2,0:0:0:0:
64,192,116181,1,0,0:0:0:0:
192,192,116372,1,2,0:0:0:0:
320,192,116468,1,2,0:0:0:0:
64,192,116563,1,2,0:0:0:0:
448,192,116563,1,0,0:0:0:0:
192,192,116659,1,2,0:0:0:0:
448,192,116754,1,0,0:0:0:0:
320,192,116754,1,2,0:0:0:0:
192,192,116946,1,2,0:0:0:0:
64,192,116946,1,8,0:0:0:0:
320,192,117041,1,2,0:0:0:0:
448,192,117137,1,2,0:0:0:0:
320,192,117232,1,2,0:0:0:0:
192,192,117328,1,2,0:0:0:0:
64,192,117328,128,8,117710:0:0:0:0:
448,192,117423,1,2,0:0:0:0:
320,192,117519,1,2,0:0:0:0:
192,192,117614,1,2,0:0:0:0:
320,192,117710,128,2,118092:0:0:0:0:
448,192,117710,128,4,118092:0:0:0:0:
192,192,118092,128,4,118474:0:0:0:0:
64,192,118092,128,2,118474:0:0:0:0:
320,192,118474,1,2,0:0:0:0:
448,192,118474,1,0,0:0:0:0:
192,192,118570,1,2,0:0:0:0:
320,192,118761,1,2,0:0:0:0:
192,192,118856,1,2,0:0:0:0:
64,192,118856,1,0,0:0:0:0:
448,192,119047,1,2,0:0:0:0:
320,192,119143,1,2,0:0:0:0:
192,192,119239,1,8,0:0:0:0:
448,192,119239,1,0,0:0:0:0:
64,192,119430,1,2,0:0:0:0:
192,192,119525,1,2,0:0:0:0:
448,192,119621,1,0,0:0:0:0:
320,192,119621,1,2,0:0:0:0:
192,192,119716,1,2,0:0:0:0:
64,192,119812,1,8,0:0:0:0:
448,192,119812,1,0,0:0:0:0:
320,192,120003,1,2,0:0:0:0:
448,192,120067,1,2,0:0:0:0:
64,192,120130,1,2,0:0:0:0:
192,192,120194,1,2,0:0:0:0:
448,192,120258,1,2,0:0:0:0:
320,192,120321,1,2,0:0:0:0:
192,192,120385,1,8,0:0:0:0:
64,192,120385,1,2,0:0:0:0:
64,192,120576,1,2,0:0:0:0:
192,192,120576,1,0,0:0:0:0:
320,192,120767,1,2,0:0:0:0:
448,192,120767,1,4,0:0:0:0:
320,192,120958,1,2,0:0:0:0:
448,192,120958,1,0,0:0:0:0:
320,192,121149,1,2,0:0:0:0:
448,192,121149,1,0,0:0:0:0:
320,192,121340,1,2,0:0:0:0:
448,192,121340,1,0,0:0:0:0:
192,192,121723,1,2,0:0:0:0:
64,192,121723,128,0,122105:0:0:0:0:
448,192,122105,1,2,0:0:0:0:
320,192,122105,128,0,122296:0:0:0:0:
192,192,122296,1,0,0:0:0:0:
64,192,122296,1,8,0:0:0:0:
320,192,122869,1,2,0:0:0:0:
448,192,122869,1,0,0:0:0:0:
192,192,122965,1,2,0:0:0:0:
64,192,122965,1,0,0:0:0:0:
448,192,123060,128,0,123442:0:0:0:0:
320,192,123060,1,8,0:0:0:0:
192,192,123251,1,2,0:0:0:0:
64,192,123251,1,0,0:0:0:0:
320,192,123442,1,2,0:0:0:0:
64,192,123442,128,0,123824:0:0:0:0:
192,192,123633,1,0,0:0:0:0:
448,192,123633,1,8,0:0:0:0:
320,192,123824,1,2,0:0:0:0:
448,192,123824,1,0,0:0:0:0:
320,192,124016,1,2,0:0:0:0:
448,192,124016,1,0,0:0:0:0:
448,192,124207,1,0,0:0:0:0:
320,192,124207,1,2,0:0:0:0:
320,192,124398,1,2,0:0:0:0:
448,192,124398,1,0,0:0:0:0:
192,192,124780,1,2,0:0:0:0:
64,192,124780,128,0,125162:0:0:0:0:
448,192,125162,1,2,0:0:0:0:
320,192,125226,1,2,0:0:0:0:
192,192,125289,1,2,0:0:0:0:
64,192,125353,1,8,0:0:0:0:
448,192,125353,1,0,0:0:0:0:
320,192,125544,128,0,125926:0:0:0:0:
192,192,125544,1,2,0:0:0:0:
64,192,125926,1,0,0:0:0:0:
192,192,125926,1,2,0:0:0:0:
320,192,126022,1,2,0:0:0:0:
448,192,126117,1,8,0:0:0:0:
64,192,126117,1,0,0:0:0:0:
192,192,126213,1,2,0:0:0:0:
320,192,126309,1,2,0:0:0:0:
192,192,126404,1,2,0:0:0:0:
320,192,126500,1,2,0:0:0:0:
448,192,126595,1,2,0:0:0:0:
64,192,126691,1,0,0:0:0:0:
192,192,126691,1,8,0:0:0:0:
320,192,126786,1,8,0:0:0:0:
448,192,126786,1,0,0:0:0:0:
192,192,126882,1,0,0:0:0:0:
64,192,126882,1,2,0:0:0:0:
64,192,127073,1,2,0:0:0:0:
192,192,127073,1,0,0:0:0:0:
64,192,127264,1,2,0:0:0:0:
192,192,127264,1,0,0:0:0:0:
64,192,127455,1,2,0:0:0:0:
192,192,127455,1,0,0:0:0:0:
320,192,127837,1,2,0:0:0:0:
448,192,127837,128,0,128219:0:0:0:0:
64,192,128219,1,2,0:0:0:0:
192,192,128219,128,0,128410:0:0:0:0:
320,192,128410,1,0,0:0:0:0:
448,192,128410,1,8,0:0:0:0:
192,192,128984,1,2,0:0:0:0:
64,192,128984,1,0,0:0:0:0:
320,192,129079,1,2,0:0:0:0:
448,192,129079,1,0,0:0:0:0:
64,192,129175,128,0,129557:0:0:0:0:
192,192,129175,1,8,0:0:0:0:
320,192,129366,1,2,0:0:0:0:
448,192,129366,1,0,0:0:0:0:
448,192,129557,128,0,129939:0:0:0:0:
192,192,129557,1,2,0:0:0:0:
64,192,129748,1,0,0:0:0:0:
320,192,129748,1,8,0:0:0:0:
64,192,129939,1,0,0:0:0:0:
192,192,129939,1,2,0:0:0:0:
64,192,130130,1,0,0:0:0:0:
192,192,130130,1,2,0:0:0:0:
64,192,130321,1,0,0:0:0:0:
192,192,130321,1,2,0:0:0:0:
64,192,130512,1,0,0:0:0:0:
192,192,130512,1,2,0:0:0:0:
320,192,130895,1,2,0:0:0:0:
448,192,130895,128,0,131277:0:0:0:0:
192,192,131277,1,2,0:0:0:0:
320,192,131340,1,2,0:0:0:0:
448,192,131404,1,2,0:0:0:0:
64,192,131468,1,8,0:0:0:0:
192,192,131468,1,0,0:0:0:0:
320,192,131659,1,2,0:0:0:0:
192,192,131723,1,2,0:0:0:0:
64,192,131786,1,2,0:0:0:0:
448,192,131850,1,8,0:0:0:0:
320,192,131850,1,0,0:0:0:0:
64,192,132041,1,0,0:0:0:0:
192,192,132041,1,8,0:0:0:0:
320,192,132137,1,8,0:0:0:0:
448,192,132137,1,0,0:0:0:0:
64,192,132232,1,0,0:0:0:0:
192,192,132232,1,2,0:0:0:0:
320,192,132328,1,2,0:0:0:0:
448,192,132328,1,0,0:0:0:0:
64,192,132423,1,0,0:0:0:0:
192,192,132423,1,2,0:0:0:0:
320,192,132519,1,2,0:0:0:0:
448,192,132519,1,0,0:0:0:0:
64,192,132614,128,8,132996:0:0:0:0:
192,192,132614,1,2,0:0:0:0:
320,192,132996,1,0,0:0:0:0:
448,192,133188,1,0,0:0:0:0:
320,192,133379,1,0,0:0:0:0:
192,192,133570,1,0,0:0:0:0:
64,192,133761,1,0,0:0:0:0:
448,192,133761,1,0,0:0:0:0:
192,192,133952,1,0,0:0:0:0:
320,192,134143,1,0,0:0:0:0:
448,192,134334,1,0,0:0:0:0:
320,192,134525,1,0,0:0:0:0:
192,192,134716,1,0,0:0:0:0:
320,192,134907,1,0,0:0:0:0:
448,192,135098,1,0,0:0:0:0:
64,192,135098,1,0,0:0:0:0:
192,192,135289,1,0,0:0:0:0:
320,192,135481,1,0,0:0:0:0:
192,192,135672,1,0,0:0:0:0:
320,192,135863,1,0,0:0:0:0:
448,192,136054,1,0,0:0:0:0:
192,192,136245,1,0,0:0:0:0:
320,192,136436,1,0,0:0:0:0:
192,192,136627,1,0,0:0:0:0:
64,192,136818,1,0,0:0:0:0:
448,192,136818,1,0,0:0:0:0:
320,192,137009,1,0,0:0:0:0:
192,192,137200,1,0,0:0:0:0:
64,192,137391,1,0,0:0:0:0:
192,192,137582,1,0,0:0:0:0:
448,192,137774,1,0,0:0:0:0:
320,192,137965,1,0,0:0:0:0:
64,192,138156,1,0,0:0:0:0:
192,192,138156,1,0,0:0:0:0:
448,192,138347,1,0,0:0:0:0:
64,192,138538,1,0,0:0:0:0:
192,192,138729,1,0,0:0:0:0:
320,192,138920,1,0,0:0:0:50:hihat chorus.wav
192,192,139111,1,0,0:0:0:50:hihat chorus.wav
64,192,139111,1,0,0:0:0:0:
448,192,139302,1,0,0:0:0:0:
320,192,139493,1,0,0:0:0:0:
192,192,139684,1,0,0:0:0:0:
64,192,139875,1,0,0:0:0:0:
448,192,139875,1,0,0:0:0:0:
192,192,140067,1,0,0:0:0:0:
320,192,140258,1,0,0:0:0:0:
448,192,140449,1,0,0:0:0:0:
192,192,140640,1,0,0:0:0:0:
64,192,140831,1,0,0:0:0:0:
320,192,141022,1,0,0:0:0:0:
192,192,141213,1,0,0:0:0:0:
448,192,141213,1,0,0:0:0:0:
64,192,141404,1,0,0:0:0:0:
192,192,141595,1,0,0:0:0:0:
320,192,141786,1,0,0:0:0:0:
448,192,141977,1,0,0:0:0:0:
64,192,142168,1,0,0:0:0:0:
192,192,142168,1,0,0:0:0:0:
448,192,142360,1,0,0:0:0:0:
320,192,142551,1,0,0:0:0:0:
192,192,142742,1,0,0:0:0:0:
320,192,142933,1,0,0:0:0:0:
448,192,142933,1,0,0:0:0:0:
64,192,143124,1,0,0:0:0:0:
192,192,143315,1,0,0:0:0:0:
64,192,143506,1,0,0:0:0:0:
320,192,143697,1,0,0:0:0:0:
192,192,143888,1,0,0:0:0:0:
320,192,144079,1,0,0:0:0:0:
448,192,144270,1,0,0:0:0:0:
64,192,144270,1,0,0:0:0:0:
192,192,144461,1,0,0:0:0:0:
320,192,144653,1,2,0:0:0:0:
192,192,144716,1,2,0:0:0:0:
64,192,144780,1,2,0:0:0:0:
448,192,144844,1,8,0:0:0:0:
320,192,144844,1,0,0:0:0:0:
192,192,145035,1,2,0:0:0:0:
64,192,145035,1,0,0:0:0:0:
448,192,145226,1,4,0:0:0:0:
320,192,145226,1,2,0:0:0:0:
64,192,145417,1,0,0:0:0:0:
192,192,145608,1,0,0:0:0:0:
320,192,145799,1,2,0:0:0:0:
448,192,145799,1,0,0:0:0:0:
64,192,145990,1,8,0:0:0:0:
192,192,145990,1,0,0:0:0:0:
448,192,146181,1,0,0:0:0:0:
320,192,146372,1,0,0:0:0:0:
448,192,146563,1,2,0:0:0:0:
64,192,146563,1,0,0:0:0:0:
192,192,146754,1,0,0:0:0:0:
320,192,146946,1,0,0:0:0:0:
448,192,146946,1,2,0:0:0:0:
192,192,147137,1,0,0:0:0:0:
64,192,147137,1,2,0:0:0:0:
320,192,147328,1,0,0:0:0:0:
448,192,147519,1,8,0:0:0:0:
192,192,147519,1,0,0:0:0:0:
320,192,147710,1,2,0:0:0:0:
64,192,147710,1,0,0:0:0:0:
192,192,147901,1,0,0:0:0:0:
320,192,148092,1,0,0:0:0:0:
64,192,148283,1,0,0:0:0:0:
448,192,148283,1,2,0:0:0:0:
192,192,148474,1,0,0:0:0:0:
320,192,148665,1,0,0:0:0:0:
192,192,148856,1,2,0:0:0:0:
64,192,148856,1,0,0:0:0:0:
448,192,149047,1,8,0:0:0:0:
320,192,149047,1,0,0:0:0:0:
64,192,149239,1,0,0:0:0:0:
192,192,149430,1,0,0:0:0:0:
64,192,149621,1,0,0:0:0:0:
448,192,149621,1,2,0:0:0:0:
320,192,149812,1,0,0:0:0:0:
192,192,150003,1,2,0:0:0:0:
64,192,150003,1,0,0:0:0:0:
320,192,150194,1,2,0:0:0:0:
448,192,150194,1,0,0:0:0:0:
64,192,150385,1,0,0:0:0:0:
448,192,150576,1,8,0:0:0:0:
192,192,150576,1,0,0:0:0:0:
64,192,150767,1,0,0:0:0:0:
320,192,150767,1,2,0:0:0:0:
192,192,150958,1,0,0:0:0:0:
320,192,151149,1,0,0:0:0:0:
64,192,151340,1,4,0:0:0:0:
192,192,151340,1,2,0:0:0:0:
448,192,151340,1,0,0:0:0:0:
320,192,151531,1,0,0:0:0:0:
448,192,151723,1,0,0:0:0:0:
192,192,151914,1,2,0:0:0:0:
64,192,151914,1,0,0:0:0:0:
448,192,152105,1,8,0:0:0:0:
320,192,152105,1,0,0:0:0:0:
64,192,152296,1,0,0:0:0:0:
192,192,152487,1,0,0:0:0:0:
448,192,152678,1,2,0:0:0:0:
64,192,152678,1,0,0:0:0:0:
320,192,152869,1,0,0:0:0:0:
192,192,153060,1,2,0:0:0:0:
64,192,153060,1,0,0:0:0:0:
448,192,153251,1,0,0:0:0:0:
320,192,153251,1,2,0:0:0:0:
64,192,153442,1,0,0:0:0:0:
448,192,153633,1,8,0:0:0:0:
192,192,153633,1,0,0:0:0:0:
320,192,153824,1,2,0:0:0:0:
64,192,153824,1,0,0:0:0:0:
448,192,154016,1,0,0:0:0:0:
192,192,154207,1,0,0:0:0:0:
320,192,154398,1,2,0:0:0:0:
448,192,154398,1,0,0:0:0:0:
64,192,154589,1,0,0:0:0:0:
192,192,154780,1,0,0:0:0:0:
320,192,154971,1,2,0:0:0:0:
448,192,154971,1,0,0:0:0:0:
192,192,155162,1,0,0:0:0:0:
64,192,155162,1,8,0:0:0:0:
320,192,155353,1,0,0:0:0:0:
192,192,155544,1,0,0:0:0:0:
448,192,155735,1,2,0:0:0:0:
64,192,155735,1,0,0:0:0:0:
320,192,155926,1,0,0:0:0:0:
448,192,156117,1,2,0:0:0:0:
192,192,156117,1,0,0:0:0:0:
320,192,156309,1,2,0:0:0:0:
64,192,156309,1,0,0:0:0:0:
192,192,156500,1,0,0:0:0:0:
448,192,156691,1,8,0:0:0:0:
320,192,156691,1,0,0:0:0:0:
192,192,156882,1,2,0:0:0:0:
320,192,156946,1,2,0:0:0:0:
448,192,157009,1,2,0:0:0:0:
192,192,157073,1,8,0:0:0:0:
64,192,157073,128,0,157455:0:0:0:0:
448,192,157455,128,0,160512:0:0:0:0:
320,192,157455,1,2,0:0:0:0:
192,192,157455,1,4,0:0:0:0:
64,192,157646,1,2,0:0:0:0:
320,192,157837,1,2,0:0:0:0:
64,192,158028,1,8,0:0:0:0:
192,192,158028,1,0,0:0:0:0:
320,192,158219,1,2,0:0:0:0:
192,192,158410,1,2,0:0:0:0:
64,192,158602,1,8,0:0:0:0:
320,192,158602,1,0,0:0:0:0:
192,192,158793,1,2,0:0:0:0:
64,192,158984,1,2,0:0:0:0:
192,192,159175,1,0,0:0:0:0:
320,192,159175,1,8,0:0:0:0:
64,192,159366,1,2,0:0:0:0:
320,192,159557,1,2,0:0:0:0:
64,192,159748,1,8,0:0:0:0:
192,192,159748,1,0,0:0:0:0:
320,192,159939,1,2,0:0:0:0:
64,192,160130,1,8,0:0:0:0:
192,192,160226,1,8,0:0:0:0:
320,192,160321,1,2,0:0:0:0:
64,192,160512,128,4,163570:0:0:0:0:
192,192,160512,1,2,0:0:0:0:
320,192,160703,1,2,0:0:0:0:
192,192,160895,1,2,0:0:0:0:
320,192,161086,1,0,0:0:0:0:
448,192,161086,1,8,0:0:0:0:
192,192,161277,1,2,0:0:0:0:
448,192,161468,1,2,0:0:0:0:
320,192,161659,1,0,0:0:0:0:
192,192,161659,1,8,0:0:0:0:
448,192,161850,1,2,0:0:0:0:
320,192,162041,1,2,0:0:0:0:
192,192,162232,1,8,0:0:0:0:
448,192,162232,1,0,0:0:0:0:
320,192,162423,1,2,0:0:0:0:
192,192,162614,1,2,0:0:0:0:
320,192,162805,1,0,0:0:0:0:
448,192,162805,1,8,0:0:0:0:
448,192,162996,1,8,0:0:0:0:
192,192,163092,1,8,0:0:0:0:
320,192,163188,1,2,0:0:0:0:
448,192,163283,1,2,0:0:0:0:
192,192,163379,1,8,0:0:0:0:
320,192,163474,1,2,0:0:0:0:
448,192,163570,128,4,166627:0:0:0:0:
192,192,163570,1,2,0:0:0:0:
320,192,163761,1,2,0:0:0:0:
64,192,163952,1,2,0:0:0:0:
192,192,164143,1,8,0:0:0:0:
320,192,164143,1,0,0:0:0:0:
64,192,164334,1,2,0:0:0:0:
320,192,164525,1,2,0:0:0:0:
192,192,164716,1,0,0:0:0:0:
64,192,164716,1,8,0:0:0:0:
320,192,164907,1,2,0:0:0:0:
192,192,165098,1,2,0:0:0:0:
64,192,165289,1,8,0:0:0:0:
320,192,165289,1,0,0:0:0:0:
192,192,165481,1,2,0:0:0:0:
320,192,165672,1,2,0:0:0:0:
64,192,165863,1,8,0:0:0:0:
192,192,165863,1,0,0:0:0:0:
320,192,166054,1,2,0:0:0:0:
64,192,166245,1,8,0:0:0:0:
192,192,166340,1,8,0:0:0:0:
320,192,166436,1,2,0:0:0:0:
64,192,166627,128,4,167774:0:0:0:0:
192,192,166627,1,2,0:0:0:0:
320,192,166818,1,2,0:0:0:0:
192,192,167009,1,0,0:0:0:0:
448,192,167009,1,2,0:0:0:0:
320,192,167200,1,8,0:0:0:0:
448,192,167391,1,2,0:0:0:0:
192,192,167582,1,2,0:0:0:0:
320,192,167678,1,2,0:0:0:0:
448,192,167774,128,0,168156:0:0:0:0:
192,192,167774,1,8,0:0:0:0:
320,192,167965,1,2,0:0:0:0:
64,192,168156,1,0,0:0:0:0:
192,192,168156,1,8,0:0:0:0:
320,192,168251,1,8,0:0:0:0:
448,192,168251,1,0,0:0:0:0:
64,192,168347,1,0,0:0:0:0:
192,192,168347,1,8,0:0:0:0:
320,192,168442,1,8,0:0:0:0:
448,192,168442,1,0,0:0:0:0:
64,192,168538,1,2,0:0:0:0:
192,192,168538,1,0,0:0:0:0:
320,192,168633,1,2,0:0:0:0:
448,192,168729,1,2,0:0:0:0:
192,192,168824,1,2,0:0:0:0:
320,192,168920,1,2,0:0:0:0:
64,192,169016,1,2,0:0:0:0:
448,192,169111,1,2,0:0:0:0:
320,192,169175,1,2,0:0:0:0:
192,192,169239,1,2,0:0:0:0:
64,192,169302,1,8,0:0:0:0:
448,192,169302,1,0,0:0:0:0:
192,192,169493,1,0,0:0:0:0:
320,192,169493,1,2,0:0:0:0:
192,192,169684,1,2,0:0:0:0:
64,192,169684,1,4,0:0:0:0:
448,192,169684,128,0,170258:0:0:0:0:
320,192,169875,1,2,0:0:0:0:
64,192,170067,1,8,0:0:0:0:
192,192,170067,1,0,0:0:0:0:
320,192,170258,128,2,170831:0:0:0:0:
64,192,170449,1,2,0:0:0:0:
448,192,170449,1,0,0:0:0:0:
192,192,170640,1,2,0:0:0:0:
448,192,170831,1,8,0:0:0:0:
64,192,170831,128,0,171213:0:0:0:0:
448,192,171022,1,2,0:0:0:0:
192,192,171213,128,0,172360:0:0:0:0:
320,192,171213,1,2,0:0:0:0:
448,192,171404,1,2,0:0:0:0:
448,192,171595,1,8,0:0:0:0:
64,192,171595,1,0,0:0:0:0:
320,192,171786,1,2,0:0:0:0:
64,192,171977,1,0,0:0:0:0:
448,192,171977,1,2,0:0:0:0:
64,192,172168,1,2,0:0:0:0:
448,192,172360,1,8,0:0:0:0:
320,192,172360,1,0,0:0:0:0:
64,192,172551,1,2,0:0:0:0:
320,192,172742,1,2,0:0:0:0:
192,192,172742,128,0,173315:0:0:0:0:
320,192,172933,1,2,0:0:0:0:
448,192,173124,1,0,0:0:0:0:
64,192,173124,1,8,0:0:0:0:
320,192,173315,128,2,173888:0:0:0:0:
448,192,173506,1,2,0:0:0:0:
64,192,173506,1,0,0:0:0:0:
192,192,173697,1,2,0:0:0:0:
448,192,173888,1,8,0:0:0:0:
64,192,173888,128,0,174461:0:0:0:0:
192,192,174079,1,2,0:0:0:0:
320,192,174270,1,2,0:0:0:0:
448,192,174270,1,0,0:0:0:0:
192,192,174461,128,2,175035:0:0:0:0:
320,192,174653,1,8,0:0:0:0:
448,192,174653,1,0,0:0:0:0:
320,192,174844,1,2,0:0:0:0:
64,192,175035,1,2,0:0:0:0:
448,192,175035,128,0,175417:0:0:0:0:
320,192,175226,128,2,175417:0:0:0:0:
64,192,175417,1,0,0:0:0:0:
192,192,175417,1,8,0:0:0:0:
320,192,175512,1,8,0:0:0:0:
448,192,175512,1,0,0:0:0:0:
64,192,175608,1,0,0:0:0:0:
192,192,175608,1,8,0:0:0:0:
320,192,175703,1,8,0:0:0:0:
448,192,175703,1,0,0:0:0:0:
64,192,175799,1,4,0:0:0:0:
192,192,175799,1,8,0:0:0:0:
320,192,175990,1,2,0:0:0:0:
448,192,175990,1,0,0:0:0:0:
448,192,176181,1,0,0:0:0:0:
192,192,176181,1,8,0:0:0:0:
320,192,176372,1,2,0:0:0:0:
64,192,176372,1,0,0:0:0:0:
64,192,176563,1,0,0:0:0:0:
448,192,176563,1,8,0:0:0:0:
320,192,176754,1,2,0:0:0:0:
192,192,176754,1,0,0:0:0:0:
320,192,176946,1,0,0:0:0:0:
448,192,176946,1,8,0:0:0:0:
192,192,177137,1,2,0:0:0:0:
320,192,177232,1,2,0:0:0:0:
448,192,177328,1,8,0:0:0:0:
64,192,177328,1,0,0:0:0:0:
64,192,177519,1,0,0:0:0:0:
192,192,177519,1,2,0:0:0:0:
448,192,177710,1,0,0:0:0:0:
320,192,177710,1,8,0:0:0:0:
448,192,177901,1,0,0:0:0:0:
192,192,177901,1,2,0:0:0:0:
320,192,178092,1,0,0:0:0:0:
64,192,178092,1,8,0:0:0:0:
192,192,178283,1,2,0:0:0:0:
320,192,178347,1,2,0:0:0:0:
448,192,178410,1,2,0:0:0:0:
64,192,178474,1,8,0:0:0:0:
192,192,178474,1,0,0:0:0:0:
320,192,178665,1,2,0:0:0:0:
448,192,178665,1,0,0:0:0:0:
448,192,178856,1,2,0:0:0:0:
64,192,178856,1,4,0:0:0:0:
192,192,178952,1,2,0:0:0:0:
320,192,179047,1,2,0:0:0:0:
448,192,179047,1,0,0:0:0:0:
64,192,179143,1,2,0:0:0:0:
320,192,179239,1,0,0:0:0:0:
192,192,179239,1,2,0:0:0:0:
448,192,179334,1,2,0:0:0:0:
192,192,179430,1,2,0:0:0:0:
64,192,179430,1,8,0:0:0:0:
448,192,179525,1,2,0:0:0:0:
64,192,179621,1,0,0:0:0:0:
320,192,179621,1,2,0:0:0:0:
192,192,179716,1,2,0:0:0:0:
448,192,179812,1,2,0:0:0:0:
320,192,179812,1,0,0:0:0:0:
64,192,179907,1,2,0:0:0:0:
320,192,180003,1,8,0:0:0:0:
192,192,180003,1,2,0:0:0:0:
448,192,180098,1,2,0:0:0:0:
64,192,180194,1,0,0:0:0:0:
192,192,180194,1,2,0:0:0:0:
448,192,180289,1,2,0:0:0:0:
64,192,180385,1,0,0:0:0:0:
320,192,180385,1,2,0:0:0:0:
192,192,180481,1,2,0:0:0:0:
448,192,180576,1,8,0:0:0:0:
320,192,180576,1,0,0:0:0:0:
448,192,180767,1,8,0:0:0:0:
64,192,180767,1,0,0:0:0:0:
192,192,180767,1,0,0:0:0:0:
320,192,180958,1,2,0:0:0:0:
192,192,181054,1,2,0:0:0:0:
448,192,181149,1,0,0:0:0:0:
64,192,181149,1,8,0:0:0:0:
320,192,181213,1,2,0:0:0:0:
192,192,181277,1,2,0:0:0:0:
448,192,181340,1,2,0:0:0:0:
64,192,181404,1,2,0:0:0:0:
192,192,181468,1,2,0:0:0:0:
320,192,181531,1,8,0:0:0:0:
448,192,181531,1,0,0:0:0:0:
192,192,181723,1,2,0:0:0:0:
320,192,181914,1,4,0:0:0:0:
64,192,181914,1,0,0:0:0:0:
448,192,181914,1,2,0:0:0:0:
64,192,182105,1,0,0:0:0:0:
320,192,182296,1,0,0:0:0:0:
320,192,182487,1,0,0:0:0:0:
64,192,182678,1,0,0:0:0:0:
64,192,182869,1,0,0:0:0:0:
320,192,183060,1,0,0:0:0:0:
320,192,183251,1,0,0:0:0:0:
192,192,183442,1,0,0:0:0:0:
448,192,183729,1,0,0:0:0:0:
64,192,183824,1,0,0:0:0:0:
448,192,184016,1,0,0:0:0:0:
192,192,184207,1,2,0:0:0:0:
320,192,184270,1,2,0:0:0:0:
448,192,184334,1,2,0:0:0:0:
64,192,184398,128,0,184589:0:0:0:0:
192,192,184398,128,2,184589:0:0:0:0:
320,192,184589,128,2,184971:0:0:0:0:
448,192,184589,128,8,184971:0:0:0:0:
64,192,184971,1,4,0:0:0:0:
192,192,184971,1,2,0:0:0:0:
320,192,185162,1,2,0:0:0:0:
192,192,185258,1,0,0:0:0:0:
64,192,185353,1,8,0:0:0:0:
320,192,185353,1,0,0:0:0:0:
448,192,185449,1,0,0:0:0:0:
320,192,185544,1,2,0:0:0:0:
192,192,185640,1,0,0:0:0:0:
448,192,185735,1,0,0:0:0:0:
64,192,185735,1,2,0:0:0:0:
192,192,185831,1,0,0:0:0:0:
320,192,185926,1,2,0:0:0:0:
448,192,186022,1,0,0:0:0:0:
64,192,186117,1,8,0:0:0:0:
320,192,186117,1,0,0:0:0:0:
192,192,186213,1,0,0:0:0:0:
320,192,186309,1,2,0:0:0:0:
192,192,186404,1,0,0:0:0:0:
448,192,186500,1,0,0:0:0:0:
64,192,186500,1,2,0:0:0:0:
320,192,186595,1,0,0:0:0:0:
192,192,186691,1,2,0:0:0:0:
320,192,186786,1,0,0:0:0:0:
448,192,186882,1,0,0:0:0:0:
64,192,186882,1,8,0:0:0:0:
192,192,186977,1,0,0:0:0:0:
320,192,187073,1,2,0:0:0:0:
448,192,187168,1,0,0:0:0:0:
64,192,187264,1,0,0:0:0:0:
320,192,187264,1,2,0:0:0:0:
192,192,187360,1,0,0:0:0:0:
64,192,187455,1,8,0:0:0:0:
448,192,187455,1,0,0:0:0:0:
320,192,187551,1,0,0:0:0:0:
448,192,187646,1,0,0:0:0:0:
192,192,187646,1,2,0:0:0:0:
64,192,187742,1,0,0:0:0:0:
320,192,187837,1,0,0:0:0:0:
192,192,187837,1,8,0:0:0:0:
448,192,187933,1,0,0:0:0:0:
320,192,188028,128,4,188219:0:0:0:0:
64,192,188028,1,2,0:0:0:0:
192,192,188219,128,0,188410:0:0:0:0:
448,192,188219,1,2,0:0:0:0:
320,192,188410,128,0,188602:0:0:0:0:
448,192,188602,128,0,188984:0:0:0:0:
64,192,188602,1,2,0:0:0:0:
64,192,188793,1,8,0:0:0:0:
192,192,188793,1,0,0:0:0:0:
320,192,188984,1,0,0:0:0:0:
192,192,189175,128,0,189366:0:0:0:0:
448,192,189175,1,2,0:0:0:0:
320,192,189366,128,0,189557:0:0:0:0:
64,192,189366,1,2,0:0:0:0:
192,192,189557,128,0,189748:0:0:0:0:
64,192,189748,128,0,190130:0:0:0:0:
448,192,189748,1,2,0:0:0:0:
320,192,189939,1,0,0:0:0:0:
448,192,189939,1,2,0:0:0:0:
192,192,190130,1,0,0:0:0:0:
64,192,190321,1,0,0:0:0:0:
448,192,190321,1,8,0:0:0:0:
192,192,190512,1,0,0:0:0:0:
320,192,190512,1,2,0:0:0:0:
320,192,190703,1,2,0:0:0:0:
64,192,190703,1,0,0:0:0:0:
448,192,190895,1,8,0:0:0:0:
192,192,190895,1,0,0:0:0:0:
64,192,191086,128,0,191277:0:0:0:0:
320,192,191086,1,2,0:0:0:0:
192,192,191277,128,0,191468:0:0:0:0:
448,192,191277,1,2,0:0:0:0:
320,192,191468,128,0,191659:0:0:0:0:
448,192,191659,128,0,192041:0:0:0:0:
192,192,191659,1,2,0:0:0:0:
64,192,191850,1,8,0:0:0:0:
320,192,191850,1,0,0:0:0:0:
192,192,192041,128,0,192232:0:0:0:0:
64,192,192041,1,2,0:0:0:0:
320,192,192232,128,0,192423:0:0:0:0:
448,192,192232,1,2,0:0:0:0:
64,192,192423,128,0,192614:0:0:0:0:
192,192,192423,1,8,0:0:0:0:
320,192,192614,1,2,0:0:0:0:
448,192,192614,1,4,0:0:0:0:
64,192,192805,1,0,0:0:0:0:
448,192,192805,1,8,0:0:0:0:
192,192,192901,1,0,0:0:0:0:
320,192,192901,1,8,0:0:0:0:
64,192,192996,1,0,0:0:0:0:
448,192,192996,1,8,0:0:0:0:
320,192,193092,1,8,0:0:0:0:
192,192,193092,1,0,0:0:0:0:
64,192,193188,1,0,0:0:0:0:
448,192,193188,1,2,0:0:0:0:
320,192,193283,1,2,0:0:0:0:
64,192,193379,128,0,193761:0:0:0:0:
192,192,193379,1,8,0:0:0:0:
448,192,193474,1,8,0:0:0:0:
320,192,193570,1,2,0:0:0:0:
192,192,193665,1,2,0:0:0:0:
320,192,193761,1,2,0:0:0:0:
448,192,193761,128,0,194143:0:0:0:0:
64,192,193856,1,2,0:0:0:0:
192,192,193952,1,8,0:0:0:0:
320,192,194047,1,8,0:0:0:0:
192,192,194143,1,2,0:0:0:0:
64,192,194143,1,4,0:0:0:0:
320,192,194334,1,2,0:0:0:0:
192,192,194430,1,0,0:0:0:0:
64,192,194525,1,0,0:0:0:0:
320,192,194525,1,8,0:0:0:0:
448,192,194621,1,0,0:0:0:0:
192,192,194716,1,2,0:0:0:0:
320,192,194812,1,0,0:0:0:0:
448,192,194907,1,0,0:0:0:0:
192,192,194907,1,2,0:0:0:0:
64,192,195003,1,0,0:0:0:0:
320,192,195098,1,2,0:0:0:0:
192,192,195194,1,0,0:0:0:0:
64,192,195289,1,0,0:0:0:0:
320,192,195289,1,8,0:0:0:0:
448,192,195385,1,0,0:0:0:0:
192,192,195481,1,2,0:0:0:0:
320,192,195576,1,0,0:0:0:0:
64,192,195672,1,2,0:0:0:0:
448,192,195672,1,0,0:0:0:0:
192,192,195767,1,0,0:0:0:0:
320,192,195863,1,2,0:0:0:0:
192,192,195958,1,0,0:0:0:0:
448,192,196054,1,0,0:0:0:0:
64,192,196054,1,8,0:0:0:0:
320,192,196149,1,0,0:0:0:0:
192,192,196245,1,2,0:0:0:0:
64,192,196340,1,0,0:0:0:0:
320,192,196436,1,2,0:0:0:0:
448,192,196436,1,0,0:0:0:0:
192,192,196531,1,0,0:0:0:0:
448,192,196627,1,2,0:0:0:0:
320,192,196723,1,0,0:0:0:0:
192,192,196818,1,0,0:0:0:0:
64,192,196818,1,8,0:0:0:0:
320,192,196914,1,0,0:0:0:0:
448,192,197009,1,2,0:0:0:0:
192,192,197105,1,0,0:0:0:0:
448,192,197200,1,4,0:0:0:0:
320,192,197200,1,2,0:0:0:0:
64,192,197296,1,0,0:0:0:0:
192,192,197391,1,2,0:0:0:0:
448,192,197487,1,0,0:0:0:0:
64,192,197582,1,8,0:0:0:0:
320,192,197582,1,0,0:0:0:0:
192,192,197678,1,0,0:0:0:0:
320,192,197774,1,2,0:0:0:0:
448,192,197869,1,0,0:0:0:0:
192,192,197965,1,2,0:0:0:0:
64,192,197965,1,0,0:0:0:0:
320,192,198060,1,0,0:0:0:0:
192,192,198156,1,2,0:0:0:0:
64,192,198251,1,0,0:0:0:0:
448,192,198347,1,8,0:0:0:0:
320,192,198347,1,0,0:0:0:0:
192,192,198442,1,0,0:0:0:0:
448,192,198538,1,2,0:0:0:0:
320,192,198633,1,0,0:0:0:0:
192,192,198729,1,2,0:0:0:0:
64,192,198729,1,0,0:0:0:0:
320,192,198824,1,0,0:0:0:0:
64,192,198920,1,2,0:0:0:0:
192,192,199016,1,0,0:0:0:0:
448,192,199111,1,0,0:0:0:0:
320,192,199111,1,8,0:0:0:0:
192,192,199302,1,2,0:0:0:0:
320,192,199366,1,2,0:0:0:0:
448,192,199430,1,2,0:0:0:0:
64,192,199493,1,8,0:0:0:0:
192,192,199493,1,0,0:0:0:0:
320,192,199684,1,2,0:0:0:0:
192,192,199748,1,2,0:0:0:0:
64,192,199812,1,2,0:0:0:0:
320,192,199875,1,0,0:0:0:0:
448,192,199875,1,8,0:0:0:0:
192,192,200067,1,0,0:0:0:0:
64,192,200067,1,2,0:0:0:0:
320,192,200258,128,4,200449:0:0:0:0:
448,192,200258,1,2,0:0:0:0:
192,192,200449,128,0,200640:0:0:0:0:
64,192,200449,1,2,0:0:0:0:
320,192,200640,128,0,200831:0:0:0:0:
448,192,200831,128,0,201213:0:0:0:0:
64,192,200831,1,2,0:0:0:0:
64,192,201022,1,0,0:0:0:0:
192,192,201022,1,8,0:0:0:0:
320,192,201213,1,0,0:0:0:0:
192,192,201404,128,0,201595:0:0:0:0:
64,192,201404,1,2,0:0:0:0:
320,192,201595,128,0,201786:0:0:0:0:
448,192,201595,1,2,0:0:0:0:
192,192,201786,128,0,201977:0:0:0:0:
64,192,201977,128,0,202360:0:0:0:0:
448,192,201977,1,2,0:0:0:0:
320,192,202168,1,2,0:0:0:0:
448,192,202168,1,0,0:0:0:0:
192,192,202360,1,0,0:0:0:0:
64,192,202551,1,0,0:0:0:0:
448,192,202551,1,8,0:0:0:0:
320,192,202742,1,2,0:0:0:0:
64,192,202742,1,0,0:0:0:0:
192,192,202933,1,0,0:0:0:0:
448,192,202933,1,2,0:0:0:0:
64,192,203124,1,0,0:0:0:0:
448,192,203124,1,8,0:0:0:0:
320,192,203315,1,2,0:0:0:0:
64,192,203315,128,0,203506:0:0:0:0:
192,192,203506,128,0,203697:0:0:0:0:
448,192,203506,1,2,0:0:0:0:
320,192,203697,128,0,203888:0:0:0:0:
448,192,203888,128,0,204270:0:0:0:0:
192,192,203888,1,2,0:0:0:0:
320,192,204079,1,0,0:0:0:0:
64,192,204079,1,8,0:0:0:0:
192,192,204270,128,0,204461:0:0:0:0:
64,192,204270,1,2,0:0:0:0:
320,192,204461,128,0,204653:0:0:0:0:
448,192,204461,1,2,0:0:0:0:
64,192,204653,128,0,204844:0:0:0:0:
192,192,204653,1,8,0:0:0:0:
320,192,204844,1,2,0:0:0:0:
448,192,204844,1,4,0:0:0:0:
192,192,204939,1,8,0:0:0:0:
64,192,205035,1,0,0:0:0:0:
320,192,205035,1,8,0:0:0:0:
448,192,205130,1,8,0:0:0:0:
64,192,205226,1,0,0:0:0:0:
192,192,205226,1,2,0:0:0:0:
448,192,205321,1,2,0:0:0:0:
320,192,205417,1,2,0:0:0:0:
192,192,205417,1,0,0:0:0:0:
64,192,205512,1,2,0:0:0:0:
448,192,205608,1,0,0:0:0:0:
320,192,205608,1,8,0:0:0:0:
192,192,205703,1,8,0:0:0:0:
64,192,205703,1,0,0:0:0:0:
320,192,205799,1,2,0:0:0:0:
448,192,205799,1,0,0:0:0:0:
64,192,205895,1,0,0:0:0:0:
192,192,205895,1,2,0:0:0:0:
320,192,205990,1,2,0:0:0:0:
448,192,205990,128,4,208665:0:0:0:0:
64,192,206181,1,2,0:0:0:0:
192,192,206181,1,0,0:0:0:0:
192,192,206372,1,4,0:0:0:0:
320,192,206372,1,0,0:0:0:0:
64,192,206372,1,2,0:0:0:0:
320,192,206946,1,0,0:0:0:0:
192,192,206946,1,2,0:0:0:0:
64,192,207137,1,8,0:0:0:0:
192,192,207137,1,0,0:0:0:0:
64,192,207519,1,0,0:0:0:0:
320,192,207519,1,2,0:0:0:0:
320,192,207710,1,2,0:0:0:0:
192,192,207710,1,0,0:0:0:0:
64,192,208092,1,8,0:0:0:0:
192,192,208092,1,0,0:0:0:0:
320,192,208283,1,2,0:0:0:0:
64,192,208283,1,0,0:0:0:0:
192,192,208474,1,0,0:0:0:0:
320,192,208474,1,2,0:0:0:0:
192,192,208665,1,0,0:0:0:0:
64,192,208665,1,8,0:0:0:0:
320,192,208856,128,0,209047:0:0:0:0:
192,192,209047,128,0,209239:0:0:0:0:
448,192,209047,1,2,0:0:0:0:
320,192,209239,128,0,209430:0:0:0:0:
64,192,209239,1,8,0:0:0:0:
448,192,209430,128,0,211340:0:0:0:0:
192,192,209430,1,2,0:0:0:0:
64,192,209430,1,4,0:0:0:0:
320,192,210003,1,2,0:0:0:0:
64,192,210003,1,0,0:0:0:0:
64,192,210194,1,0,0:0:0:0:
192,192,210194,1,8,0:0:0:0:
320,192,210576,1,2,0:0:0:0:
64,192,210576,1,0,0:0:0:0:
192,192,210767,1,0,0:0:0:0:
320,192,210767,1,2,0:0:0:0:
64,192,211149,1,8,0:0:0:0:
192,192,211149,1,0,0:0:0:0:
320,192,211340,1,2,0:0:0:0:
192,192,211340,1,0,0:0:0:0:
64,192,211531,1,0,0:0:0:0:
320,192,211531,1,2,0:0:0:0:
192,192,211723,1,8,0:0:0:0:
448,192,211723,128,0,211914:0:0:0:0:
320,192,211914,128,0,212105:0:0:0:0:
64,192,211914,1,2,0:0:0:0:
192,192,212009,1,2,0:0:0:0:
448,192,212105,1,8,0:0:0:0:
64,192,212105,128,0,212296:0:0:0:0:
192,192,212296,128,4,212487:0:0:0:0:
320,192,212296,1,2,0:0:0:0:
64,192,212487,1,2,0:0:0:0:
448,192,212487,128,4,213060:0:0:0:0:
320,192,213060,128,0,213442:0:0:0:0:
192,192,213060,1,2,0:0:0:0:
64,192,213251,1,8,0:0:0:0:
448,192,213251,1,0,0:0:0:0:
192,192,213442,128,0,213824:0:0:0:0:
448,192,213633,1,2,0:0:0:0:
320,192,213633,1,0,0:0:0:0:
64,192,213824,128,0,214780:0:0:0:0:
320,192,213824,1,2,0:0:0:0:
192,192,214207,1,0,0:0:0:0:
448,192,214207,1,8,0:0:0:0:
320,192,214398,1,2,0:0:0:0:
448,192,214398,1,0,0:0:0:0:
320,192,214589,1,2,0:0:0:0:
192,192,214589,1,0,0:0:0:0:
192,192,214780,1,0,0:0:0:0:
448,192,214780,1,8,0:0:0:0:
320,192,215162,1,2,0:0:0:0:
64,192,215162,1,0,0:0:0:0:
448,192,215353,1,0,0:0:0:0:
192,192,215353,1,8,0:0:0:0:
448,192,215544,1,4,0:0:0:0:
320,192,215544,1,2,0:0:0:0:
64,192,215544,1,0,0:0:0:0:
64,192,215926,1,0,0:0:0:0:
320,192,216117,1,2,0:0:0:0:
448,192,216117,128,0,216500:0:0:0:0:
192,192,216213,1,2,0:0:0:0:
64,192,216309,1,8,0:0:0:0:
320,192,216309,1,0,0:0:0:0:
192,192,216500,1,2,0:0:0:0:
64,192,216500,128,0,216882:0:0:0:0:
320,192,216691,1,2,0:0:0:0:
448,192,216691,1,0,0:0:0:0:
448,192,216882,1,8,0:0:0:0:
192,192,216882,128,0,217073:0:0:0:0:
320,192,217073,1,2,0:0:0:0:
448,192,217073,1,0,0:0:0:0:
64,192,217168,1,0,0:0:0:0:
192,192,217168,1,8,0:0:0:0:
320,192,217264,1,8,0:0:0:0:
448,192,217264,1,0,0:0:0:0:
64,192,217360,1,0,0:0:0:0:
192,192,217360,1,8,0:0:0:0:
448,192,217455,1,0,0:0:0:0:
320,192,217455,1,2,0:0:0:0:
192,192,217551,1,8,0:0:0:0:
64,192,217551,1,0,0:0:0:0:
320,192,217646,1,8,0:0:0:0:
448,192,217646,1,0,0:0:0:0:
64,192,217742,1,0,0:0:0:0:
192,192,217742,1,8,0:0:0:0:
448,192,217837,1,2,0:0:0:0:
320,192,217901,1,2,0:0:0:0:
64,192,217965,1,2,0:0:0:0:
192,192,218028,1,2,0:0:0:0:
320,192,218092,1,2,0:0:0:0:
448,192,218156,1,2,0:0:0:0:
64,192,218219,1,2,0:0:0:0:
192,192,218283,1,2,0:0:0:0:
448,192,218347,1,2,0:0:0:0:
320,192,218410,1,2,0:0:0:0:
192,192,218474,1,2,0:0:0:0:
64,192,218538,1,2,0:0:0:0:
320,192,218602,1,2,0:0:0:0:
448,192,218602,1,4,0:0:0:0:
320,192,218793,1,2,0:0:0:0:
448,192,218984,1,8,0:0:0:0:
192,192,218984,1,0,0:0:0:0:
64,192,219175,128,2,219557:0:0:0:0:
320,192,219366,1,2,0:0:0:0:
448,192,219557,128,2,219939:0:0:0:0:
192,192,219748,1,8,0:0:0:0:
64,192,219748,1,0,0:0:0:0:
320,192,219939,128,2,220512:0:0:0:0:
448,192,220130,1,0,0:0:0:0:
64,192,220130,1,2,0:0:0:0:
192,192,220321,1,2,0:0:0:0:
64,192,220512,1,8,0:0:0:0:
448,192,220512,1,0,0:0:0:0:
192,192,220703,1,2,0:0:0:0:
64,192,220895,1,0,0:0:0:0:
320,192,220895,1,2,0:0:0:0:
448,192,221086,1,2,0:0:0:0:
64,192,221277,1,0,0:0:0:0:
192,192,221277,1,8,0:0:0:0:
320,192,221468,1,2,0:0:0:0:
448,192,221659,1,4,0:0:0:0:
192,192,221659,1,2,0:0:0:0:
64,192,221659,1,0,0:0:0:0:
64,192,221850,1,2,0:0:0:0:
192,192,222041,1,8,0:0:0:0:
320,192,222041,1,0,0:0:0:0:
448,192,222232,128,2,222614:0:0:0:0:
192,192,222423,1,2,0:0:0:0:
64,192,222614,128,2,222996:0:0:0:0:
320,192,222805,1,0,0:0:0:0:
448,192,222805,1,8,0:0:0:0:
192,192,222996,128,2,223570:0:0:0:0:
64,192,223188,1,2,0:0:0:0:
448,192,223188,1,0,0:0:0:0:
320,192,223379,1,2,0:0:0:0:
448,192,223570,1,8,0:0:0:0:
64,192,223570,1,0,0:0:0:0:
320,192,223761,1,2,0:0:0:0:
448,192,223952,128,0,224143:0:0:0:0:
192,192,223952,1,2,0:0:0:0:
64,192,224143,1,2,0:0:0:0:
192,192,224207,1,2,0:0:0:0:
320,192,224270,1,2,0:0:0:0:
64,192,224334,128,0,224525:0:0:0:0:
448,192,224334,1,8,0:0:0:0:
192,192,224525,1,2,0:0:0:0:
320,192,224525,128,4,224716:0:0:0:0:
64,192,224716,1,4,0:0:0:0:
448,192,224716,1,2,0:0:0:0:
320,192,224907,1,2,0:0:0:0:
64,192,225098,1,0,0:0:0:0:
448,192,225098,1,0,0:0:0:0:
192,192,225098,1,8,0:0:0:0:
320,192,225289,1,2,0:0:0:0:
448,192,225481,1,0,0:0:0:0:
64,192,225481,1,0,0:0:0:0:
192,192,225481,1,8,0:0:0:0:
320,192,225672,1,2,0:0:0:0:
64,192,225863,1,0,0:0:0:0:
192,192,225863,1,8,0:0:0:0:
448,192,225863,1,0,0:0:0:0:
320,192,226054,1,2,0:0:0:0:
192,192,226149,1,2,0:0:0:0:
448,192,226245,1,8,0:0:0:0:
320,192,226245,1,0,0:0:0:0:
64,192,226245,1,2,0:0:0:0:
192,192,226436,1,2,0:0:0:0:
448,192,226627,1,8,0:0:0:0:
64,192,226627,1,0,0:0:0:0:
320,192,226627,1,0,0:0:0:0:
192,192,226818,1,2,0:0:0:0:
64,192,227009,1,0,0:0:0:0:
448,192,227009,1,8,0:0:0:0:
320,192,227009,1,0,0:0:0:0:
192,192,227200,1,2,0:0:0:0:
320,192,227264,1,2,0:0:0:0:
448,192,227328,1,2,0:0:0:0:
64,192,227391,1,8,0:0:0:0:
192,192,227391,1,0,0:0:0:0:
320,192,227582,1,2,0:0:0:0:
448,192,227582,1,4,0:0:0:0:
64,192,227774,1,4,0:0:0:0:
448,192,227774,1,2,0:0:0:0:
192,192,227869,1,2,0:0:0:0:
320,192,227965,1,2,0:0:0:0:
192,192,228060,1,2,0:0:0:0:
64,192,228156,1,8,0:0:0:0:
448,192,228156,1,2,0:0:0:0:
320,192,228251,1,2,0:0:0:0:
192,192,228347,1,2,0:0:0:0:
320,192,228442,1,2,0:0:0:0:
448,192,228538,1,8,0:0:0:0:
64,192,228538,1,2,0:0:0:0:
192,192,228633,1,2,0:0:0:0:
320,192,228729,1,2,0:0:0:0:
192,192,228824,1,2,0:0:0:0:
448,192,228920,1,8,0:0:0:0:
64,192,228920,1,2,0:0:0:0:
320,192,229016,1,2,0:0:0:0:
192,192,229111,1,2,0:0:0:0:
320,192,229207,1,2,0:0:0:0:
64,192,229302,1,4,0:0:0:0:
448,192,229302,1,2,0:0:0:0:
192,192,229398,1,8,0:0:0:0:
320,192,229493,1,8,0:0:0:0:
448,192,229589,1,8,0:0:0:0:
192,192,229684,1,0,0:0:0:0:
64,192,229684,1,2,0:0:0:0:
320,192,229780,1,8,0:0:0:0:
192,192,229875,1,8,0:0:0:0:
64,192,229971,1,8,0:0:0:0:
320,192,230067,1,2,0:0:0:0:
448,192,230067,1,0,0:0:0:0:
64,192,230258,1,2,0:0:0:0:
192,192,230321,1,2,0:0:0:0:
448,192,230385,1,2,0:0:0:0:
320,192,230449,1,2,0:0:0:0:
64,192,230512,1,2,0:0:0:0:
192,192,230576,1,2,0:0:0:0:
448,192,230640,1,2,0:0:0:0:
320,192,230703,1,2,0:0:0:0:
192,192,230767,1,2,0:0:0:0:
64,192,230831,1,2,0:0:0:0:
448,192,230831,1,4,0:0:0:0:
320,192,230926,1,2,0:0:0:0:
192,192,231022,1,2,0:0:0:0:
448,192,231117,1,0,0:0:0:0:
64,192,231117,1,2,0:0:0:0:
192,192,231309,1,2,0:0:0:0:
64,192,231309,1,0,0:0:0:0:
320,192,231404,1,2,0:0:0:0:
448,192,231404,1,0,0:0:0:0:
64,192,231595,1,8,0:0:0:0:
448,192,231595,1,0,0:0:0:0:
192,192,231691,1,2,0:0:0:0:
320,192,231786,1,2,0:0:0:0:
64,192,231882,1,0,0:0:0:0:
192,192,231882,1,2,0:0:0:0:
448,192,232073,1,0,0:0:0:0:
320,192,232073,1,2,0:0:0:0:
192,192,232168,1,2,0:0:0:0:
64,192,232168,1,0,0:0:0:0:
64,192,232360,1,0,0:0:0:0:
448,192,232360,1,2,0:0:0:0:
320,192,232455,1,2,0:0:0:0:
192,192,232551,1,2,0:0:0:0:
448,192,232646,1,0,0:0:0:0:
320,192,232646,1,2,0:0:0:0:
64,192,232837,1,0,0:0:0:0:
192,192,232837,1,2,0:0:0:0:
320,192,232933,1,2,0:0:0:0:
448,192,232933,1,0,0:0:0:0:
448,192,233124,1,8,0:0:0:0:
192,192,233124,1,0,0:0:0:0:
64,192,233219,1,2,0:0:0:0:
192,192,233315,1,2,0:0:0:0:
320,192,233410,1,2,0:0:0:0:
448,192,233506,1,8,0:0:0:0:
64,192,233506,128,0,233697:0:0:0:0:
448,192,233697,128,0,233888:0:0:0:0:
320,192,233697,1,2,0:0:0:0:
64,192,233888,1,0,0:0:0:0:
192,192,233888,1,2,0:0:0:0:
320,192,233984,1,2,0:0:0:0:
192,192,234079,1,2,0:0:0:0:
64,192,234175,1,2,0:0:0:0:
448,192,234175,1,0,0:0:0:0:
320,192,234366,1,2,0:0:0:0:
448,192,234366,1,0,0:0:0:0:
192,192,234461,1,2,0:0:0:0:
64,192,234461,1,0,0:0:0:0:
64,192,234653,1,0,0:0:0:0:
448,192,234653,1,8,0:0:0:0:
320,192,234748,1,2,0:0:0:0:
192,192,234844,1,2,0:0:0:0:
448,192,234939,1,0,0:0:0:0:
320,192,234939,1,2,0:0:0:0:
64,192,235130,1,0,0:0:0:0:
192,192,235130,1,2,0:0:0:0:
320,192,235226,1,2,0:0:0:0:
448,192,235226,1,0,0:0:0:0:
448,192,235417,1,0,0:0:0:0:
64,192,235417,1,2,0:0:0:0:
192,192,235512,1,2,0:0:0:0:
320,192,235608,1,2,0:0:0:0:
64,192,235703,1,0,0:0:0:0:
192,192,235703,1,2,0:0:0:0:
448,192,235895,1,0,0:0:0:0:
64,192,235895,1,2,0:0:0:0:
320,192,235990,1,0,0:0:0:0:
192,192,235990,1,2,0:0:0:0:
448,192,236181,1,8,0:0:0:0:
64,192,236181,128,0,236563:0:0:0:0:
320,192,236277,1,2,0:0:0:0:
192,192,236372,1,2,0:0:0:0:
320,192,236468,1,2,0:0:0:0:
448,192,236563,128,0,236946:0:0:0:0:
192,192,236563,1,8,0:0:0:0:
320,192,236754,1,2,0:0:0:0:
64,192,236754,1,0,0:0:0:0:
192,192,236946,1,2,0:0:0:0:
64,192,236946,1,4,0:0:0:0:
320,192,237041,1,2,0:0:0:0:
192,192,237137,1,2,0:0:0:0:
64,192,237232,1,2,0:0:0:0:
448,192,237232,1,0,0:0:0:0:
64,192,237423,1,0,0:0:0:0:
192,192,237423,1,2,0:0:0:0:
320,192,237519,1,2,0:0:0:0:
448,192,237519,1,0,0:0:0:0:
64,192,237710,1,8,0:0:0:0:
448,192,237710,1,0,0:0:0:0:
192,192,237805,1,0,0:0:0:0:
320,192,237901,1,2,0:0:0:0:
448,192,237996,1,2,0:0:0:0:
64,192,237996,1,0,0:0:0:0:
192,192,238188,1,2,0:0:0:0:
64,192,238188,1,0,0:0:0:0:
320,192,238283,1,2,0:0:0:0:
448,192,238283,1,0,0:0:0:0:
64,192,238474,1,0,0:0:0:0:
448,192,238474,1,2,0:0:0:0:
320,192,238570,1,2,0:0:0:0:
192,192,238665,1,2,0:0:0:0:
64,192,238761,1,2,0:0:0:0:
448,192,238761,1,0,0:0:0:0:
320,192,238952,1,2,0:0:0:0:
448,192,238952,1,0,0:0:0:0:
192,192,239047,1,2,0:0:0:0:
64,192,239047,1,0,0:0:0:0:
64,192,239239,1,8,0:0:0:0:
448,192,239239,1,0,0:0:0:0:
320,192,239334,1,2,0:0:0:0:
192,192,239430,1,2,0:0:0:0:
64,192,239525,1,2,0:0:0:0:
448,192,239621,1,8,0:0:0:0:
320,192,239621,128,0,239812:0:0:0:0:
64,192,239812,128,0,240003:0:0:0:0:
192,192,239812,1,2,0:0:0:0:
448,192,240003,1,0,0:0:0:0:
320,192,240003,1,2,0:0:0:0:
192,192,240098,1,2,0:0:0:0:
320,192,240194,1,2,0:0:0:0:
448,192,240289,1,2,0:0:0:0:
64,192,240289,1,0,0:0:0:0:
192,192,240481,1,2,0:0:0:0:
64,192,240481,1,0,0:0:0:0:
320,192,240576,1,2,0:0:0:0:
448,192,240576,1,0,0:0:0:0:
64,192,240767,1,8,0:0:0:0:
448,192,240767,1,0,0:0:0:0:
192,192,240863,1,2,0:0:0:0:
320,192,240958,1,2,0:0:0:0:
64,192,241054,1,0,0:0:0:0:
192,192,241054,1,2,0:0:0:0:
448,192,241245,1,0,0:0:0:0:
320,192,241245,1,2,0:0:0:0:
192,192,241340,1,2,0:0:0:0:
64,192,241340,1,0,0:0:0:0:
64,192,241531,1,0,0:0:0:0:
448,192,241531,1,2,0:0:0:0:
320,192,241627,1,2,0:0:0:0:
192,192,241723,1,2,0:0:0:0:
448,192,241818,1,0,0:0:0:0:
320,192,241818,1,2,0:0:0:0:
64,192,242009,1,0,0:0:0:0:
192,192,242009,1,2,0:0:0:0:
320,192,242105,1,2,0:0:0:0:
448,192,242105,1,0,0:0:0:0:
448,192,242296,128,0,242678:0:0:0:0:
192,192,242296,1,8,0:0:0:0:
320,192,242391,1,2,0:0:0:0:
64,192,242487,1,2,0:0:0:0:
192,192,242582,1,2,0:0:0:0:
64,192,242678,128,0,243060:0:0:0:0:
320,192,242678,1,8,0:0:0:0:
192,192,242869,1,2,0:0:0:0:
448,192,242869,1,0,0:0:0:0:
320,192,243060,1,2,0:0:0:0:
192,192,243156,1,2,0:0:0:0:
448,192,243251,1,0,0:0:0:0:
64,192,243251,1,8,0:0:0:0:
64,192,243442,1,8,0:0:0:0:
448,192,243442,128,0,243633:0:0:0:0:
192,192,243633,1,2,0:0:0:0:
64,192,243729,1,2,0:0:0:0:
320,192,243824,1,8,0:0:0:0:
448,192,243824,1,0,0:0:0:0:
192,192,243920,1,8,0:0:0:0:
64,192,243920,1,0,0:0:0:0:
448,192,244016,1,2,0:0:0:0:
320,192,244111,1,2,0:0:0:0:
64,192,244207,1,0,0:0:0:0:
192,192,244207,1,2,0:0:0:0:
320,192,244302,1,2,0:0:0:0:
448,192,244302,1,0,0:0:0:0:
64,192,244398,128,4,253761:0:0:0:0:
192,192,244398,128,2,252232:0:0:0:0:
