osu file format v12

[General]
AudioFilename: Kingdom Hearts Music - Wonderland (Welcome to Wonderland).mp3
AudioLeadIn: 1004
PreviewTime: 65128
Countdown: 0
SampleSet: Soft
StackLeniency: 0.7
Mode: 0
LetterboxInBreaks: 0
WidescreenStoryboard: 0

[Editor]
Bookmarks: 10011,58855
DistanceSpacing: 0.9
BeatDivisor: 4
GridSize: 4

[Metadata]
Title:Welcome to Wonderland
TitleUnicode:Welcome to Wonderland
Artist:Yoko Shimomura
ArtistUnicode:下村陽子
Creator:Genshin
Version:Normal
Source:Kingdom Hearts
Tags:square enix disney sora kairi riku XinCrin Alice
BeatmapID:164229
BeatmapSetID:45050

[Difficulty]
HPDrainRate:4
CircleSize:4
OverallDifficulty:4
ApproachRate:5
SliderMultiplier:1.2
SliderTickRate:1

[Events]
//Background and Video events
0,0,"wonderland.jpg",0,0
//Break Periods
//Storyboard Layer 0 (Background)
//Storyboard Layer 1 (Fail)
//Storyboard Layer 2 (Pass)
//Storyboard Layer 3 (Foreground)
//Storyboard Sound Samples
//Background Colour Transformations
3,100,163,162,255

[TimingPoints]
945,348.857491714635,4,2,1,35,1,0
14899,-100,4,2,1,50,0,1
28853,-100,4,2,1,50,0,0
31644,-100,4,2,1,40,0,0
65134,-100,4,2,1,50,0,1
79089,-100,4,2,1,50,0,0
106997,-100,4,2,1,35,0,0

[Colours]
Combo1 : 255,150,0
Combo2 : 128,64,0
Combo3 : 0,128,0
Combo4 : 255,128,192

[HitObjects]
64,336,3735,6,0,B|208:336,1,120,2|0,0:0|0:0,0:0:0:0:
136,240,4433,2,8,B|280:240,1,120
360,224,5131,2,0,B|424:184|416:120,1,120,0|0,0:0|0:0,0:0:0:0:
312,128,5829,2,8,B|168:128,1,120
104,192,6526,5,2,0:0:0:0:
160,280,6875,1,0,0:0:0:0:
256,224,7224,1,2,0:0:0:0:
352,280,7573,1,0,0:0:0:0:
400,184,7922,2,0,B|360:120|280:112,1,120
200,120,8619,2,8,B|104:152|96:208,1,120,8|8,0:0|0:0,0:0:0:0:
96,296,9317,6,0,B|176:280|176:280|224:248,1,120
256,352,10015,2,8,B|287:330|287:330|367:314,1,120
464,256,10713,2,0,B|496:208|496:208|496:120,1,120
408,88,11410,2,8,B|344:56|344:56|280:56,1,120
256,192,12108,12,0,14550,0:0:0:0:
208,224,14899,6,0,B|160:168|216:112,1,120,2|0,0:0|0:0,0:0:0:0:
304,176,15597,2,8,B|352:232|296:288,1,120
192,304,16294,2,0,B|120:280|112:192,1,120
128,112,16992,2,8,B|200:136|208:224,1,120
288,264,17690,5,0,0:0:0:0:
368,336,18039,1,0,0:0:0:0:
448,264,18387,1,0,0:0:0:0:
368,192,18736,1,0,0:0:0:0:
328,96,19085,2,0,B|264:96|264:96|232:120|224:144,2,120,0|0|8,0:0|0:0|0:0,0:0:0:0:
432,120,20481,6,0,B|432:256,1,120
336,184,21178,2,8,B|336:320,1,120
256,232,21876,2,0,B|200:232|200:232|176:208|176:168,1,120
176,64,22574,2,0,B|136:64|136:64|104:88|104:136,1,120,8|8,0:0|0:0,0:0:0:0:
120,240,23271,5,4,0:0:0:0:
224,272,23620,1,0,0:0:0:0:
328,264,23969,2,8,B|384:200|312:136,1,120
248,88,24667,1,0,0:0:0:0:
148,128,25016,1,0,0:0:0:0:
184,232,25365,2,8,B|320:232,1,120
352,136,26062,6,0,B|384:64|304:16,1,120,0|0,0:0|0:0,0:0:0:0:
256,112,26760,1,8,0:0:0:0:
256,216,27109,1,8,0:0:0:0:
152,184,27458,2,0,B|120:256|200:304,1,120
288,312,28155,1,8,0:0:0:0:
400,312,28504,1,8,0:0:0:0:
256,192,28853,12,0,31295,0:0:0:0:
174,122,31644,6,0,B|174:58|254:34|310:50|342:82|342:138,1,240
257,193,32691,1,0,0:0:0:0:
338,262,33039,2,0,B|338:326|258:350|202:334|170:302|170:246,1,240
84,196,34086,1,0,0:0:0:0:
176,140,34435,6,0,B|224:140|256:172|256:220,1,120
288,316,35133,2,0,B|336:316|368:284|368:236,1,120
424,152,35830,2,0,B|296:152,1,120,0|2,0:0|0:0,0:0:0:0:
192,152,36528,2,0,B|64:152,1,120
64,264,37226,6,0,B|24:312|72:352|72:352|232:352,1,240
312,312,38272,1,0,0:0:0:0:
328,208,38621,2,0,B|288:160|344:112|336:64|336:64|288:80|248:64,1,240
140,68,39668,1,0,0:0:0:0:
126,175,40017,6,0,B|126:247|206:247,1,120
310,248,40714,2,0,B|387:249|387:177,1,120
356,72,41412,1,0,0:0:0:0:
256,36,41761,1,8,0:0:0:0:
156,72,42110,1,0,0:0:0:0:
144,180,42459,1,8,0:0:0:0:
144,288,42807,6,0,B|208:272|232:320|264:304,1,120
360,272,43505,2,0,B|368:224|312:200|256:232,1,120
200,154,44203,2,0,B|136:108|200:56,1,120
312,56,44901,2,0,B|376:108|304:160,1,120
305,264,45598,6,0,B|256:296|256:296|192:256,3,120,0|0|8|8,0:0|0:0|0:0|0:0,0:0:0:0:
112,208,46994,2,0,B|88:160|112:120|184:120,3,120,0|0|8|8,0:0|0:0|0:0|0:0,0:0:0:0:
256,144,48389,6,0,B|272:200|272:200|296:216|344:224,1,120,2|0,0:0|0:0,0:0:0:0:
400,144,49087,1,2,0:0:0:0:
312,88,49436,2,0,B|256:48|200:88,2,120
416,104,50482,1,2,0:0:0:0:
416,104,50831,1,0,0:0:0:0:
256,192,51180,12,0,53622,0:0:0:0:
256,232,53971,6,0,B|289:304|217:328,1,120,4|0,0:0|0:0,0:0:0:0:
168,232,54669,2,8,B|134:159|206:135,1,120
304,168,55366,2,0,B|376:201|399:131,1,120
296,88,56064,2,8,B|272:18|200:52,1,120
152,152,56762,5,0,0:0:0:0:
152,264,57111,1,0,0:0:0:0:
224,184,57459,1,0,0:0:0:0:
224,296,57808,1,0,0:0:0:0:
312,232,58157,2,0,B|360:200|360:200|392:144,1,120
428,248,58855,2,8,B|368:292|368:292|349:334,1,120
248,292,59553,6,0,B|232:364|128:348,1,120
120,248,60250,2,8,B|40:248|24:168,1,120
132,152,60948,2,0,B|212:152|220:72,1,120
112,68,61646,2,0,B|32:68|24:-12,2,120,8|8|4,0:0|0:0|0:0,0:0:0:0:
256,192,62692,12,0,64785,0:0:0:0:
152,160,65134,5,4,0:0:0:0:
216,248,65483,1,0,0:0:0:0:
320,280,65832,1,8,0:0:0:0:
424,256,66181,1,8,0:0:0:0:
400,152,66530,2,0,B|344:192|272:144,2,120,0|0|8,0:0|0:0|0:0,0:0:0:0:
344,64,67576,1,8,0:0:0:0:
400,152,67925,5,0,0:0:0:0:
328,232,68274,1,0,0:0:0:0:
256,152,68623,1,0,0:0:0:0:
176,224,68972,1,0,0:0:0:0:
104,304,69321,2,0,B|248:304,1,120
336,304,70018,2,8,B|472:304,1,120,8|8,0:0|0:0,0:0:0:0:
384,224,70716,6,0,B|432:168|372:108,1,120
288,168,71414,2,8,B|240:112|304:40,1,120
380,116,72111,2,0,P|432:120|472:60,2,120,0|0|8,0:0|0:0|0:0,0:0:0:0:
292,52,73158,1,8,0:0:0:0:
200,108,73507,6,0,B|160:152|160:152|140:212,1,120
200,300,74205,1,8,0:0:0:0:
308,300,74553,1,8,0:0:0:0:
371,209,74902,6,0,B|352:152|352:152|312:108,1,120
220,48,75600,1,8,0:0:0:0:
112,48,75949,1,8,0:0:0:0:
52,140,76298,6,0,B|64:200|128:232,1,120
232,232,76995,2,8,B|220:172|156:140,1,120
80,68,77693,2,0,B|152:40|152:40|212:40,1,120
317,40,78391,2,8,B|360:40|360:40|432:68,1,120
256,192,79089,12,0,81531,0:0:0:0:
192,288,81879,6,0,B|256:256|320:320|408:336|440:288,1,240,2|0,0:0|0:0,0:0:0:0:
367,211,82926,1,0,0:0:0:0:
306,121,83275,2,0,B|242:153|178:89|90:73|58:121,1,240
109,207,84321,1,0,0:0:0:0:
192,272,84670,6,0,B|328:272,3,120,0|2|2|2,0:0|0:0|0:0|0:0,0:0:0:0:
312,160,86066,2,0,B|168:160,3,120,0|2|2|2,0:0|0:0|0:0|0:0,0:0:0:0:
112,232,87461,6,0,B|144:296|232:304,1,120,2|0,0:0|0:0,0:0:0:0:
312,272,88159,1,0,0:0:0:0:
336,168,88508,1,0,0:0:0:0:
264,88,88857,2,0,B|224:64|184:144|136:96,1,120,2|0,0:0|0:0,0:0:0:0:
84,192,89554,1,0,0:0:0:0:
116,296,89903,1,0,0:0:0:0:
220,320,90252,6,2,B|187:297|187:239|220:215,1,120
312,268,90950,2,2,B|345:244|345:186|310:162,1,120
220,216,91647,2,8,B|187:192|187:134|222:110,1,120,0|8,0:0|0:0,0:0:0:0:
312,164,92345,2,8,B|345:140|345:82|310:58,1,120
220,112,93043,6,0,P|152:120|116:156,3,120
120,264,94438,2,0,P|188:256|224:220,3,120
136,160,95834,5,0,0:0:0:0:
212,84,96183,1,2,0:0:0:0:
320,68,96531,1,2,0:0:0:0:
408,128,96880,1,2,0:0:0:0:
344,216,97229,2,0,B|408:264|344:344,1,120,0|2,0:0|0:0,0:0:0:0:
264,280,97927,2,2,B|216:344|136:280|136:280,1,120
96,208,98625,5,0,0:0:0:0:
208,208,98973,1,0,0:0:0:0:
128,136,99322,1,0,0:0:0:0:
232,136,99671,1,0,0:0:0:0:
312,212,100020,2,0,B|384:232|376:180|432:204,1,120
452,308,100718,2,0,B|380:288|388:340|332:316,1,120
256,192,101415,12,0,103857,0:0:0:0:
424,144,104206,6,0,B|368:112|304:144,1,120,4|0,0:0|0:0,0:0:0:0:
200,144,104904,2,0,B|144:112|80:144,1,120
144,232,105602,2,0,B|288:232,3,120,0|0|8|8,0:0|0:0|0:0|0:0,0:0:0:0:
368,200,106997,5,0,0:0:0:0:
312,104,107346,1,0,0:0:0:0:
200,104,107695,1,0,0:0:0:0:
152,200,108044,1,0,0:0:0:0:
200,296,108393,1,0,0:0:0:0:
312,296,108741,1,0,0:0:0:0:
368,200,109090,6,8,B|232:200,1,120,8|4,0:0|0:0,0:0:0:0:
