osu file format v12

[General]
AudioFilename: Kingdom Hearts Music - Wonderland (Welcome to Wonderland).mp3
AudioLeadIn: 1004
PreviewTime: 65128
Countdown: 0
SampleSet: Soft
StackLeniency: 0.7
Mode: 0
LetterboxInBreaks: 0
WidescreenStoryboard: 0

[Editor]
DistanceSpacing: 0.8
BeatDivisor: 4
GridSize: 4

[Metadata]
Title:Welcome to Wonderland
TitleUnicode:Welcome to Wonderland
Artist:Yoko Shimomura
ArtistUnicode:下村陽子
Creator:Genshin
Version:Easy
Source:Kingdom Hearts
Tags:square enix disney sora kairi riku XinCrin Alice
BeatmapID:155044
BeatmapSetID:45050

[Difficulty]
HPDrainRate:2
CircleSize:3
OverallDifficulty:2
ApproachRate:3
SliderMultiplier:0.7
SliderTickRate:1

[Events]
//Background and Video events
0,0,"wonderland.jpg",0,0
//Break Periods
//Storyboard Layer 0 (Background)
//Storyboard Layer 1 (Fail)
//Storyboard Layer 2 (Pass)
//Storyboard Layer 3 (Foreground)
//Storyboard Sound Samples
//Background Colour Transformations
3,100,163,162,255

[TimingPoints]
945,348.857491714635,4,2,1,50,1,0
14899,-100,4,2,1,50,0,1
28853,-100,4,2,1,50,0,0
65134,-100,4,2,1,50,0,1
79089,-100,4,2,1,50,0,0
106997,-100,4,2,1,35,0,0

[Colours]
Combo1 : 255,150,0
Combo2 : 128,64,0
Combo3 : 0,128,0
Combo4 : 255,128,192

[HitObjects]
48,64,3735,5,2,0:0:0:0:
128,144,4433,1,8,0:0:0:0:
48,224,5131,1,0,0:0:0:0:
128,300,5829,1,8,0:0:0:0:
240,300,6526,2,0,B|328:300|328:204,2,140,2|8|2,0:0|0:0|0:0,0:0:0:0:
128,296,8619,1,8,0:0:0:0:
52,216,9317,6,0,P|43:155|109:136,1,140,0|8,0:0|0:0,0:0:0:0:
212,92,10713,2,0,P|259:53|309:100,1,140,0|8,0:0|0:0,0:0:0:0:
412,144,12108,5,4,0:0:0:0:
416,256,12806,1,0,0:0:0:0:
340,336,13503,1,0,0:0:0:0:
228,344,14201,1,0,0:0:0:0:
228,232,14899,6,0,P|256:173|338:160,1,140,2|8,0:0|0:0,0:0:0:0:
324,268,16294,2,0,P|296:327|227:344,1,140,2|8,0:0|0:0,0:0:0:0:
124,296,17690,1,0,0:0:0:0:
172,196,18387,1,8,0:0:0:0:
284,200,19085,1,0,0:0:0:0:
396,200,19783,1,8,0:0:0:0:
408,88,20481,6,0,B|264:88,1,140,0|8,0:0|0:0,0:0:0:0:
156,112,21876,2,0,B|156:208|156:208|196:256|196:256,1,140,0|8,0:0|0:0,0:0:0:0:
296,240,23271,6,0,B|440:240,1,140,4|8,0:0|0:0,0:0:0:0:
364,156,24667,2,0,B|260:156|260:156|188:228,1,140,0|8,0:0|0:0,0:0:0:0:
208,288,26062,5,0,0:0:0:0:
104,248,26760,1,8,0:0:0:0:
104,136,27458,1,0,0:0:0:0:
208,96,28155,1,2,0:0:0:0:
256,192,28853,12,0,30946,0:0:0:0:
152,96,31644,6,0,B|244:188|304:20|416:96,2,280
52,144,35133,1,2,0:0:0:0:
144,208,35830,1,0,0:0:0:0:
256,212,36528,1,2,0:0:0:0:
356,260,37226,6,0,B|248:380|196:248|84:328,2,280
452,204,40714,1,2,0:0:0:0:
372,124,41412,1,0,0:0:0:0:
264,96,42110,1,2,0:0:0:0:
152,96,42807,6,0,B|148:184|232:208|232:208|304:228|320:296,2,280
264,96,46296,1,2,0:0:0:0:
360,160,46994,1,0,0:0:0:0:
272,232,47691,1,2,0:0:0:0:
360,300,48389,6,0,B|440:284|452:212|452:212|452:68,2,280
252,332,51878,1,2,0:0:0:0:
204,232,52575,1,0,0:0:0:0:
304,184,53273,1,2,0:0:0:0:
232,96,53971,6,0,B|156:96|156:96|104:136,1,140,0|8,0:0|0:0,0:0:0:0:
128,244,55366,2,0,B|204:244|204:244|256:204,1,140,0|8,0:0|0:0,0:0:0:0:
336,128,56762,1,0,0:0:0:0:
416,200,57459,1,8,0:0:0:0:
336,280,58157,1,0,0:0:0:0:
256,200,58855,1,8,0:0:0:0:
200,104,59553,6,0,B|160:88|120:96|96:128|96:160,1,140,0|8,0:0|0:0,0:0:0:0:
96,272,60948,2,0,B|96:304|120:336|160:344|200:328,1,140,0|8,0:0|0:0,0:0:0:0:
296,268,62343,5,4,0:0:0:0:
360,176,63041,1,0,0:0:0:0:
296,84,63739,1,2,0:0:0:0:
236,176,64437,1,0,0:0:0:0:
336,224,65134,6,0,B|456:336,2,140,2|8|2,0:0|0:0|0:0,0:0:0:0:
256,148,67227,1,8,0:0:0:0:
176,224,67925,2,0,B|56:336,2,140,2|8|2,0:0|0:0|0:0,0:0:0:0:
256,148,70018,1,8,0:0:0:0:
256,260,70716,6,0,B|256:340,2,70,4|0|8,0:0|0:0|0:0,0:0:0:0:
200,164,72111,2,0,B|140:104,2,70,0|0|8,0:0|0:0|0:0,0:0:0:0:
312,164,73507,6,0,B|372:104,2,70,4|0|8,0:0|0:0|0:0,0:0:0:0:
256,260,74902,2,0,B|256:340,2,70,0|0|8,0:0|0:0|0:0,0:0:0:0:
156,308,76298,6,0,B|112:308|92:260,1,70
96,216,76995,1,8,0:0:0:0:
144,116,77693,2,0,B|158:82|202:82,1,70
256,68,78391,1,8,0:0:0:0:
256,192,79089,12,0,81182,0:0:0:0:
228,336,81879,6,0,B|288:280|348:368|428:288,2,210
116,336,84670,1,0,0:0:0:0:
64,236,85368,1,2,0:0:0:0:
108,132,86066,1,0,0:0:0:0:
212,88,86763,1,2,0:0:0:0:
256,192,87461,6,0,B|216:152|168:152|144:216|160:288|280:316|340:300|384:160|284:120,1,420
180,84,90252,1,0,0:0:0:0:
116,176,90950,1,0,0:0:0:0:
152,284,91647,1,0,0:0:0:0:
248,232,92345,1,10,0:0:0:0:
316,144,93043,6,0,B|288:104|288:104|248:96|188:104,1,140
120,184,94438,2,0,B|148:224|148:224|188:232|248:224,1,140
328,296,95834,1,0,0:0:0:0:
428,248,96531,1,2,0:0:0:0:
428,136,97229,1,0,0:0:0:0:
328,88,97927,1,2,0:0:0:0:
224,132,98625,6,0,B|72:132,2,140,0|2|0,0:0|0:0|0:0,0:0:0:0:
336,132,100718,1,2,0:0:0:0:
256,192,101415,12,0,103509,0:0:0:0:
256,44,104206,6,0,B|246:99|274:135|346:109|394:125|399:172,1,210
398,219,105602,2,0,B|395:259|347:275|275:249|247:285|257:340,1,210
196,344,106997,5,0,0:0:0:0:
200,232,107695,1,0,0:0:0:0:
288,164,108393,1,0,0:0:0:0:
288,52,109090,5,4,0:0:0:0:
