osu file format v9

[General]
AudioFilename: 1-35-welcome-to-bukki-tower.mp3
AudioLeadIn: 2000
PreviewTime: 295
Countdown: 0
SampleSet: Soft
StackLeniency: 0.7
Mode: 0
LetterboxInBreaks: 1

[Editor]
DistanceSpacing: 0.8
BeatDivisor: 4
GridSize: 8

[Metadata]
Title:Welcome to Booster Tower
Artist:Yoko Shimomura
Creator:MoodyRPG
Version:Easy
Source:Super Mario RPG: Legend of the Seven Stars
Tags:smrpg nintendo squaresoft bukki

[Difficulty]
HPDrainRate:1
CircleSize:3
OverallDifficulty:1
ApproachRate:2
SliderMultiplier:0.9
SliderTickRate:2

[Events]
//Background and Video events
0,0,"Booster Tower.png"
//Break Periods
//Storyboard Layer 0 (Background)
//Storyboard Layer 1 (Fail)
//Storyboard Layer 2 (Pass)
//Storyboard Layer 3 (Foreground)
//Storyboard Sound Samples
//Background Colour Transformations
3,100,163,162,255

[TimingPoints]
537,502.51256281407,4,2,0,50,1,0
86205,-100,4,2,0,45,0,0
87210,-100,4,2,0,35,0,0
88214,-100,4,2,0,25,0,0

[Colours]
Combo1 : 0,255,255
Combo2 : 255,33,21
Combo3 : 240,245,18
Combo4 : 0,187,0

[HitObjects]
204,185,537,1,4
256,135,1039,1,0
305,187,1542,1,2
341,326,2547,2,0,B|256:351|162:326,1,180,0|2
200,187,4557,5,4
256,232,5059,1,0
313,188,5562,1,2
341,58,6567,2,0,B|256:33|161:60,1,180,0|2
94,185,8577,5,4
141,131,9079,1,0
184,188,9582,1,2
184,328,10587,2,0,B|268:377|368:325,1,180,0|2
414,179,12597,5,4
361,230,13099,1,0
310,178,13602,1,2
333,35,14607,2,0,B|253:-16|157:40,1,180,0|2
186,178,16617,6,0,B|132:257|192:352,1,180,4|0
256,322,18124,1,2
323,347,18627,2,0,B|380:257|326:178,1,180,0|2
441,92,20637,6,0,B|341:59|254:98,1,180,4|0
192,94,22145,1,2
120,97,22647,2,0,B|72:184|119:291,1,180,0|2
258,230,24657,5,4
133,158,25662,1,2
258,230,26667,1,0
389,289,27672,1,2
397,145,28677,6,0,B|387:46|255:52,1,180,4|2
115,239,30687,2,0,B|135:331|257:332,1,180,0|2
257,174,32697,5,4
132,98,33702,1,2
257,174,34707,1,4
380,98,35712,1,2
441,228,36717,6,0,B|423:315|303:338,1,180,4|2
71,228,38727,2,0,B|89:315|209:338,1,180,4|2
192,192,40738,5,4
256,226,41240,1,0
320,193,41743,1,2
452,136,42748,2,0,B|452:36,2,90,0|0|2
320,194,44758,5,4
257,157,45260,1,0
197,196,45763,1,2
60,136,46768,2,0,B|60:36,2,90,0|0|2
129,261,48778,5,4
256,328,49783,1,2
383,261,50788,1,0
256,192,51793,1,2
120,239,52798,6,0,B|79:148|121:65,1,180,4|2
326,65,54808,2,0,B|368:147|327:239,1,180,0|2
209,321,56818,5,4
142,293,57320,1,0
75,265,57823,1,2
212,223,58828,5,0
278,194,59330,1,0
341,160,59833,1,2
203,116,60838,5,0
135,91,61341,1,0
67,64,61843,1,2
63,207,62848,6,0,B|146:259|246:204,1,180,0|2
254,67,64858,5,4
330,189,65863,1,2
256,313,66868,1,0
184,188,67873,1,2
254,62,68878,6,0,B|364:79|418:144,1,180,4|2
258,322,70888,2,0,B|148:305|94:240,1,180,0|2
187,132,72898,6,0,B|129:58,2,90,4|0|2
325,132,74908,2,0,B|383:58,2,90,0|0|2
439,220,76918,6,0,B|392:308|281:316,1,180,4|0
252,256,78426,1,2
211,313,78928,2,0,B|103:302|65:207,1,180,0|2
174,114,80939,5,4
124,166,81441,1,0
173,218,81944,1,2
339,218,82949,5,0
388,166,83451,1,0
338,114,83954,1,2
256,192,84959,12,4,88979
