osu file format v9

[General]
AudioFilename: The Red Locus.mp3
AudioLeadIn: 0
PreviewTime: 9318
Countdown: 0
SampleSet: Normal
StackLeniency: 0.7
Mode: 0
LetterboxInBreaks: 1

[Editor]
Bookmarks: 8182,17977,30845,42972,55472,62011,71626,80280,92395,104597
DistanceSpacing: 1
BeatDivisor: 4
GridSize: 8

[Metadata]
Title:The Red Locus
Artist:Yoko Shimomura
Creator:Reed R Gale
Version:Red Locus
Source:Radiant Historia
Tags:stocke

[Difficulty]
HPDrainRate:6
CircleSize:4
OverallDifficulty:7
ApproachRate:7
SliderMultiplier:1.4
SliderTickRate:1

[Events]
//Background and Video events
0,0,"Background.png"
//Break Periods
2,24900,29954
//Storyboard Layer 0 (Background)
//Storyboard Layer 1 (Fail)
//Storyboard Layer 2 (Pass)
//Storyboard Layer 3 (Foreground)
//Storyboard Sound Samples
//Background Colour Transformations
3,100,0,0,0

[TimingPoints]
85,384.615384615385,4,2,0,75,1,0
8374,-100,4,1,0,75,0,0
15664,-100,4,2,0,75,0,0
17587,-100,4,1,0,75,0,0
18739,-100,4,2,0,75,0,0
21044,-100,4,1,0,75,0,0
33726,-100,4,2,0,75,0,0
34494,-100,4,1,0,75,0,0
35688,-100,4,2,0,75,0,0
36457,-100,4,1,0,75,0,0
42972,-100,4,2,0,75,0,1
55280,-100,4,1,0,75,0,0
59126,-100,4,2,0,75,0,0
60856,-100,4,1,0,75,0,0
61818,-100,4,2,0,75,0,0
64835,-100,4,1,0,75,0,0
66831,-100,4,2,0,75,0,0
67777,-100,4,1,0,75,0,0
72395,-100,4,2,0,75,0,0
73453,-100,4,1,0,75,0,0
74126,-100,4,2,0,75,0,0
75760,-100,4,1,0,75,0,0
76049,-100,4,2,0,75,0,0
76434,-100,4,1,0,75,0,0
81046,-100,4,2,0,75,0,0
92585,-200,4,2,0,75,0,1
98357,-100,4,2,0,75,0,1
103068,-66.6666666666667,4,2,0,75,0,1
104698,-100,4,1,0,75,0,0

[Colours]
Combo1 : 0,187,0
Combo2 : 176,0,0
Combo3 : 4,4,202
Combo4 : 157,157,157
SliderBorder : 0,0,0

[HitObjects]
40,32,85,2,0,B|40:176|40:248|40:248|40:336|152:336,1,350
192,336,1238,1,0
120,216,1623,2,0,B|120:80|120:80|120:0|224:0,1,280
216,72,2585,5,2
216,144,2777,2,0,B|216:200|240:216,1,70
288,256,3161,1,0
392,336,3546,2,0,B|440:336|496:304|520:256,1,140,2|0
512,144,4315,6,0,B|512:83|438:14|365:-17|288:-16,1,280,2|0
344,40,5277,1,0
376,104,5469,2,0,B|320:64|240:64,1,140,2|0
104,56,6238,2,0,B|64:72|48:112,1,70
64,192,6623,1,2
86,272,6815,1,0
128,328,7008,6,0,B|80:264,1,70,2|0
136,224,7393,2,2,B|184:288,1,70
240,240,7777,2,0,B|192:176,1,70
264,152,8161,2,0,B|312:216,1,70,2|0
368,176,8546,2,0,B|320:112,1,70
392,88,8931,2,0,B|432:112|440:152,1,70
448,208,9315,6,0,B|432:272|360:320,1,140,8|0
312,264,9892,1,0
312,264,10085,1,0
248,232,10277,1,0
240,304,10469,5,8
168,304,10661,1,0
104,336,10854,2,0,B|56:280|48:208|72:136,1,210,8|8
32,80,11623,2,0,B|80:64|112:80,1,70,0|0
160,120,12008,1,8
184,184,12200,1,0
192,256,12392,6,0,B|248:256|272:200|248:152|248:152|224:104|240:80,1,210,8|8
280,32,13161,1,0
352,16,13354,2,0,B|352:72|320:104|320:104|256:128|264:192|248:216,1,210
328,184,14123,1,8
384,136,14315,1,0
488,232,14700,6,0,B|472:280|424:304,1,70,8|0
392,328,15085,2,0,B|336:352|240:352,1,140,8|4
128,288,15854,6,0,B|64:240,1,70,2|0
144,176,16238,2,2,B|128:80,1,70
240,112,16622,2,0,B|264:40,1,70
344,112,17007,2,0,B|416:80,1,70,2|0
448,184,17391,1,4
240,216,17777,6,0,B|320:192|384:208|432:280,1,210
320,288,18546,2,0,B|256:296|256:296|184:304|120:232,1,210,8|0
80,184,19315,1,0
104,80,19508,6,0,B|168:120,1,70,2|0
240,48,19892,2,2,B|280:80|272:136,1,70
224,200,20277,2,0,B|264:216|304:192,1,70
368,272,20661,2,0,B|400:232|400:192,1,70,2|4
424,104,21046,1,4
88,104,21623,5,4
360,32,22392,6,0,B|368:144|304:240,1,210
256,144,23161,2,0,B|192:216|192:352,1,210
88,336,23931,2,0,B|88:256|120:184,1,140
200,88,24700,1,4
32,40,30854,6,0,B|32:120|32:120|32:176|88:224|136:224|192:176|192:120|192:120|192:32,1,420,8|8
112,104,32200,2,0,B|136:152|256:192,1,140,0|8
272,88,32777,2,0,B|304:128|304:160,1,70
272,248,33161,2,0,B|312:288|360:288,1,70,8|0
424,232,33546,1,0
384,360,33738,6,0,B|320:360|320:360|272:360|256:304,1,140,2|0
160,320,34315,2,0,B|168:248|224:232|224:232|240:192,1,140,2|8
120,128,35085,1,0
256,88,35469,1,4
224,152,35854,5,0
336,240,36238,1,2
360,104,36623,2,0,B|440:128|448:208,1,140,8|0
304,160,37392,2,0,B|280:192|232:208,1,70,8|0
112,168,37969,6,0,B|104:216|120:256,1,70,0|8
136,304,38354,1,0
192,264,38546,2,0,B|224:304|256:304,1,70
304,256,38931,1,8
368,280,39123,2,0,B|416:288|448:272,3,70,0|0|8|0
400,144,40085,5,4
112,144,40469,2,0,B|152:128|192:136,1,70,8|0
40,232,41046,1,8
80,288,41238,1,0
144,312,41431,1,0
216,312,41623,1,8
256,176,42008,5,0
344,72,42392,1,0
208,80,42777,2,0,B|152:112|128:160|136:224,1,140
64,184,43354,6,0,B|64:224|80:256,1,70,2|0
144,256,43738,2,2,B|168:288|208:312,1,70
248,264,44123,2,0,B|288:280|344:272,1,70
320,208,44508,2,0,B|376:200|392:176,1,70,2|0
328,144,44892,6,2,B|368:208,1,70
424,160,45277,2,0,B|464:224,1,70
408,264,45661,2,0,B|368:200,1,70,2|0
328,264,46046,2,2,B|288:200,3,70,2|2|0|0
224,224,46815,6,0,B|216:168|248:152,1,70,2|0
168,144,47200,2,2,B|184:96|224:80,1,70
144,56,47585,2,0,B|168:16|216:16,1,70
272,24,47969,2,0,B|288:96,1,70,2|0
352,64,48354,6,2,B|368:144,1,70
432,104,48738,2,0,B|456:168,3,70,0|0|2|0
456,240,49508,6,2,B|456:296|416:320,1,70
384,256,49892,1,0
320,232,50085,1,0
280,176,50277,2,0,B|248:200|248:248,1,70,2|0
256,304,50661,6,2,B|208:312|176:264,1,70
144,232,51046,1,0
128,168,51238,1,0
56,152,51431,2,0,B|64:80,1,70,2|0
128,104,51815,2,2,B|192:72,1,70,2|0
256,40,52200,5,0
312,80,52392,1,0
384,72,52585,1,2
424,128,52777,1,0
368,176,52969,1,2
424,224,53161,1,2
384,280,53354,1,0
312,272,53546,1,0
248,296,53738,1,2
216,360,53931,6,0,B|168:328|168:256|168:256|168:152,1,210
96,168,54700,2,0,B|96:96|96:96|96:56|144:40,1,140
256,112,55469,1,4
384,56,55854,6,0,B|400:88|400:144,1,70,8|0
328,136,56238,2,0,B|328:192|352:208,1,70,0|8
416,208,56623,2,0,B|416:264|384:312|328:344,1,140,0|8
296,280,57200,2,0,B|272:320|208:336|160:336,1,140
176,264,57777,5,8
48,208,58161,1,0
168,136,58546,1,4
440,64,59315,6,0,B|408:88|400:152,1,70,2|0
344,88,59700,2,2,B|328:128|336:176,1,70
264,144,60085,1,0
288,208,60277,1,0
224,240,60469,1,2
280,288,60661,1,0
336,328,60854,5,8
336,56,61238,1,4
88,192,61623,1,4
184,96,62008,6,0,B|224:160|216:240|176:320,1,210,2|0
88,192,62969,2,2,B|97:230|153:263|206:259,1,140
272,248,63546,1,0
320,200,63738,1,0
312,128,63931,1,2
416,32,64315,5,2
472,160,64700,1,0
336,168,65085,5,8
344,304,65469,1,0
232,224,65854,1,8
184,272,66046,1,0
120,296,66238,1,0
128,224,66431,5,8
56,216,66623,1,0
8,160,66815,1,0
0,88,67008,1,2
32,24,67200,1,0
72,80,67392,2,0,B|104:112|184:112|208:80,1,140,0|4
336,40,68161,5,0
472,16,68546,2,0,B|472:96|416:96|416:160|416:160|416:240,1,210
344,192,69315,2,0,B|344:224|344:224|344:336|232:336,1,210,8|0
168,336,70085,1,8
200,272,70277,1,0
160,216,70469,5,8
392,56,70854,1,4
432,336,71238,1,0
456,272,71431,6,0,B|456:224|408:192,1,70,8|0
376,256,71815,2,0,B|344:232|344:184,1,70,0|8
392,144,72200,2,0,B|376:104|336:88,1,70
288,56,72585,6,0,B|240:120,1,70,2|0
184,80,72969,2,2,B|128:136,1,70
192,168,73354,2,0,B|192:240,1,70,8|0
264,232,73738,2,0,B|264:312,1,70,0|8
208,344,74123,6,0,B|128:344|128:344|48:344|24:272,1,210,2|0
96,256,74892,2,0,B|48:176|48:88|128:88,1,210,2|0
136,160,75661,1,0
168,224,75854,1,4
200,288,76046,2,0,B|240:288|304:248|312:208,1,140
448,56,77008,5,4
16,56,77777,1,4
256,200,78546,1,4
24,360,79315,6,0,B|64:280|128:256,1,140
248,312,80085,1,0
248,312,80469,2,0,B|304:280|408:272,1,140
440,152,81238,6,0,B|400:120|288:112,1,140,2|0
240,112,81815,2,2,B|168:112|104:72,1,140
40,56,82392,2,0,B|24:128|48:224,1,140
32,336,83161,6,0,B|112:320|144:248,1,140,0|2
168,192,83738,2,0,B|208:144|288:168|288:232,1,140,0|2
256,72,84508,5,2
392,48,84892,2,0,B|456:80|496:160,1,140,2|0
496,216,85469,1,2
472,352,85854,1,0
376,256,86238,1,4
216,24,87008,6,0,B|144:64|88:112|56:200,1,210,2|0
72,32,87969,2,2,B|88:136|224:168,1,210
360,152,88931,1,0
120,296,89700,6,0,B|96:240|112:128|144:88,1,210,2|0
192,144,90469,2,0,B|240:96|336:80,1,140,2|2
312,152,91046,2,2,B|352:144|408:176,1,70
344,224,91431,2,0,B|360:256|352:296,1,70,2|0
288,280,91815,2,2,B|264:336|216:336,1,70
208,272,92200,1,0
256,136,92585,6,0,B|256:32,1,105,2|0
128,88,93546,2,2,B|128:152|128:152|128:184|176:208,1,140
256,96,94700,2,0,B|312:112|312:176|312:176|312:224,1,140
240,208,95661,1,2
168,216,95854,2,0,B|176:272|232:288|280:272,1,140
408,232,97008,6,0,B|448:168,1,70,2|0
304,144,97777,2,2,B|312:64,1,70
104,96,98546,6,0,B|128:176,1,70,2|0
24,208,98931,2,2,B|80:264,1,70
24,352,99315,2,0,B|112:352,1,70
176,288,99700,2,0,B|224:224,1,70,2|0
248,336,100085,6,0,B|320:312,1,70
416,352,100469,2,2,B|472:288,1,70
376,216,100854,2,0,B|400:136,1,70,0|0
288,144,101238,2,0,B|288:56,1,70,2|0
184,72,101623,6,0,B|208:160,1,70
96,152,102008,2,2,B|144:208,1,70,2|2
48,256,102392,2,2,B|120:280,1,70,0|0
56,368,102777,2,0,B|144:352,1,70,2|0
232,352,103161,6,0,B|224:232,1,104.999996870756
320,296,103546,2,2,B|344:176,1,104.999996870756
408,280,103931,2,0,B|480:200,1,104.999996870756
464,96,104315,2,0,B|408:64|352:64,1,104.999996870756,2|0
296,64,104700,1,4
