osu file format v9

[General]
AudioFilename: The Red Locus.mp3
AudioLeadIn: 0
PreviewTime: 9318
Countdown: 0
SampleSet: Soft
StackLeniency: 0.7
Mode: 0
LetterboxInBreaks: 1

[Editor]
Bookmarks: 8182,17977,30845,42972,55472,62011,71626,80280,92395,104597
DistanceSpacing: 0.7
BeatDivisor: 4
GridSize: 8

[Metadata]
Title:The Red Locus
Artist:Yoko Shimomura
Creator:Reed R Gale
Version:Grey Desire
Source:Radiant Historia
Tags:stocke

[Difficulty]
HPDrainRate:6
CircleSize:4
OverallDifficulty:8
ApproachRate:8
SliderMultiplier:1.4
SliderTickRate:1

[Events]
//Background and Video events
0,0,"Background.png"
//Break Periods
//Storyboard Layer 0 (Background)
//Storyboard Layer 1 (Fail)
//Storyboard Layer 2 (Pass)
//Storyboard Layer 3 (Foreground)
//Storyboard Sound Samples
//Background Colour Transformations
3,100,0,0,0

[TimingPoints]
85,384.615384615385,4,2,0,75,1,0
85,-50,4,2,0,75,0,0
7684,-200,4,2,0,75,0,0
8374,-50,4,1,0,75,0,0
15664,-66.6666666666667,4,2,0,75,0,0
17587,-50,4,1,0,75,0,0
18739,-66.6666666666667,4,2,0,75,0,0
21044,-50,4,1,0,75,0,0
33726,-66.6666666666667,4,2,0,75,0,0
34494,-50,4,1,0,75,0,0
35664,-66.6666666666667,4,2,0,75,0,0
36434,-66.6666666666667,4,1,0,75,0,0
42972,-50,4,2,0,75,0,1
55280,-66.6666666666667,4,1,0,75,0,0
61799,-200,4,2,0,75,0,0
64835,-66.6666666666667,4,1,0,75,0,0
67107,-66.6666666666667,4,2,0,75,0,0
67491,-66.6666666666667,4,1,0,75,0,0
74126,-66.6666666666667,4,2,0,75,0,0
75760,-66.6666666666667,4,1,0,75,0,0
76049,-66.6666666666667,4,2,0,75,0,0
76434,-66.6666666666667,4,1,0,75,0,0
77203,-66.6666666666667,4,2,0,75,0,0
77876,-66.6666666666667,4,1,0,75,0,0
80664,-66.6666666666667,4,2,0,75,0,0
92588,-200,4,2,0,75,0,1
98357,-50,4,2,0,75,0,1
103068,-50,4,2,0,75,0,1
104698,-66.6666666666667,4,1,0,75,0,0

[Colours]
Combo1 : 0,187,0
Combo2 : 176,0,0
Combo3 : 4,4,202
Combo4 : 157,157,157
SliderBorder : 0,0,0

[HitObjects]
40,32,88,2,0,B|40:272|112:336|256:336|312:192|312:152|312:152|312:40|240:8|160:40|160:144|160:144|160:192|208:336|400:336,1,1120
480,80,2011,2,0,B|416:32|304:32|192:72|128:128|88:224|80:296|96:344,1,560
280,120,3164,2,0,B|208:88|128:48|128:48|80:24|8:40|-8:120|80:168|80:168|176:224|232:248,1,560
32,360,4318,2,0,B|192:368|304:272,1,280
352,240,4895,5,0
392,184,5088,1,0
392,112,5280,1,0
368,48,5472,1,0
304,16,5664,1,0
232,16,5857,1,0
168,48,6049,1,0
136,112,6241,1,0
136,184,6434,1,0
168,248,6626,1,0
232,280,6818,5,0
264,288,6914,1,0
296,280,7011,1,0
328,264,7107,1,0
352,240,7203,1,0
360,208,7299,1,0
352,176,7395,1,0
328,152,7491,1,0
296,144,7588,1,0
264,160,7684,1,0
256,176,7780,2,0,B|248:208,6,17.5
240,208,8549,5,0
216,232,8645,1,0
184,240,8741,1,0
152,232,8838,1,0
128,208,8934,1,0
120,176,9030,1,0
128,144,9126,1,0
48,112,9318,6,0,B|80:56|168:48|208:88|232:112|288:136|336:128|376:80|376:24|352:-8,1,420,8|8
280,32,10088,1,0
328,96,10280,1,0
400,144,10472,1,8
480,168,10664,1,0
456,248,10857,6,0,B|384:240|312:216|256:168|216:112|192:64|184:-8|88:8,1,420,8|8
120,96,11626,1,0
168,168,11818,1,0
224,232,12011,1,8
296,280,12203,1,0
376,304,12395,1,4
368,136,12780,5,8
344,216,12972,2,0,B|328:296|224:296,1,140
160,304,13357,1,8
80,272,13549,1,0
40,200,13741,1,0
16,120,13934,6,0,B|72:96|136:120|136:176|136:232|200:264|248:224|248:224,1,280,12|0
232,152,14511,1,0
256,72,14703,1,8
328,32,14895,1,0
408,40,15088,1,0
480,88,15280,1,8
496,168,15472,1,4
376,136,15857,6,0,B|367:210|276:268|169:259|120:202,1,314.999990612269
184,160,16626,2,0,B|160:120|96:120|64:144,1,104.999996870756,2|0
40,184,17011,2,2,B|23:227|62:277|101:288,1,104.999996870756
144,304,17395,2,0,B|190:299|217:241|210:202,1,104.999996870756
256,160,17780,6,0,B|288:96|360:64|464:72|496:160|496:160,1,280,8|8
424,176,18354,1,0
424,176,18546,2,0,B|392:104|296:104,1,140,0|4
272,48,18934,5,2
168,56,19126,1,0
88,120,19318,1,2
64,224,19511,1,2
112,320,19703,1,0
208,360,19895,1,0
312,344,20088,1,2
352,248,20280,1,0
288,168,20472,1,2
184,184,20664,1,2
248,264,20857,1,0
352,248,21049,6,0,B|432:224|440:128,1,140,8|0
440,80,21434,2,0,B|416:32|360:32|360:32|272:32,3,140,0|8|0|0
336,104,22203,6,0,B|176:104,1,140,8|0
192,32,22588,2,0,B|168:32|168:32|136:32|104:56|104:112|104:136,3,140,0|8|0|0
32,104,23357,2,0,B|32:160|32:160|32:200|80:232,1,140,8|0
144,232,23741,2,0,B|184:248|184:304|184:304|184:384,1,140,0|8
120,328,24126,6,0,B|176:272|272:256,1,140
312,248,24703,1,4
64,112,25472,6,0,B|112:56|200:56|256:112|256:112|312:168|400:168|456:104,1,420,8|8
320,48,26434,2,0,B|234:48|139:143|149:239,1,280
72,248,27011,2,0,B|88:312|160:312|160:312|192:312,1,140,8|8
248,368,27395,2,0,B|264:328|264:264|240:224|240:192|240:192,1,140,0|0
240,144,27780,5,8
288,80,27972,2,0,B|336:112|336:176|312:232,1,140
328,288,28357,1,8
360,368,28549,2,0,B|416:336|416:256|392:216,1,140
400,160,28934,2,0,B|408:112|368:16|304:8,1,140,8|0
184,32,29511,6,0,B|104:88|80:176,1,140,8|0
232,120,29895,1,8
168,152,29991,1,0
136,216,30088,1,0
224,248,30280,2,0,B|225:312|331:386,1,140
424,248,30857,6,0,B|424:160|360:32|208:0|56:56|16:160,1,560,4|0
184,168,32011,2,0,B|168:256|48:264,1,140,8|0
232,344,32588,1,8
288,280,32780,1,0
312,200,32972,1,0
368,136,33164,1,8
368,136,33261,1,0
368,136,33357,1,0
448,112,33549,1,0
416,32,33741,6,0,B|344:48|288:80|248:120|200:200|192:272|192:272,1,314.999990612269,2|0
120,208,34511,2,0,B|136:136|224:24|296:0,1,280,8|0
224,48,35088,2,0,B|160:40|80:72,2,140,8|0|4
296,88,35664,1,0
352,152,35857,5,0
368,232,36049,1,2
376,312,36241,1,0
288,320,36434,5,8
280,280,36530,1,0
264,240,36626,1,0
224,192,36818,1,0
168,160,37011,1,8
80,64,37395,5,0
56,88,37491,1,0
48,120,37588,1,8
56,152,37684,1,0
80,176,37780,1,0
128,216,37972,1,0
144,240,38068,1,0
152,272,38164,1,8
152,336,38357,1,0
40,288,38741,6,0,B|48:264|80:240,1,52.4999984353781,8|0
104,232,38934,2,0,B|136:216|160:184,1,52.4999984353781
160,176,39126,2,0,B|184:144|176:96,2,52.4999984353781,0|0|8
192,232,39511,2,0,B|216:272|264:256,1,52.4999984353781
264,272,39703,2,0,B|296:288|336:272,1,52.4999984353781,0|0
344,272,39895,1,8
400,240,40088,5,0
416,176,40280,1,0
416,144,40376,1,0
408,112,40472,1,8
368,64,40664,1,0
336,56,40761,1,0
304,56,40857,1,0
320,120,41049,6,0,B|256:112|184:128|112:184|96:248|96:312,1,314.999990612269,8|8
24,288,41818,2,0,B|24:232|48:160|104:112|152:88,1,209.999993741512,0|8
256,56,42588,1,0
184,72,42780,1,8
40,96,43164,6,0,B|24:184|32:256,1,140,2|0
160,192,43549,2,2,B|176:272|240:320,1,140
304,192,43933,2,0,B|360:256|480:248,1,140
352,128,44318,6,2,B|384:208|376:272,1,140
256,192,44703,1,2
264,264,44799,1,0
240,328,44895,1,2
128,240,45088,2,0,B|112:304|32:352,1,140
24,208,45472,6,0,B|24:144|24:144|24:80|88:48,1,140,2|0
176,144,45857,2,2,B|208:192|264:192|264:192|344:192,1,140
256,64,46241,1,2
328,72,46338,1,0
392,104,46434,1,0
416,168,46530,1,0
424,240,46626,1,0
352,248,46819,5,2
308,190,46915,1,0
247,152,47011,1,0
176,157,47107,1,0
114,194,47203,1,0
256,224,47395,5,2
248,152,47491,1,0
208,96,47588,1,0
72,128,47780,5,0
114,194,47876,1,0
176,232,47972,1,0
40,280,48164,5,2
104,312,48261,1,0
176,304,48357,1,2
312,328,48549,5,0
440,272,48741,1,0
320,200,48934,1,2
448,144,49126,1,0
336,56,49318,1,0
208,112,49511,1,2
192,248,49703,6,0,B|120:240|72:152,1,140
208,112,50088,2,0,B|288:128|328:216,1,140,2|0
336,328,50472,1,0
400,352,50568,1,0
464,344,50664,1,2
504,208,50857,5,0
496,72,51049,2,0,B|448:120|352:120,1,140,2|0
256,32,51434,2,0,B|272:192,1,140,0|2
160,88,51818,2,0,B|79:87|31:135,2,140,2|0|0
96,216,52395,5,2
160,248,52492,1,0
232,240,52588,1,0
320,352,52780,1,0
432,272,52972,1,2
440,200,53068,1,0
424,136,53164,1,0
336,32,53357,1,2
200,32,53549,1,0
200,104,53645,1,0
240,160,53741,1,0
368,96,53934,5,2
328,152,54030,1,0
312,224,54126,1,0
192,296,54318,1,0
120,288,54414,1,0
72,240,54511,1,0
56,104,54703,1,2
168,184,54895,1,2
224,224,54991,1,0
264,280,55088,1,0
264,280,55472,5,4
264,72,55857,2,0,B|328:96|368:168|440:184,1,209.999993741512,8|0
392,88,56434,2,0,B|344:136|288:176,1,104.999996870756,8|0
208,144,56818,2,0,B|216:200|288:232,1,104.999996870756,0|8
376,216,57203,2,0,B|376:280|328:320,1,104.999996870756
232,296,57588,2,0,B|176:288|144:208,1,104.999996870756,8|0
88,152,57972,2,0,B|64:96|96:32,1,104.999996870756,0|8
200,56,58549,1,4
408,48,58934,5,8
376,88,59030,1,0
360,136,59126,1,8
464,152,59318,1,8
456,208,59414,1,0
432,256,59511,1,0
336,216,59703,1,0
328,272,59799,1,0
352,320,59895,1,4
248,328,60088,1,4
144,352,60280,6,0,B|104:288|96:208,1,104.999996870756,8|2
96,152,60664,2,0,B|120:80|160:48,1,104.999996870756,0|8
208,96,61049,1,0
216,128,61145,1,0
224,160,61241,1,0
232,192,61338,1,0
240,224,61434,1,0
256,288,61626,1,8
272,352,61818,1,4
344,360,62011,6,0,B|368:328|368:280,1,70,2|0
448,176,62780,2,0,B|400:176|400:176,1,35
344,176,63164,1,0
344,104,63357,2,0,B|304:104|280:128,1,70,2|0
272,200,63934,1,0
200,216,64126,2,0,B|208:256|240:272|280:272,1,105,2|0
40,32,65088,6,0,B|48:96|136:136,1,104.999996870756,8|0
200,136,65472,2,0,B|272:136|280:240,1,104.999996870756,0|8
232,296,65857,2,0,B|352:312,1,104.999996870756
440,312,66241,1,8
464,264,66338,1,0
472,208,66434,1,0
456,160,66530,1,0
424,120,66626,1,0
384,48,66818,2,0,B|344:80|336:152,1,104.999996870756
272,112,67203,2,0,B|248:152|264:224,1,104.999996870756,2|0
64,192,67780,6,0,B|112:296|240:296,1,209.999993741512,8|0
208,224,68357,1,8
192,152,68549,2,0,B|232:96|344:96|376:160,1,209.999993741512,0|8
424,104,69126,1,0
448,136,69222,1,0
456,176,69318,1,0
408,232,69511,5,8
336,256,69703,1,0
336,296,69799,1,0
320,328,69895,1,0
248,304,70088,5,8
176,304,70280,1,0
152,336,70376,1,0
120,352,70472,1,0
88,360,70568,1,0
48,352,70664,1,8
88,288,70857,6,0,B|40:256|40:136|80:88,1,209.999993741512,0|8
128,144,71434,2,0,B|168:80|248:72,1,104.999996870756
280,72,71818,1,0
344,112,72011,1,8
280,144,72203,5,0
296,176,72299,1,0
304,216,72395,1,8
296,256,72491,1,0
288,288,72588,1,0
288,328,72684,1,0
304,360,72780,1,8
360,312,72972,5,0
416,360,73164,2,2,B|448:312|416:256,1,104.999996870756
376,200,73549,1,0
440,160,73741,2,0,B|464:112|448:48,1,104.999996870756,0|4
352,64,74318,5,2
328,88,74414,1,0
296,104,74511,1,0
256,40,74703,1,2
232,64,74799,1,0
216,96,74895,1,0
256,160,75088,1,2
224,176,75184,1,0
184,168,75280,1,0
128,128,75472,1,0
64,168,75664,1,0
40,240,75857,1,4
112,224,76049,6,0,B|128:296|184:320,1,104.999996870756,2|0
240,320,76434,1,0
312,320,76626,1,0
312,320,76722,1,0
312,320,76818,1,0
384,296,77011,1,4
440,160,77395,6,0,B|392:136|336:144,1,104.999996870756,2|0
264,160,77780,1,0
208,208,77972,1,4
368,72,78357,5,4
408,280,78741,1,4
304,272,78934,1,8
200,296,79126,1,0
96,296,79318,1,0
16,224,79511,1,8
0,120,79703,1,0
168,16,80088,1,8
392,24,80664,6,0,B|304:48|296:192|416:192|416:136|416:136|416:96|336:96|288:208,1,419.999987483025,2|0
280,224,81530,1,0
280,264,81626,1,0
352,248,81818,2,2,B|360:304|312:360|232:344|208:288,1,209.999993741512
176,232,82395,1,0
120,184,82588,1,2
48,184,82780,1,0
24,112,82972,6,0,B|80:96|152:96|208:136|232:184,1,209.999993741512,2|0
184,96,83549,2,0,B|224:24|312:8|400:24|448:104,1,314.999990612269,2|0
472,168,84318,1,0
424,224,84511,1,0
504,240,84703,6,0,B|496:304|416:312,1,104.999996870756,2|0
400,312,84991,1,0
360,304,85088,1,0
312,248,85280,1,2
280,232,85376,1,0
240,232,85472,1,0
208,248,85568,1,0
192,280,85664,1,0
120,264,85857,5,2
128,232,85953,1,0
128,192,86049,1,0
112,160,86145,1,0
80,136,86241,1,2
80,64,86434,6,0,B|144:80|168:120|168:120|200:168|288:152,1,209.999993741512,2|0
248,80,87011,2,2,B|184:80|144:208|32:208,1,209.999993741512
80,136,87588,1,0
136,88,87780,2,0,B|168:152|232:192,1,104.999996870756,2|0
264,208,88164,2,2,B|320:232|344:288,1,104.999996870756
264,280,88549,2,0,B|320:240|352:192,1,104.999996870756
384,152,88934,2,0,B|400:96|384:40,1,104.999996870756,2|0
456,40,89318,5,0
464,112,89511,1,0
448,184,89703,1,2
440,216,89799,1,0
424,248,89895,1,0
376,304,90088,1,0
312,344,90280,1,2
240,352,90472,5,0
200,352,90568,1,0
168,336,90664,1,0
144,312,90761,1,0
136,272,90857,1,0
96,208,91049,1,0
40,160,91241,1,0
32,232,91434,1,2
40,160,91626,1,2
96,208,91818,1,0
168,208,92011,1,2
208,272,92203,1,0
272,296,92395,1,0
272,296,92588,6,0,B|304:232|304:160,1,140,2|2
256,104,93549,2,0,B|304:80|368:96,1,105
424,120,94318,1,0
440,184,94511,2,0,B|448:216,1,17.5,2|0
448,232,94703,2,0,B|448:264,1,17.5
440,280,94895,2,0,B|432:320,1,35,2|0
376,272,95280,6,0,B|336:312|280:320,1,105
264,256,96049,1,0
200,288,96241,2,0,B|176:248|192:216,1,70
152,160,96818,6,0,B|160:112,1,35,2|0
224,136,97203,2,2,B|264:120,1,35
288,184,97588,2,0,B|328:208,1,35
264,248,97972,2,2,B|256:296,1,35,2|0
104,360,98549,6,0,B|48:312|32:200,2,157.499995306134
176,248,99126,1,2
88,120,99318,2,0,B|160:96|256:112,3,140,2|0|2|0
352,16,100088,6,0,B|432:32|480:96,1,140
336,128,100472,1,2
400,160,100568,1,0
424,224,100664,1,0
264,216,100857,2,0,B|264:360,1,140,2|0
112,328,101241,2,0,B|64:280|48:192,1,140
176,112,101626,5,2
312,32,101818,1,0
424,144,102011,1,0
288,224,102203,1,0
416,272,102395,1,2
376,328,102491,1,0
312,352,102588,1,0
176,328,102780,1,2
120,200,102972,1,0
176,72,103164,5,2
200,136,103261,1,0
256,176,103357,1,0
328,184,103453,1,0
384,144,103549,1,0
392,72,103645,1,0
352,16,103741,1,2
280,8,103838,1,0
224,48,103934,1,0
216,120,104030,5,0
256,176,104126,1,0
320,208,104222,1,0
392,200,104318,1,2
440,152,104414,1,0
464,88,104511,1,0
472,16,104607,1,0
472,16,104703,5,4
