osu file format v9

[General]
AudioFilename: The Red Locus.mp3
AudioLeadIn: 0
PreviewTime: 9318
Countdown: 0
SampleSet: Normal
StackLeniency: 0.7
Mode: 0
LetterboxInBreaks: 1

[Editor]
Bookmarks: 8182,17977,30845,42943,55472,61956,71626,80280,92395,104597
DistanceSpacing: 1
BeatDivisor: 4
GridSize: 8

[Metadata]
Title:The Red Locus
Artist:Yoko Shimomura
Creator:Reed R Gale
Version:Blue Radiance
Source:Radiant Historia
Tags:stocke aht raynie rpg turn based video game generally awesome and all that jazz

[Difficulty]
HPDrainRate:2
CircleSize:3
OverallDifficulty:2
ApproachRate:2
SliderMultiplier:1.4
SliderTickRate:2

[Events]
//Background and Video events
0,0,"Background.png"
//Break Periods
2,18749,22371
2,58748,59294
2,71057,74678
2,86438,90832
//Storyboard Layer 0 (Background)
//Storyboard Layer 1 (Fail)
//Storyboard Layer 2 (Pass)
//Storyboard Layer 3 (Foreground)
//Storyboard Sound Samples
//Background Colour Transformations
3,100,0,0,0

[TimingPoints]
85,384.615384615385,4,2,0,100,1,0
85,-200,4,2,0,100,0,0
8374,-100,4,1,0,100,0,0
18739,-100,4,2,0,100,0,0
21044,-100,4,1,0,100,0,0
33726,-100,4,2,0,100,0,0
34494,-100,4,1,0,100,0,0
35688,-100,4,2,0,100,0,0
36434,-100,4,1,0,100,0,0
42944,-100,4,2,0,100,0,1
55280,-100,4,1,0,100,0,0
61764,-100,4,2,0,100,0,0
64835,-100,4,1,0,100,0,0
80664,-100,4,2,0,100,0,0
92585,-200,4,2,0,100,0,1
98357,-100,4,2,0,100,0,1
104703,-100,4,1,0,100,0,0

[Colours]
Combo1 : 0,187,0
Combo2 : 176,0,0
Combo3 : 4,4,202
Combo4 : 157,157,157
SliderBorder : 0,0,0

[HitObjects]
40,40,9315,2,0,B|16:112|32:192|112:224,1,210,8|4
296,136,10469,6,0,B|392:144|440:280,1,210,8|0
328,360,11431,2,0,B|216:296|216:184,1,210
208,56,12392,1,4
40,344,13931,5,4
496,16,15469,6,0,B|488:120|360:192,1,210,8|0
320,56,16431,2,0,B|240:128|240:248,1,210,8|0
136,336,17392,1,8
104,184,17777,1,0
112,0,18161,5,0
256,64,18546,1,4
48,48,23931,6,0,B|128:80|152:176,1,140,8|0
48,160,24700,1,4
352,192,25469,6,0,B|280:312|88:320,1,280
176,176,27008,2,0,B|208:112|304:104|304:104|432:104,1,280
144,224,28546,5,0
296,208,28931,1,0
208,88,29315,1,8
144,224,29700,1,0
296,208,30085,1,4
48,40,30854,6,0,B|160:48|160:48|280:56|296:128,1,280
240,200,32008,2,0,B|464:240,1,210
432,312,32777,1,8
352,304,32969,1,0
272,296,33161,1,0
160,168,33546,5,0
48,288,33931,1,0
192,368,34315,2,0,B|200:288|128:256,1,140
296,232,35085,1,8
384,320,35469,5,4
448,168,35854,2,0,B|344:176|296:224|272:288,1,210
40,192,37008,1,4
256,280,37585,1,0
256,200,37777,1,0
448,40,38931,6,0,B|440:136|312:208,1,210
304,104,39700,2,0,B|192:160|144:280,1,210
120,104,40661,1,0
80,168,40854,1,4
104,192,42392,5,0
104,192,42777,1,0
48,48,43161,2,0,B|128:32|240:40|384:104|448:216|456:344,1,560
288,336,45085,6,0,B|232:296|192:216|200:128|256:56|368:24|424:32,1,420
440,200,46623,6,0,B|368:224|112:224|24:144,1,420
152,32,48161,6,0,B|224:96|240:192|216:320|96:360|40:360,1,420
256,192,49700,12,4,55469
48,344,57008,6,0,B|152:336|224:248|224:136,1,280,8|0
64,112,58161,2,0,B|120:56|192:48,1,140,8|4
448,40,60854,6,0,B|424:144|320:216,1,210
256,248,61623,1,4
288,24,62392,2,0,B|144:40|40:200|128:344,1,420
200,216,63931,2,0,B|40:160|64:-8,1,280
216,56,65085,5,0
80,120,65469,1,0
200,216,65854,1,0
336,144,66238,1,0
208,56,67008,6,0,B|80:120,1,140
80,120,67777,5,4
248,336,68546,2,0,B|328:288|376:160|368:88,1,280
456,200,69700,2,0,B|384:208|232:176,1,210
184,152,70469,1,0
264,40,70854,1,4
96,48,76238,6,0,B|40:136|96:272|200:280,1,280,8|0
192,136,77392,2,0,B|496:136,1,280,8|0
360,48,78546,2,0,B|304:120|304:272,1,210,8|0
448,248,79508,2,0,B|384:344|248:336,1,210,8|4
56,112,80854,6,0,B|256:32|472:112,1,420
336,192,82392,1,0
184,192,82777,1,0
48,280,83354,6,0,B|256:344|464:280,1,420
368,176,84892,1,0
256,0,85469,1,0
256,144,85854,1,0
144,176,86238,1,4
256,32,92392,5,0
256,32,92585,2,0,B|256:176,1,140
152,176,93931,2,0,B|168:288|248:328|392:320|424:240,1,350
408,184,96238,6,0,B|352:184|296:232|272:280|272:280|240:336|176:344,1,280
120,336,98161,1,0
80,200,98546,2,0,B|200:120,1,140
64,72,99315,6,0,B|208:128,1,140
296,24,100085,2,0,B|320:168,1,140
448,96,100854,6,0,B|424:248,1,140
296,288,101623,2,0,B|152:336,1,140
200,200,102392,2,0,B|48:176,1,140
104,48,103161,6,0,B|256:104,1,140
368,40,103931,2,0,B|360:192,1,140
296,304,104700,1,4
