osu file format v13

[General]
AudioFilename: In the Final.mp3
AudioLeadIn: 0
PreviewTime: 9219
Countdown: 0
SampleSet: Soft
StackLeniency: 0.3
Mode: 0
LetterboxInBreaks: 1
WidescreenStoryboard: 1

[Editor]
Bookmarks: 9219,21531,27687,40000,52312,64625,76937,89250
DistanceSpacing: 2
BeatDivisor: 4
GridSize: 8
TimelineZoom: 1.6

[Metadata]
Title:The Grand Finale
TitleUnicode:The Grand Finale
Artist:Yoko Shimomura
ArtistUnicode:Yoko Shimomura
Creator:Chupalika
Version:Insane v2
Source:Mario & Luigi: Bowser's Inside Story
Tags:final boss battle alpha dream alphadream super mario rpg smrpg shrowser
BeatmapID:562923
BeatmapSetID:126054

[Difficulty]
HPDrainRate:7
CircleSize:4
OverallDifficulty:7
ApproachRate:9
SliderMultiplier:2
SliderTickRate:1

[Events]
//Background and Video events
0,0,"background.jpg",0,0
//Break Periods
2,21731,23240
2,77136,78646
//Storyboard Layer 0 (Background)
//Storyboard Layer 1 (Fail)
//Storyboard Layer 2 (Pass)
//Storyboard Layer 3 (Foreground)
//Storyboard Sound Samples

[TimingPoints]
-15,384.763370527126,4,2,1,40,1,0
8834,-100,4,2,1,25,0,0
9219,-100,4,2,1,40,0,0
23840,-100,4,2,1,20,0,0
24032,-100,4,2,1,25,0,0
24225,-100,4,2,1,30,0,0
24417,-100,4,2,1,35,0,0
24609,-100,4,2,1,40,0,0
33459,-100,4,2,1,35,0,0
33844,-100,4,2,1,30,0,0
35383,-100,4,2,1,35,0,0
36922,-100,4,2,1,40,0,0
37691,-100,4,2,1,45,0,0
38461,-100,4,2,1,50,0,0
39230,-100,4,2,1,30,0,0
39359,-100,4,2,1,33,0,0
39487,-100,4,2,1,36,0,0
39615,-100,4,2,1,40,0,0
39743,-100,4,2,1,43,0,0
39872,-100,4,2,1,46,0,0
40000,-100,4,2,1,50,0,1
52312,-100,4,2,1,40,0,0
58757,-100,4,2,1,30,0,0
59046,-100,4,2,1,20,0,0
59238,-100,4,2,1,30,0,0
60777,-100,4,2,1,35,0,0
61547,-100,4,2,1,40,0,0
71070,-100,4,2,1,30,0,0
71358,-100,4,2,1,20,0,0
71550,-200,4,2,1,35,0,0
71839,-200,4,2,1,25,0,0
72128,-200,4,2,1,15,0,0
72320,-100,4,2,1,30,0,0
73090,-100,4,2,1,35,0,0
73859,-100,4,2,1,40,0,0
75975,-100,4,2,1,30,0,0
76168,-100,4,2,1,35,0,0
76360,-100,4,2,1,40,0,0
76552,-100,4,2,1,45,0,0
76937,-100,4,2,1,50,0,1
79246,-100,4,2,1,20,0,1
79438,-100,4,2,1,25,0,1
79631,-100,4,2,1,30,0,1
79823,-100,4,2,1,40,0,1
80015,-100,4,2,1,50,0,1
87711,-100,4,2,1,30,0,1
87903,-100,4,2,1,35,0,1
88095,-100,4,2,1,40,0,1
88288,-100,4,2,1,45,0,1
88480,-100,4,2,1,50,0,1
88672,-100,4,2,1,45,0,1
88865,-100,4,2,1,40,0,1
89057,-100,4,2,1,35,0,1
89250,-100,4,2,1,30,0,0

[Colours]
Combo1 : 128,128,255
Combo2 : 255,128,0
Combo3 : 255,255,0
Combo4 : 0,255,0

[HitObjects]
96,256,8834,6,0,L|136:256,5,33.3333333333333
160,256,9219,2,0,P|216:240|240:208,1,100
288,64,9604,1,8,0:0:0:0:
368,128,9796,1,0,0:0:0:0:
368,128,9892,1,0,0:0:0:0:
368,128,9988,2,0,P|408:208|344:288,1,200,0|8,0:0|0:0,0:0:0:0:
272,224,10565,1,2,0:0:0:0:
200,288,10758,6,0,P|112:232|112:144,1,200,0|8,0:0|0:0,0:0:0:0:
136,48,11335,1,2,0:0:0:0:
136,48,11527,2,0,P|184:32|232:32,1,100,0|2,0:0|0:0,0:0:0:0:
368,96,11912,2,0,P|320:112|272:112,1,100,8|2,0:0|0:0,0:0:0:0:
136,48,12297,6,0,P|48:64|0:168,1,200,0|8,0:0|0:0,0:0:0:0:
96,192,12874,1,2,0:0:0:0:
128,288,13066,2,0,P|216:272|272:168,1,200,0|8,0:0|0:0,0:0:0:0:
424,48,13836,6,0,P|456:80|472:136,2,100,0|0|8,0:0|0:0|0:0,0:0:0:0:
328,16,14413,1,2,0:0:0:0:
296,24,14509,1,2,0:0:0:0:
264,40,14606,1,0,0:0:0:0:
240,64,14702,1,2,0:0:0:0:
208,72,14798,1,2,0:0:0:0:
160,160,14990,2,0,P|112:152|80:112,1,100,8|0,0:0|0:0,0:0:0:0:
48,208,15375,5,0,0:0:0:0:
48,208,15567,1,2,0:0:0:0:
152,320,15760,1,8,0:0:0:0:
48,208,15952,2,0,L|48:152,2,50,0|0|0,0:0|0:0|0:0,0:0:0:0:
152,320,16337,1,0,0:0:0:0:
224,192,16529,1,8,0:0:0:0:
288,272,16722,1,0,0:0:0:0:
352,352,16914,6,0,P|408:336|432:296,1,100,0|2,0:0|0:0,0:0:0:0:
480,160,17299,1,8,0:0:0:0:
384,48,17491,1,0,0:0:0:0:
354,35,17587,1,0,0:0:0:0:
322,29,17683,1,0,0:0:0:0:
289,31,17779,1,0,0:0:0:0:
258,40,17875,1,0,0:0:0:0:
230,57,17971,1,0,0:0:0:0:
206,79,18068,2,0,P|192:96|176:120,3,50,8|0|0|0,0:2|0:0|0:0|0:0,0:0:0:0:
160,152,18453,5,0,0:0:0:0:
104,248,18646,1,2,0:0:0:0:
200,280,18838,1,8,0:0:0:0:
248,192,19030,1,2,0:0:0:0:
320,120,19223,1,0,0:0:0:0:
400,64,19415,2,0,P|448:64|480:112,1,100,2|8,0:0|0:0,0:0:0:0:
480,200,19800,5,0,0:0:0:0:
480,200,19896,1,0,0:0:0:0:
480,200,19992,2,0,P|464:296|376:344,1,200,0|8,0:0|0:0,0:0:0:0:
120,192,20762,2,0,P|136:96|224:48,1,200,0|8,0:0|0:0,0:0:0:0:
480,200,21531,1,4,0:0:0:0:
32,192,23840,6,0,L|32:136,3,50,0|0|0|0,0:0|0:0|0:0|0:0,0:0:0:0:
64,192,24225,2,0,L|64:248,3,50,0|0|4|0,0:0|0:0|0:0|0:0,0:0:0:0:
96,192,24609,1,4,0:0:0:0:
160,272,24802,1,0,0:0:0:0:
160,272,24994,1,2,0:0:0:0:
240,208,25187,1,0,0:0:0:0:
304,72,25379,5,0,0:0:0:0:
440,136,25571,1,2,0:0:0:0:
440,288,25764,1,0,0:0:0:0:
304,352,25956,1,0,0:0:0:0:
224,224,26148,5,2,0:0:0:0:
128,336,26341,1,0,0:0:0:0:
16,240,26533,1,0,0:0:0:0:
112,128,26726,1,2,0:0:0:0:
240,48,26918,6,0,P|296:48|336:64,1,100
416,192,27303,2,0,P|360:192|320:176,1,100,2|4,0:0|0:0,0:0:0:0:
240,48,27687,5,4,0:0:0:0:
240,48,27880,1,0,0:0:0:0:
104,112,28072,1,8,0:0:0:0:
72,208,28265,1,0,0:0:0:0:
64,240,28361,1,0,0:0:0:0:
64,272,28457,1,2,0:0:0:0:
72,304,28553,1,0,0:0:0:0:
96,328,28649,1,0,0:0:0:0:
184,208,28842,1,8,0:0:0:0:
272,328,29034,1,0,0:0:0:0:
272,328,29227,6,0,P|368:304|400:216,1,200,0|8,0:0|0:0,0:0:0:0:
256,184,29804,1,2,0:0:0:0:
224,40,29996,2,0,P|128:64|96:152,1,200,0|8,0:0|0:0,0:0:0:0:
168,336,30766,6,0,P|224:352|272:336,1,100,0|2,0:0|0:0,0:0:0:0:
336,208,31150,1,8,0:0:0:0:
416,336,31343,1,0,0:0:0:0:
416,336,31439,1,0,0:0:0:0:
416,336,31535,2,0,P|504:280|504:184,1,200,0|8,0:0|0:0,0:0:0:0:
480,96,32112,1,2,0:0:0:0:
400,32,32305,5,0,0:0:0:0:
400,32,32497,1,2,0:0:0:0:
304,144,32689,2,0,P|256:160|208:144,1,100,8|0,0:0|0:0,0:0:0:0:
184,128,32978,1,0,0:0:0:0:
160,104,33074,1,2,0:0:0:0:
136,80,33170,1,2,0:0:0:0:
104,72,33267,1,2,0:0:0:0:
40,152,33459,2,0,L|24:104,2,50,8|0|0,0:0|0:0|0:0,0:0:0:0:
88,240,33844,6,0,L|64:304,2,66.6666666666667,2|2|2,0:0|0:0|0:0,0:0:0:0:
104,176,34228,2,0,B|160:64|192:256|256:136,1,200,8|0,0:0|0:0,0:0:0:0:
360,32,34806,1,2,0:0:0:0:
440,160,34998,2,0,P|424:272|352:312,1,200,8|0,0:0|0:0,0:0:0:0:
355,311,35575,5,2,0:0:0:0:
256,200,35767,1,8,0:0:0:0:
224,104,35960,1,2,0:0:0:0:
192,120,36056,1,0,0:0:0:0:
168,144,36152,1,2,0:0:0:0:
152,176,36248,1,0,0:0:0:0:
152,208,36345,1,2,0:0:0:0:
192,352,36537,1,8,0:0:0:0:
304,256,36729,1,2,0:0:0:0:
192,352,36922,6,0,P|136:344|104:304,1,100,0|2,0:0|0:0,0:0:0:0:
64,120,37307,2,0,P|120:128|152:168,1,100,8|2,0:0|0:0,0:0:0:0:
256,328,37691,2,0,P|200:320|168:280,1,100,0|2,0:0|0:0,0:0:0:0:
128,96,38076,2,0,P|184:104|216:144,1,100,8|2,0:0|0:0,0:0:0:0:
320,304,38461,6,0,P|224:288|176:192,1,200,0|8,0:0|0:0,0:0:0:0:
256,72,39038,1,2,0:0:0:0:
392,136,39230,2,0,L|416:72,2,66.6666666666667
424,192,39615,2,0,L|496:192,2,66.6666666666667,10|2|2,0:0|0:0|0:0,0:0:0:0:
392,248,40000,5,6,0:0:0:0:
312,312,40192,1,0,0:0:0:0:
336,176,40385,1,10,0:0:0:0:
256,232,40577,1,0,0:0:0:0:
152,64,40769,1,2,0:0:0:0:
80,160,40962,1,0,0:0:0:0:
176,144,41154,1,10,0:0:0:0:
144,240,41347,1,0,0:0:0:0:
80,320,41539,5,2,0:0:0:0:
176,352,41731,1,0,0:0:0:0:
256,224,41924,1,10,0:0:0:0:
352,256,42116,1,0,0:0:0:0:
448,80,42308,2,0,P|416:48|360:56,1,100,2|0,0:0|0:0,0:0:0:0:
256,160,42693,2,0,P|288:192|344:184,1,100,10|0,0:0|0:0,0:0:0:0:
448,80,43078,5,2,0:0:0:0:
416,224,43270,1,0,0:0:0:0:
368,48,43463,1,10,0:0:0:0:
336,192,43655,1,0,0:0:0:0:
208,32,43848,2,0,L|152:120,1,100,2|0,0:0|0:0,0:0:0:0:
256,112,44232,1,10,0:0:0:0:
312,192,44425,1,0,0:0:0:0:
256,272,44617,5,2,0:0:0:0:
200,192,44809,1,0,0:0:0:0:
288,72,45002,1,10,0:0:0:0:
344,208,45194,1,0,0:0:0:0:
224,312,45387,1,2,0:0:0:0:
168,176,45579,1,0,0:0:0:0:
320,40,45771,1,10,0:0:0:0:
376,224,45964,1,0,0:0:0:0:
152,112,46156,5,2,0:0:0:0:
288,256,46348,1,0,0:0:0:0:
448,144,46541,2,0,P|472:184|472:240,1,100,10|0,0:0|0:0,0:0:0:0:
408,344,46926,1,2,0:0:0:0:
288,184,47118,1,0,0:0:0:0:
120,288,47310,2,0,P|96:248|96:192,1,100,10|0,0:0|0:0,0:0:0:0:
256,40,47695,6,0,P|312:40|360:72,1,100,2|0,0:0|0:0,0:0:0:0:
432,240,48080,2,0,P|376:240|328:208,1,100,10|0,0:0|0:0,0:0:0:0:
256,344,48465,2,0,P|216:304|205:247,1,100,2|0,0:0|0:0,0:0:0:0:
56,296,48849,2,0,P|55:240|87:192,1,100,10|0,0:0|0:0,0:0:0:0:
160,80,49234,5,2,0:0:0:0:
288,160,49427,1,0,0:0:0:0:
208,32,49619,1,10,0:0:0:0:
352,160,49811,1,0,0:0:0:0:
224,312,50004,1,2,0:0:0:0:
288,72,50196,1,0,0:0:0:0:
136,160,50389,1,10,0:0:0:0:
375,224,50581,1,0,0:0:0:0:
288,352,50773,5,2,0:0:0:0:
152,288,50966,1,0,0:0:0:0:
224,128,51158,1,10,0:0:0:0:
88,64,51350,1,0,0:0:0:0:
288,264,51543,2,0,P|328:288|384:288,1,100,2|0,0:0|0:0,0:0:0:0:
496,192,51928,2,0,P|456:168|400:168,1,100,14|0,0:0|0:0,0:0:0:0:
288,264,52312,5,4,0:0:0:0:
168,352,52505,1,2,0:0:0:0:
136,352,52601,1,2,0:0:0:0:
104,336,52697,1,8,0:0:0:0:
80,312,52793,1,2,0:0:0:0:
64,280,52889,1,2,0:0:0:0:
64,248,52986,1,2,0:0:0:0:
80,216,53082,1,0,0:0:0:0:
104,192,53178,1,0,0:0:0:0:
136,184,53274,1,2,0:0:0:0:
168,184,53370,1,2,0:0:0:0:
200,200,53467,2,0,P|224:224|232:264,3,50,8|0|2|0,0:0|0:0|0:0|0:0,0:0:0:0:
240,272,53851,1,0,0:0:0:0:
368,352,54044,5,2,0:0:0:0:
400,344,54140,1,2,0:0:0:0:
432,328,54236,2,0,P|448:312|464:288,3,50,8|0|2|0,0:0|0:0|0:0|0:0,0:0:0:0:
472,256,54621,2,0,P|480:232|480:200,3,50,0|0|2|0,0:0|0:0|0:0|0:0,0:0:0:0:
480,168,55006,2,0,L|480:112,1,50,8|2,0:0|0:0,0:0:0:0:
400,56,55198,2,0,L|400:112,1,50,2|2,0:0|0:0,0:0:0:0:
320,168,55390,6,0,B|304:280|200:168|184:312,1,200,0|8,0:0|0:0,0:0:0:0:
112,352,55968,1,0,0:0:0:0:
112,352,56064,1,0,0:0:0:0:
112,352,56160,2,0,P|40:296|32:192,2,200,0|8|0,0:0|0:0|0:0,0:0:0:0:
192,288,57122,5,2,0:0:0:0:
112,224,57314,1,8,0:0:0:0:
208,48,57507,1,2,0:0:0:0:
208,48,57603,1,2,0:0:0:0:
208,48,57699,2,0,P|192:96|240:112,1,100
368,176,58084,1,8,0:0:0:0:
256,336,58469,6,0,L|104:336,2,150
352,336,59238,2,0,P|400:320|424:280,1,100,0|2,0:0|0:0,0:0:0:0:
448,128,59623,1,8,0:0:0:0:
424,279,59815,5,0,0:0:0:0:
424,279,59911,1,0,0:0:0:0:
424,279,60008,2,0,P|384:248|368:192,1,100,2|0,0:0|0:0,0:0:0:0:
352,56,60392,1,8,0:0:0:0:
312,280,60585,2,0,P|271:248|256:192,1,100,2|0,0:0|0:0,0:0:0:0:
240,56,60969,1,0,0:0:0:0:
200,280,61162,1,10,0:0:0:0:
128,56,61354,1,0,0:0:0:0:
88,280,61547,6,0,P|136:336|256:352,1,200,0|8,0:0|0:0,0:0:0:0:
376,192,62124,1,0,0:0:0:0:
376,192,62220,1,0,0:0:0:0:
376,192,62316,2,0,P|328:136|208:120,1,200,0|8,0:0|0:0,0:0:0:0:
208,119,62893,1,2,0:0:0:0:
64,256,63086,6,0,P|80:304|128:328,1,100,2|2,0:0|0:0,0:0:0:0:
152,336,63374,1,0,0:0:0:0:
184,336,63470,1,10,0:0:0:0:
216,320,63567,1,2,0:0:0:0:
248,296,63663,1,0,0:0:0:0:
280,280,63759,1,2,0:0:0:0:
312,280,63855,2,0,L|368:280,1,50,2|2,0:0|0:0,0:0:0:0:
480,192,64048,2,0,L|424:192,1,50,2|2,0:0|0:0,0:0:0:0:
296,248,64240,2,0,L|352:248,1,50,10|2,0:0|0:0,0:0:0:0:
464,160,64432,2,0,L|408:160,1,50,2|2,0:0|0:0,0:0:0:0:
280,216,64625,1,4,0:0:0:0:
112,48,65010,6,0,P|128:96|184:120,1,100,8|2,0:0|0:0,0:0:0:0:
80,296,65394,2,0,P|129:306|178:269,1,100,0|2,0:0|0:0,0:0:0:0:
360,336,65779,2,0,P|393:298|386:237,1,100,8|2,0:0|0:0,0:0:0:0:
320,64,66164,5,0,0:0:0:0:
320,64,66356,1,2,0:0:0:0:
128,224,66549,2,0,P|160:272|216:272,1,100,8|2,0:0|0:0,0:0:0:0:
224,32,66933,2,0,P|166:35|138:84,1,100,0|2,0:0|0:0,0:0:0:0:
344,208,67318,2,0,P|369:156|341:107,1,100,8|2,0:0|0:0,0:0:0:0:
128,224,67703,6,0,P|192:304|288:320,1,200,0|8,0:0|0:0,0:0:0:0:
440,192,68280,1,0,0:0:0:0:
440,192,68376,1,0,0:0:0:0:
440,192,68472,2,0,P|376:112|280:96,1,200,0|8,0:0|0:0,0:0:0:0:
128,224,69050,1,0,0:0:0:0:
256,304,69242,5,2,0:0:0:0:
128,224,69434,1,0,0:0:0:0:
128,224,69627,1,8,0:0:0:0:
192,32,69819,1,2,0:0:0:0:
176,64,69915,1,2,0:0:0:0:
176,96,70011,1,0,0:0:0:0:
200,120,70108,1,2,0:0:0:0:
232,128,70204,1,0,0:0:0:0:
304,56,70396,1,8,0:0:0:0:
408,160,70589,1,2,0:0:0:0:
360,352,70781,6,0,L|208:352,1,150
56,352,71358,1,0,0:0:0:0:
56,256,71550,2,0,L|136:256,1,75
208,256,72128,1,0,0:0:0:0:
208,256,72320,6,0,L|312:256,1,100,2|0,0:0|0:0,0:0:0:0:
496,192,72705,1,8,0:0:0:0:
312,128,72897,2,0,L|208:128,1,100,2|0,0:0|0:0,0:0:0:0:
24,64,73282,1,0,0:0:0:0:
312,128,73474,1,10,0:0:0:0:
24,64,73667,1,0,0:0:0:0:
80,256,73859,6,0,P|144:320|256:320,1,200,2|8,0:0|0:0,0:0:0:0:
360,160,74436,1,2,0:0:0:0:
360,160,74532,1,0,0:0:0:0:
360,160,74629,2,0,P|320:128|272:128,1,100,2|0,0:0|0:0,0:0:0:0:
336,240,75013,1,8,0:0:0:0:
224,72,75206,1,0,0:0:0:0:
112,240,75398,6,0,P|152:272|200:272,1,100,2|0,0:0|0:0,0:0:0:0:
304,104,75783,1,8,0:0:0:0:
440,160,75975,1,2,0:0:0:0:
456,192,76071,1,2,0:0:0:0:
464,224,76168,1,0,0:0:0:0:
464,256,76264,1,2,0:0:0:0:
448,288,76360,1,0,0:0:0:0:
424,312,76456,1,2,0:0:0:0:
392,328,76552,2,2,L|352:344,6,33.3333333333333,2|2|2|2|2|2|6,0:0|0:0|0:0|0:0|0:0|0:0|0:0,0:0:0:0:
88,96,79246,5,0,0:0:0:0:
72,128,79342,1,0,0:0:0:0:
64,160,79438,1,0,0:0:0:0:
64,192,79534,1,0,0:0:0:0:
72,224,79631,2,0,P|80:256|104:280,1,50,4|0,0:0|0:0,0:0:0:0:
152,240,79823,2,0,P|144:208|120:184,1,50
64,352,80015,1,4,0:0:0:0:
184,320,80208,5,0,0:0:0:0:
184,320,80400,1,2,0:0:0:0:
304,288,80592,1,0,0:0:0:0:
400,160,80785,5,0,0:0:0:0:
288,64,80977,1,2,0:0:0:0:
192,176,81170,1,0,0:0:0:0:
312,264,81362,1,0,0:0:0:0:
288,112,81554,5,2,0:0:0:0:
64,224,81747,1,0,0:0:0:0:
128,304,81939,1,0,0:0:0:0:
224,336,82131,1,2,0:0:0:0:
328,336,82324,2,0,P|384:320|416:264,1,100
344,48,82709,2,0,P|288:64|256:120,1,100,6|0,0:0|0:0,0:0:0:0:
328,336,83093,1,4,0:0:0:0:
464,192,83286,5,0,0:0:0:0:
464,192,83478,1,2,0:0:0:0:
160,192,83671,1,0,0:0:0:0:
288,32,83863,1,0,0:0:0:0:
336,176,84055,1,2,0:0:0:0:
240,80,84248,1,0,0:0:0:0:
288,224,84440,1,0,0:0:0:0:
192,128,84632,5,2,0:0:0:0:
88,240,84825,2,0,P|104:288|144:312,1,100
236,180,85210,1,2,0:0:0:0:
88,240,85402,1,0,0:0:0:0:
247,253,85594,1,0,0:0:0:0:
110,169,85787,1,6,0:0:0:0:
193,305,85979,1,0,0:0:0:0:
175,146,86171,1,4,0:0:0:0:
304,48,86364,5,0,0:0:0:0:
304,48,86556,1,2,0:0:0:0:
384,176,86749,2,0,P|432:152|448:104,1,100
480,208,87133,1,2,0:0:0:0:
376,104,87326,1,0,0:0:0:0:
408,248,87518,1,0,0:0:0:0:
352,336,87711,5,2,0:0:0:0:
320,352,87807,1,0,0:0:0:0:
288,352,87903,1,2,0:0:0:0:
256,344,87999,1,2,0:0:0:0:
224,320,88095,1,0,0:0:0:0:
208,288,88192,1,2,0:0:0:0:
208,256,88288,1,0,0:0:0:0:
224,224,88384,1,0,0:0:0:0:
248,200,88480,2,0,P|272:184|304:184,1,50,2|0,0:0|0:0,0:0:0:0:
292,108,88672,2,0,P|320:106|348:122,1,50,2|0,0:0|0:0,0:0:0:0:
384,52,88865,2,0,P|409:64|425:92,1,50,2|0,0:0|0:0,0:0:0:0:
488,48,89057,2,0,P|504:72|503:103,1,50,2|0,0:0|0:0,0:0:0:0:
496,168,89250,1,0,0:0:0:0:
256,192,89442,12,0,92328,0:0:0:0:
