osu file format v13

[General]
AudioFilename: In the Final.mp3
AudioLeadIn: 0
PreviewTime: 9219
Countdown: 0
SampleSet: Soft
StackLeniency: 0.3
Mode: 0
LetterboxInBreaks: 1
WidescreenStoryboard: 1

[Editor]
Bookmarks: 9219,21531,27687,40000,52312,64625,76937,89250
DistanceSpacing: 1.2
BeatDivisor: 4
GridSize: 8
TimelineZoom: 1.9

[Metadata]
Title:The Grand Finale
TitleUnicode:The Grand Finale
Artist:Yoko Shimomura
ArtistUnicode:Yoko Shimomura
Creator:Chupalika
Version:Hard
Source:Mario & Luigi: Bowser's Inside Story
Tags:final boss battle alpha dream alphadream super mario rpg smrpg shrowser
BeatmapID:553313
BeatmapSetID:126054

[Difficulty]
HPDrainRate:6
CircleSize:3.5
OverallDifficulty:6
ApproachRate:8
SliderMultiplier:1.5
SliderTickRate:1

[Events]
//Background and Video events
0,0,"background.jpg",0,0
//Break Periods
2,21731,23090
2,77136,78496
//Storyboard Layer 0 (Background)
//Storyboard Layer 1 (Fail)
//Storyboard Layer 2 (Pass)
//Storyboard Layer 3 (Foreground)
//Storyboard Sound Samples

[TimingPoints]
-15,384.763370527126,4,2,1,40,1,0
8834,-100,4,2,1,25,0,0
9219,-100,4,2,1,40,0,0
23840,-100,4,2,1,20,0,0
24032,-100,4,2,1,25,0,0
24225,-100,4,2,1,30,0,0
24417,-100,4,2,1,35,0,0
24609,-100,4,2,1,40,0,0
33459,-100,4,2,1,35,0,0
33844,-100,4,2,1,30,0,0
35383,-100,4,2,1,35,0,0
36922,-100,4,2,1,40,0,0
37691,-100,4,2,1,45,0,0
38461,-100,4,2,1,50,0,0
39230,-100,4,2,1,30,0,0
39359,-100,4,2,1,33,0,0
39487,-100,4,2,1,36,0,0
39615,-100,4,2,1,40,0,0
39743,-100,4,2,1,43,0,0
39872,-100,4,2,1,46,0,0
40000,-100,4,2,1,50,0,1
52312,-100,4,2,1,40,0,0
58757,-100,4,2,1,30,0,0
59046,-100,4,2,1,20,0,0
59238,-100,4,2,1,30,0,0
60777,-100,4,2,1,35,0,0
61547,-100,4,2,1,40,0,0
71070,-100,4,2,1,30,0,0
71358,-100,4,2,1,20,0,0
71550,-200,4,2,1,35,0,0
71839,-200,4,2,1,25,0,0
72128,-200,4,2,1,15,0,0
72320,-100,4,2,1,30,0,0
73090,-100,4,2,1,35,0,0
73859,-100,4,2,1,40,0,0
75975,-100,4,2,1,30,0,0
76168,-100,4,2,1,35,0,0
76360,-100,4,2,1,40,0,0
76552,-100,4,2,1,45,0,0
76937,-100,4,2,1,50,0,1
79246,-100,4,2,1,20,0,1
79438,-100,4,2,1,25,0,1
79631,-100,4,2,1,30,0,1
79823,-100,4,2,1,40,0,1
80015,-100,4,2,1,50,0,1
87711,-100,4,2,1,30,0,1
87903,-100,4,2,1,35,0,1
88095,-100,4,2,1,40,0,1
88288,-100,4,2,1,45,0,1
88480,-100,4,2,1,50,0,1
88672,-100,4,2,1,45,0,1
88865,-100,4,2,1,40,0,1
89057,-100,4,2,1,35,0,1
89250,-100,4,2,1,30,0,0

[Colours]
Combo1 : 128,128,255
Combo2 : 255,128,0
Combo3 : 255,255,0
Combo4 : 0,255,0

[HitObjects]
96,256,8834,6,0,L|128:256,5,25
160,256,9219,2,0,L|240:256,1,75,0|2,0:0|0:2,0:0:0:0:
312,256,9604,1,8,0:2:0:0:
344,192,9796,1,0,0:0:0:0:
344,192,9988,2,0,L|192:192,1,150,0|8,0:0|0:2,0:0:0:0:
128,160,10565,1,2,0:2:0:0:
208,128,10758,6,0,P|264:96|264:16,1,150,0|8,0:0|0:2,0:0:0:0:
400,80,11527,2,0,P|344:112|344:192,1,150,0|8,0:0|0:2,0:0:0:0:
480,256,12297,6,0,B|464:288|464:288|344:288,1,150,0|8,0:0|0:2,0:0:0:0:
272,288,12874,1,0,0:0:0:0:
272,288,13066,2,0,L|240:360,1,75,0|2,0:0|0:2,0:0:0:0:
192,296,13451,2,0,L|224:224,1,75,8|2,0:2|0:2,0:0:0:0:
256,144,13836,6,0,P|288:192|376:176,1,150,0|8,0:0|0:2,0:0:0:0:
336,96,14413,1,2,0:2:0:0:
336,96,14606,2,0,L|352:56,3,37.5,0|0|0|0,0:0|0:0|0:0|0:0,0:0:0:0:
272,64,14990,2,0,L|288:24,3,37.5,8|2|0|2,0:2|0:2|0:0|0:2,0:0:0:0:
208,96,15375,6,0,P|136:128|112:192,2,150,0|8|0,0:0|0:2|0:0,0:0:0:0:
272,160,16337,1,2,0:2:0:0:
336,96,16529,2,0,P|408:128|432:192,2,150,8|0|8,0:2|0:0|0:2,0:0:0:0:
272,160,17491,1,2,0:2:0:0:
256,248,17684,2,0,L|256:328,1,75,0|2,0:0|0:2,0:0:0:0:
328,296,18068,2,0,L|328:216,1,75,8|2,0:2|0:2,0:0:0:0:
256,248,18453,6,0,B|240:280|240:280|160:280|160:280|144:248,1,150,0|8,0:0|0:2,0:0:0:0:
64,128,19223,2,0,B|80:96|80:96|160:96|160:96|176:128,1,150,0|8,0:0|0:2,0:0:0:0:
208,192,19800,1,2,0:2:0:0:
208,192,19896,1,2,0:2:0:0:
208,192,19992,2,0,P|304:248|256:144,2,300,2|0|4,0:2|0:0|0:2,0:0:0:0:
32,192,23840,6,0,L|32:152,3,37.5,0|0|0|0,0:0|0:0|0:0|0:0,0:0:0:0:
64,192,24225,2,0,L|64:232,3,37.5,0|0|4|0,0:0|0:0|0:2|0:0,0:0:0:0:
96,192,24609,1,4,0:2:0:0:
160,256,24802,1,0,0:0:0:0:
160,256,24994,1,2,0:2:0:0:
232,288,25187,1,0,0:0:0:0:
304,304,25379,2,0,P|344:312|384:312,1,75,0|2,0:0|0:2,0:0:0:0:
432,240,25764,2,0,P|392:232|352:232,1,75
296,192,26148,5,2,0:2:0:0:
224,160,26341,1,0,0:0:0:0:
264,96,26533,1,0,0:0:0:0:
336,128,26726,1,2,0:2:0:0:
296,192,26918,2,0,P|272:216|232:232,1,75
256,304,27303,2,0,P|222:304|182:287,1,75,2|4,0:2|0:2,0:0:0:0:
144,224,27687,6,0,P|120:160|152:88,1,150,4|8,0:2|0:2,0:0:0:0:
208,160,28265,1,2,0:2:0:0:
208,160,28457,2,0,P|240:88|208:24,1,150,0|8,0:0|0:2,0:0:0:0:
336,112,29227,6,0,L|400:160,1,75,0|2,0:0|0:2,0:0:0:0:
456,200,29611,1,8,0:2:0:0:
400,248,29804,1,0,0:0:0:0:
400,248,29900,1,0,0:0:0:0:
400,248,29996,2,0,P|368:264|328:272,2,75,0|2|8,0:0|0:2|0:2,0:0:0:0:
368,336,30573,1,0,0:0:0:0:
280,368,30766,6,0,P|208:368|160:312,1,150,0|8,0:0|0:2,0:0:0:0:
144,200,31343,1,2,0:2:0:0:
144,200,31535,2,0,P|216:200|264:256,1,150,0|8,0:0|0:2,0:0:0:0:
320,208,32112,1,0,0:0:0:0:
368,264,32305,6,0,P|392:232|392:192,1,75,0|2,0:0|0:2,0:0:0:0:
360,88,32689,1,8,0:2:0:0:
304,136,32882,1,2,0:2:0:0:
304,136,32978,1,2,0:2:0:0:
304,136,33074,2,0,P|296:152|296:176,3,37.5,0|0|2|0,0:0|0:0|0:2|0:0,0:0:0:0:
256,88,33459,2,0,P|240:96|224:112,3,37.5,10|2|0|2,0:2|0:2|0:0|0:2,0:0:0:0:
144,104,33844,6,0,P|152:80|168:56,2,50,2|2|2,0:2|0:2|0:2,0:0:0:0:
144,176,34228,2,0,B|160:224|224:224|208:128|272:160|288:192,2,150,8|0|8,0:2|0:0|0:2,0:0:0:0:
64,336,35383,6,0,P|88:312|128:304,2,75,2|0|8,0:0|0:0|0:2,0:0:0:0:
32,256,35960,1,2,0:2:0:0:
32,256,36056,1,2,0:2:0:0:
32,256,36152,2,0,L|32:176,1,75,2|0,0:2|0:0,0:0:0:0:
112,136,36537,2,0,L|112:216,1,75,10|0,0:2|0:0,0:0:0:0:
192,256,36922,6,0,P|256:272|320:224,2,150,2|8|0,0:2|0:2|0:0,0:0:0:0:
144,200,37884,1,0,0:0:0:0:
128,128,38076,2,0,P|136:88|168:64,1,75,10|0,0:2|0:0,0:0:0:0:
200,128,38461,6,0,P|272:112|288:40,1,150,2|8,0:2|0:2,0:0:0:0:
368,80,39038,1,2,0:2:0:0:
424,144,39230,2,0,L|456:104,2,50,0|0|0,0:0|0:0|0:0,0:0:0:0:
456,192,39615,2,0,L|512:192,2,50,10|2|2,0:2|0:2|0:2,0:0:0:0:
424,232,40000,6,0,B|416:280|360:272|304:264|296:312,1,150,6|10,0:2|0:2,0:0:0:0:
208,296,40577,1,0,0:0:0:0:
208,296,40769,2,0,B|204:261|148:269|92:277|84:229,1,150,2|10,0:2|0:2,0:0:0:0:
80,120,41347,1,0,0:0:0:0:
176,176,41539,6,0,L|248:216,1,75,2|0,0:2|0:0,0:0:0:0:
336,152,41924,2,0,L|264:112,1,75,10|0,0:2|0:0,0:0:0:0:
244,212,42308,2,0,L|324:212,1,75,2|0,0:2|0:0,0:0:0:0:
272,116,42693,2,0,L|197:116,1,75,10|0,0:2|0:0,0:0:0:0:
320,212,43078,6,0,B|368:212|384:176|384:176|384:104,1,150,2|10,0:2|0:2,0:0:0:0:
512,176,43655,1,0,0:0:0:0:
512,176,43751,1,0,0:0:0:0:
512,176,43848,2,0,B|464:176|448:212|448:212|448:284,1,150,2|10,0:2|0:2,0:0:0:0:
352,224,44425,1,0,0:0:0:0:
288,320,44617,6,0,P|248:336|216:336,1,75,2|0,0:2|0:0,0:0:0:0:
112,288,45002,1,10,0:2:0:0:
80,208,45194,1,0,0:0:0:0:
168,176,45387,1,2,0:2:0:0:
200,256,45579,1,0,0:0:0:0:
112,288,45771,2,0,L|32:320,1,75,10|0,0:2|0:0,0:0:0:0:
80,208,46156,6,0,L|224:152,1,150,2|10,0:2|0:2,0:0:0:0:
256,264,46733,1,0,0:0:0:0:
256,264,46926,2,0,P|304:216|352:264,1,150,2|10,0:2|0:2,0:0:0:0:
288,352,47503,1,0,0:0:0:0:
192,296,47695,6,0,L|128:248,1,75,2|0,0:2|0:0,0:0:0:0:
0,240,48080,2,0,L|73:208,1,75,10|0,0:2|0:0,0:0:0:0:
200,224,48465,2,0,L|136:176,1,75,2|0,0:2|0:0,0:0:0:0:
8,160,48849,2,0,L|81:128,1,75,10|0,0:2|0:0,0:0:0:0:
184,80,49234,6,0,B|240:128|240:128|288:64,1,150,2|10,0:2|0:2,0:0:0:0:
352,160,49811,1,0,0:0:0:0:
352,160,49908,1,0,0:0:0:0:
352,160,50004,2,0,B|400:96|400:96|432:120|432:160,1,150,2|10,0:2|0:2,0:0:0:0:
416,248,50581,1,0,0:0:0:0:
352,312,50773,6,0,P|320:328|280:328,1,75,2|0,0:2|0:0,0:0:0:0:
136,280,51158,2,0,P|168:264|208:264,1,75,10|0,0:2|0:0,0:0:0:0:
336,192,51543,1,2,0:2:0:0:
248,216,51735,1,0,0:0:0:0:
216,128,51928,1,14,0:2:0:0:
304,104,52120,1,0,0:0:0:0:
248,216,52312,1,6,0:2:0:0:
160,336,52697,6,0,P|112:280|112:200,2,150,8|2|8,0:2|0:2|0:2,0:0:0:0:
248,216,53851,5,0,0:0:0:0:
120,144,54236,2,0,P|176:96|256:96,2,150,8|2|8,0:2|0:2|0:2,0:0:0:0:
288,288,55390,6,0,P|344:280|400:208,1,150,0|8,0:0|0:2,0:0:0:0:
288,176,55968,1,2,0:2:0:0:
288,176,56064,1,2,0:2:0:0:
288,176,56160,2,0,P|232:184|176:256,1,150,2|8,0:2|0:2,0:0:0:0:
64,160,56929,6,0,L|128:115,1,75,0|2,0:0|0:2,0:0:0:0:
208,72,57314,1,8,0:2:0:0:
256,144,57507,1,2,0:2:0:0:
256,144,57603,1,2,0:2:0:0:
256,144,57699,2,0,P|296:144|328:128,1,75,0|0,0:0|0:0,0:0:0:0:
400,72,58084,1,8,0:2:0:0:
336,240,58469,6,0,P|376:208|440:208,2,112.5,0|0|0,0:0|0:0|0:0,0:0:0:0:
272,304,59238,2,0,P|208:320|144:272,2,150,0|8|0,0:0|0:2|0:0,0:0:0:0:
328,256,60200,5,2,0:2:0:0:
272,208,60392,1,8,0:2:0:0:
328,160,60585,1,2,0:2:0:0:
328,160,60681,1,2,0:2:0:0:
328,160,60777,2,0,P|268:116|216:160,1,150,0|8,0:0|0:2,0:0:0:0:
80,336,61547,6,0,P|152:320|200:264,1,150,2|8,0:2|0:2,0:0:0:0:
312,264,62124,1,2,0:2:0:0:
312,264,62220,1,2,0:2:0:0:
312,264,62316,2,0,P|360:320|431:336,1,150,2|8,0:2|0:2,0:0:0:0:
431,335,62893,1,0,0:0:0:0:
480,280,63086,6,0,P|504:240|504:208,2,75,2|0|8,0:2|0:0|0:2,0:0:0:0:
416,240,63663,1,2,0:2:0:0:
416,240,63759,1,2,0:2:0:0:
416,240,63855,2,0,L|376:208,3,37.5,0|2|0|2,0:0|0:2|0:0|0:2,0:0:0:0:
352,256,64240,2,0,L|312:224,3,37.5,10|2|2|2,0:2|0:2|0:2|0:2,0:0:0:0:
288,208,64625,1,4,0:0:0:0:
112,336,65010,6,0,P|152:328|176:304,1,75,8|2,0:2|0:2,0:0:0:0:
80,192,65395,2,0,P|112:216|152:216,1,75,0|2,0:0|0:2,0:0:0:0:
184,72,65780,2,0,P|192:112|216:136,1,75,8|2,0:2|0:2,0:0:0:0:
304,208,66164,5,0,0:0:0:0:
304,208,66357,1,2,0:2:0:0:
280,296,66549,2,0,P|320:296|352:280,1,75,8|2,0:2|0:2,0:0:0:0:
240,144,66934,2,0,P|220:178|217:214,1,75,0|2,0:0|0:2,0:0:0:0:
392,192,67319,2,0,P|372:157|342:137,1,75,8|2,0:2|0:2,0:0:0:0:
280,296,67703,6,0,P|352:280|392:208,1,150,2|8,0:2|0:2,0:0:0:0:
280,192,68280,1,2,0:2:0:0:
280,192,68376,1,2,0:2:0:0:
280,192,68472,2,0,P|319:130|390:114,1,150,2|8,0:2|0:2,0:0:0:0:
472,192,69050,1,0,0:0:0:0:
440,296,69242,6,0,P|424:328|392:352,2,75,2|0|8,0:2|0:0|0:2,0:0:0:0:
368,280,69819,1,0,0:0:0:0:
368,280,69915,1,0,0:0:0:0:
368,280,70011,2,0,L|272:208,2,112.5,2|2|2,0:2|0:2|0:2,0:0:0:0:
320,336,70781,6,0,L|208:336,2,112.5,0|0|0,0:0|0:0|0:0,0:0:0:0:
368,280,71550,2,0,L|424:240,2,56.25,0|0|0,0:0|0:0|0:0,0:0:0:0:
320,336,72320,6,0,P|288:352|248:352,1,75,2|0,0:2|0:0,0:0:0:0:
176,272,72705,1,8,0:2:0:0:
160,160,72897,2,0,P|192:184|232:192,1,75,2|0,0:2|0:0,0:0:0:0:
336,224,73282,1,0,0:0:0:0:
448,240,73474,2,0,P|440:200|424:168,1,75,10|0,0:2|0:0,0:0:0:0:
336,224,73859,6,0,P|256:224|256:168,1,150,2|8,0:2|0:2,0:0:0:0:
288,104,74436,1,2,0:2:0:0:
288,104,74532,1,2,0:2:0:0:
288,104,74629,2,0,P|256:43|195:73,1,150,2|8,0:2|0:2,0:0:0:0:
195,73,75206,1,0,0:0:0:0:
128,208,75398,6,0,B|181:255|180:197|177:146|212:139|231:161,1,150,2|8,0:2|0:2,0:0:0:0:
320,224,75975,1,2,0:2:0:0:
352,208,76071,1,2,0:2:0:0:
376,176,76168,2,0,P|384:160|384:136,3,37.5,0|2|0|2,0:0|0:2|0:0|0:2,0:0:0:0:
416,160,76552,2,0,L|416:144|408:128,6,25,2|2|2|2|2|2|6,0:2|0:2|0:2|0:2|0:2|0:2|0:2,0:0:0:0:
32,192,79246,6,0,L|32:232,3,37.5,0|0|0|0,0:0|0:0|0:0|0:0,0:0:0:0:
64,192,79631,2,0,L|64:152,3,37.5,4|0|0|0,0:2|0:0|0:0|0:0,0:0:0:0:
96,192,80015,5,4,0:2:0:0:
160,96,80208,1,0,0:0:0:0:
160,96,80400,1,2,0:2:0:0:
224,160,80592,1,0,0:0:0:0:
256,80,80785,6,0,P|288:48|320:48,1,75,0|2,0:0|0:2,0:0:0:0:
416,96,81170,2,0,P|384:128|352:128,1,75
288,192,81554,5,2,0:2:0:0:
176,224,81747,1,0,0:0:0:0:
232,296,81939,1,0,0:0:0:0:
320,296,82131,1,2,0:2:0:0:
392,240,82324,2,0,P|408:208|408:168,1,75
304,64,82709,2,0,P|288:96|288:136,1,75,6|0,0:2|0:0,0:0:0:0:
184,240,83093,5,4,0:2:0:0:
120,336,83286,2,0,P|152:352|192:352,2,75,0|2|0,0:0|0:2|0:0,0:0:0:0:
56,200,83863,2,0,P|56:232|72:272,1,75,0|2,0:0|0:2,0:0:0:0:
136,136,84248,2,0,P|136:168|152:208,1,75
232,248,84632,5,2,0:2:0:0:
264,168,84825,1,0,0:0:0:0:
296,248,85017,1,0,0:0:0:0:
328,168,85210,1,2,0:2:0:0:
384,232,85402,2,0,L|440:288,1,75
480,176,85787,2,0,L|407:156,1,75,6|0,0:2|0:0,0:0:0:0:
296,248,86171,5,4,0:2:0:0:
144,192,86364,1,0,0:0:0:0:
144,192,86556,1,2,0:2:0:0:
80,224,86749,2,0,P|104:256|144:264,1,75
208,240,87133,1,2,0:2:0:0:
256,312,87326,1,0,0:0:0:0:
344,328,87518,1,0,0:0:0:0:
400,256,87711,6,0,P|392:232|376:216,3,37.5,2|0|2|2,0:2|0:0|0:2|0:2,0:0:0:0:
448,192,88095,2,0,P|432:176|408:168,3,37.5,0|2|0|0,0:0|0:2|0:0|0:0,0:0:0:0:
440,104,88480,2,0,P|424:96|400:96,3,37.5,2|0|2|0,0:2|0:0|0:2|0:0,0:0:0:0:
424,32,88865,1,2,0:2:0:0:
388,36,88961,1,0,0:0:0:0:
356,56,89057,1,2,0:2:0:0:
340,92,89153,1,0,0:0:0:0:
348,128,89250,1,0,0:0:0:0:
256,192,89442,12,0,92328,0:0:0:0:
