osu file format v6

[General]
AudioFilename: Kingdom Hearts 2 - Sora.mp3
AudioLeadIn: 0
PreviewTime: 42137
Countdown: 1
SampleSet: Normal
StackLeniency: 0.4
Mode: 0
LetterboxInBreaks: 1

[Editor]
DistanceSpacing: 0.800000011920929
BeatDivisor: 4
GridSize: 8

[Metadata]
Title:Sora
Artist:Yoko Shimomura
Creator:Kytoxid
Version:Normal
Source:Kingdom Hearts 2 OST
Tags:game disney square enix

[Difficulty]
HPDrainRate:4
CircleSize:4
OverallDifficulty:5
SliderMultiplier:1.5
SliderTickRate:1

[Events]
//Background and Video events
0,0,"Sora.jpg"
//Break Periods
2,36996,42869
//Storyboard Layer 0 (Background)
//Storyboard Layer 1 (Fail)
//Storyboard Layer 2 (Pass)
//Storyboard Layer 3 (Foreground)
//Storyboard Sound Samples
//Background Colour Transformations
3,100,0,0,0

[TimingPoints]
433,454.545454545455,4,1,0,45,1,0
3501,-100,4,1,0,80,0,0
12023,-100,4,2,0,100,0,0
14751,-100,4,1,0,80,0,0
22648,-100,4,2,0,100,0,0
25660,-100,4,1,0,65,0,0
49296,-100,4,1,0,100,0,0
49751,-100,4,1,0,70,0,0
51910,-100,4,2,0,100,0,0
54757,-100,4,1,0,65,0,0
62819,-100,4,2,0,100,0,0
65773,-100,4,1,0,75,0,0
74751,-100,4,2,0,100,0,0

[Colours]
Combo1 : 50,50,50
Combo2 : 0,0,160
Combo3 : 215,151,1
Combo4 : 0,128,255

[HitObjects]
256,192,3614,5,4
312,80,4069,5,8
200,80,4523,2,4,B|-16:120|0:328|208:352,1,450,4|4
320,352,6342,5,8
424,296,6796,1,0
320,240,7251,1,8
424,184,7705,1,4
424,64,8160,2,0,B|328:56|280:120,3,150,8|0|8|4
320,232,9978,6,0,B|300:196|300:275|228:211,1,75,8|0
194,230,10433,2,0,B|124:230|124:160,2,112.5,8|0|8
192,288,11342,1,12
256,192,11796,12,2,13160
184,80,13614,5,2
328,80,14069,1,2
256,192,14523,1,6
256,192,14978,5,12
256,192,15433,2,8,B|256:344,3,150,8|8|8|4
408,344,17251,5,8
352,288,17478,1,0
296,232,17705,2,0,B|208:144,2,112.5,8|0|0
296,232,18614,1,12
256,192,19069,12,4,20433
256,192,20887,6,0,B|344:192,1,75,8|0
392,192,21342,2,0,B|392:74,2,112.5,8|0|0
331,192,22251,2,0,B|331:320,1,112.5,8|0
293,304,22705,2,2,B|72:304|61:73|312:72,2,450,2|2|6
200,192,25887,5,12
456,32,26796,2,0,B|328:120,2,150,8|0|8
456,192,28160,5,8
384,320,28614,1,8
312,192,29069,1,8
232,320,29523,2,0,B|88:320,2,112.5,12|0|4
232,320,30433,6,0,B|40:328|24:48|248:48,1,450,12|8
368,96,32251,1,12
256,192,32705,1,12
256,192,33160,12,2,34978
256,192,35092,12,4,36796
464,112,44069,5,8
376,192,44523,2,0,B|240:56,3,150,8|0|8|4
119,85,46342,5,8
66,138,46569,1,0
119,191,46796,1,4
184,288,47137,1,0
248,192,47478,1,8
248,192,47705,1,4
360,192,48046,2,8,B|400:192,1,37.5,0|12
256,192,48273,12,4,49523
280,136,49978,6,0,B|200:136,1,75,8|0
127,138,50433,2,4,B|22:242,2,112.5,4|0|4
128,64,51342,1,12
240,64,51683,2,0,B|296:64,1,37.5,0|12
256,192,51910,12,2,53160
176,120,53614,5,2
336,120,54069,1,2
336,264,54523,1,4
176,264,54978,5,12
256,136,55433,2,0,B|256:312,3,150,0|8|0|12
336,160,57251,6,0,B|400:224,2,75,8|0|8
184,160,58160,2,0,B|112:232,2,75,8|0|8
256,80,58955,2,0,B|256:32,1,37.5,0|8
256,192,59183,12,4,60433
328,264,60887,5,8
328,192,61114,1,0
256,192,61342,2,4,B|256:56,2,112.5,4|0|0
256,264,62251,1,8
144,264,62592,2,0,B|104:264,1,37.5,0|12
256,192,62819,12,2,64069
256,192,64523,5,0
256,192,64978,1,2
256,192,65433,1,0
320,248,65887,6,8,B|288:296|216:304|176:224,1,150,4|0
192,136,66796,2,8,B|224:88|296:80|336:160,1,150,0|0
168,56,67705,6,8,B|96:112|72:200|112:304|184:336,1,300,12|8
256,192,69069,1,4
344,328,69523,2,8,B|416:272|440:184|400:80|328:48,1,300,12|8
256,192,70887,1,4
256,192,71342,1,4
144,88,71796,5,8
256,192,72251,1,0
144,296,72705,1,8
256,192,73160,1,0
368,296,73614,5,8
256,192,74069,1,0
368,88,74523,1,8
256,192,74978,1,4
256,192,75433,12,12,76796
