osu file format v9

[General]
AudioFilename: Kingdom Hearts Birth by Sleep OST - 15 Scherzo di Notte.mp3
AudioLeadIn: 500
PreviewTime: 50926
Countdown: 0
SampleSet: Soft
StackLeniency: 0.7
Mode: 0
LetterboxInBreaks: 1

[Editor]
DistanceSpacing: 0.8
BeatDivisor: 4
GridSize: 8

[Metadata]
Title:Scherzo di Notte
Artist:Yoko Shimomura
Creator:-kevincela-
Version:Normal
Source:Kingdom Hearts: Birth By Sleep
Tags:KH BBS Square Enix Disney Black Garden

[Difficulty]
HPDrainRate:4
CircleSize:4
OverallDifficulty:4
ApproachRate:4
SliderMultiplier:1.4
SliderTickRate:2

[Events]
//Background and Video events
0,0,"bbswall3.jpg"
//Break Periods
2,37781,38928
//Storyboard Layer 0 (Background)
//Storyboard Layer 1 (Fail)
//Storyboard Layer 2 (Pass)
//Storyboard Layer 3 (Foreground)
//Storyboard Sound Samples
//Background Colour Transformations
3,100,163,162,255

[TimingPoints]
2915,444.444444444444,4,2,1,100,1,0
29566,-100,4,2,1,80,0,0
34899,-100,4,2,1,100,0,1
37566,-100,4,2,1,100,0,0

[HitObjects]
160,152,2915,2,8,B|96:88,2,70,2|2|8
272,152,3803,1,2
384,160,4248,1,2
416,264,4692,1,0
392,312,4915,2,0,B|320:368|272:368|200:312,1,210,2|2
136,224,6026,1,8
160,112,6470,5,2
272,120,6915,1,2
376,88,7359,1,2
416,128,7581,2,0,B|424:208|320:216,1,140,2|0
272,216,8248,6,8,B|200:192|120:224,1,140,4|8
64,304,9137,1,2
168,344,9581,1,2
272,320,10026,1,2
320,288,10248,2,0,B|384:240|392:152,1,140,2|2
392,112,10915,1,2
288,152,11359,1,8
184,112,11803,5,2
80,144,12248,2,2,B|80:304,1,140,2|2
80,284,12915,1,4
248,312,13581,5,8
360,312,14026,1,2
360,312,14248,2,0,B|416:272|416:232|328:192,1,140,2|2
296,208,14915,2,8,B|232:192|224:128|272:96,1,140,4|2
320,96,15581,1,8
448,168,16026,5,2
448,168,16248,2,4,B|448:312,1,140,4|2
336,304,17137,1,2
224,312,17581,1,0
224,312,18026,2,2,B|136:312|88:256,1,140,2|8
64,168,18914,6,8,B|96:96|184:88,1,140,0|8
248,176,19803,1,2
248,288,20248,2,2,B|296:288|312:240,2,70,0|0|2
192,288,20914,2,8,B|32:288,1,140,2|0
0,264,21581,1,8
40,160,22026,1,2
144,128,22470,6,2,B|184:88|240:88|288:144,1,140,2|0
376,160,23359,1,4
376,160,23581,1,4
376,328,24248,6,8,B|456:328,2,70,2|0|8
264,336,25137,1,0
152,360,25581,1,2
56,304,26026,1,2
56,304,26248,2,2,B|56:216|160:200,1,140,2|2
192,200,26914,1,4
296,200,27359,1,8
408,200,27803,6,8,B|408:104,2,70,0|0|2
408,312,28692,2,4,B|264:312,1,140,0|8
280,200,29581,6,2,B|216:144|136:208,2,140,2|2|2
392,200,30914,1,0
392,88,31359,1,8
392,88,31581,1,2
224,88,32248,6,2,B|160:40|72:104,1,140,2|2
88,200,33137,2,2,B|88:344,1,140,2|2
184,280,34026,1,8
184,280,34248,1,0
288,144,34914,6,8,B|448:144,1,140,2|8
424,232,35803,1,2
424,288,36026,1,2
424,344,36248,1,8
312,344,36692,2,2,B|152:344,1,140,2|2
56,344,37581,1,4
48,128,40248,6,8,B|216:128,2,140,2|0|8
48,240,41581,1,2
136,312,42026,1,0
136,312,42248,2,0,B|296:312,1,140,0|2
336,312,42914,6,2,B|384:272|384:224|312:176,1,140,8|0
224,192,43803,1,2
112,192,44248,1,0
24,120,44692,1,8
24,120,44914,2,8,B|72:56|144:56,1,140,2|2
200,56,45581,6,2,B|288:56|344:136,1,140,2|8
328,224,46470,1,2
328,224,46914,2,2,B|328:320|232:320,1,140,2|2
192,320,47581,1,8
144,296,47803,1,0
80,216,48248,6,2,B|40:144|96:72,1,140,2|8
200,72,49137,2,8,B|232:144|176:216,1,140,2|2
136,304,50026,2,8,B|128:352|56:336,2,70,0|0|8
248,304,50914,6,8,B|272:360|336:360|368:288,1,140,2|8
344,200,51803,1,2
280,112,52248,1,2
200,192,52692,1,0
200,192,52914,2,10,B|104:192|104:280,1,140,0|2
104,328,53581,2,10,B|256:328,1,140,8|2
360,328,54470,5,0
328,224,54914,1,0
376,120,55359,1,4
376,120,55581,1,4
208,120,56248,6,8,B|176:56|72:64,1,140,0|8
56,168,57137,1,0
128,256,57581,1,0
232,216,58026,1,2
232,216,58248,2,2,B|192:360,1,140,2|2
248,360,58914,2,2,B|400:360,1,140,8|2
440,264,59803,5,2
376,168,60248,1,2
264,192,60692,1,8
208,192,60914,1,0
152,192,61137,1,0
40,192,61581,1,4
