osu file format v9

[General]
AudioFilename: Kingdom Hearts Birth by Sleep OST - 15 Scherzo di Notte.mp3
AudioLeadIn: 500
PreviewTime: 50926
Countdown: 0
SampleSet: Soft
StackLeniency: 0.7
Mode: 0
LetterboxInBreaks: 1

[Editor]
DistanceSpacing: 0.8
BeatDivisor: 4
GridSize: 8

[Metadata]
Title:Scherzo di Notte
Artist:Yoko Shimomura
Creator:-kevincela-
Version:Hard
Source:Kingdom Hearts: Birth By Sleep
Tags:KH BBS Square Enix Disney Black Garden

[Difficulty]
HPDrainRate:8
CircleSize:5
OverallDifficulty:7
ApproachRate:7
SliderMultiplier:1.8
SliderTickRate:1

[Events]
//Background and Video events
0,0,"bbswall3.jpg"
//Break Periods
2,38669,39348
//Storyboard Layer 0 (Background)
//Storyboard Layer 1 (Fail)
//Storyboard Layer 2 (Pass)
//Storyboard Layer 3 (Foreground)
//Storyboard Sound Samples
//Background Colour Transformations
3,100,163,162,255

[TimingPoints]
2915,444.444444444444,4,2,1,100,1,0
29566,-100,4,2,1,80,0,0
34899,-100,4,2,1,100,0,1
38455,-100,4,2,1,0,0,0
40238,-100,4,2,1,100,0,0

[HitObjects]
112,192,2915,2,0,B|80:136,4,45,2|0|2|0|8
184,192,3581,1,2
256,184,3803,2,8,B|264:120|192:112,2,90,2|2|0
240,256,4470,1,2
304,288,4692,1,2
368,264,4915,2,8,B|440:232|440:160|352:120,1,180,2|0
296,128,5581,2,4,B|232:168|232:224|320:280,1,180,4|8
400,160,6470,6,2,B|456:160|456:96,2,90,0|2|8
328,160,7137,1,0
256,160,7359,1,0
184,160,7581,2,8,B|104:144|48:184|80:280,1,180,0|0
72,328,8248,6,2,B|8:328,4,45,2|2|2|2|8
144,328,8915,1,2
216,328,9137,2,2,B|216:224,2,90,0|2|0
288,328,9803,1,2
344,280,10026,1,2
384,216,10248,2,6,B|496:160|456:32,1,180,0|0
400,40,10915,2,2,B|320:72|312:192,1,180,4|8
168,192,11803,5,0
120,248,12026,1,2
144,312,12248,1,10
208,336,12470,2,2,B|176:384,2,45,2|2|8
280,336,12915,2,4,B|368:360|480:336,1,180,4|0
472,272,13581,5,8
480,200,13803,1,2
440,136,14026,1,2
368,136,14248,2,8,B|328:176|256:176|192:128,1,180,8|0
200,64,14915,2,0,B|152:24|72:32|32:64,1,180,4|0
48,136,15581,1,2
48,208,15803,1,8
112,240,16026,1,2
168,272,16248,6,8,B|216:312|296:312|344:280,1,180,8|2
408,256,16915,2,8,B|472:256|472:328,2,90,2|8|2
360,200,17581,2,0,B|296:128,1,90,8|2
232,168,18026,2,2,B|160:96,1,90,8|2
136,168,18470,1,4
136,168,18581,1,2
136,168,18692,1,4
96,240,18914,6,2,B|64:184,4,45,2|2|2|2|8
168,232,19581,1,2
240,248,19803,2,2,B|248:192|344:192,1,90,0|2
360,232,20248,2,2,B|352:280|280:296,1,90,2|0
240,336,20692,1,0
168,344,20914,2,2,B|136:312|96:336|48:368|0:320,1,180,0|2
16,248,21581,2,4,B|16:64,1,180,4|8
160,64,22470,5,0
224,88,22692,1,0
280,136,22914,1,8
296,208,23137,2,2,B|352:184|416:232,1,90,0|10
408,280,23581,2,0,B|360:376|232:344|232:344,1,180,2|0
184,344,24248,6,8,B|192:272,4,45,2|0|0|0|8
112,320,24914,1,0
56,272,25137,2,2,B|-8:352,2,90,0|2|0
104,216,25803,2,8,B|104:152|176:152,1,90,0|2
224,152,26248,2,8,B|288:120|328:160|360:192|432:136,1,180,0|2
424,224,26914,2,4,B|352:304|352:304|352:304|280:272,1,180,4|8
168,184,27803,5,0
128,128,28026,1,2
144,56,28248,1,8
216,32,28470,1,2
256,96,28692,1,8
232,160,28914,1,0
440,224,29581,6,2,B|400:280|304:280|272:216,1,180,2|8
200,120,30470,1,8
240,184,30692,1,2
208,248,30914,1,0
136,272,31137,1,0
104,208,31359,1,8
128,144,31581,1,4
328,56,32248,6,2,B|440:48|480:160,1,180,2|8
424,280,33137,2,8,B|496:288|496:216,2,90,8|0|0
352,280,33803,2,2,B|248:280,1,90,2|10
192,280,34248,1,4
96,88,34914,5,8
168,80,35137,2,8,B|144:24,2,45,2|2|2
240,96,35581,1,0
312,88,35803,1,8
312,88,35914,1,0
312,88,36026,1,0
368,128,36248,1,8
416,176,36470,1,0
424,248,36692,5,0
424,280,36803,1,0
408,312,36914,1,0
376,328,37026,1,0
344,328,37137,1,8
272,328,37359,1,2
272,328,37581,2,4,B|48:328|48:72,1,360,12|4
408,104,40248,6,2,B|456:56,4,45,2|2|2|2|8
416,176,40914,1,0
464,232,41137,1,0
440,304,41359,1,0
368,320,41581,1,0
296,320,41803,2,2,B|256:368|192:304,1,90,2|0
160,280,42248,2,2,B|64:224|128:128,1,180,0|0
200,128,42914,5,4
344,128,43359,1,8
352,272,43803,2,2,B|312:312|264:264,2,90,0|0|8
352,272,44470,2,2,B|392:224|456:288,2,90,0|8|2
408,64,45581,6,2,B|448:104|512:48,2,90,2|2|8
336,56,46248,2,8,B|224:56,1,90,0|0
176,56,46692,1,0
112,96,46914,5,8
88,168,47137,1,0
136,224,47359,1,2
208,232,47581,2,0,B|232:192,4,45,0|0|8|0|8
280,248,48248,5,0
352,224,48470,1,0
408,264,48692,1,8
392,336,48914,1,0
320,352,49137,1,0
256,312,49359,1,0
184,312,49581,2,2,B|144:344|88:312,2,90,10|8|2
184,240,50248,2,4,B|144:192|192:136,2,90,0|4|0
184,312,50914,5,8
152,304,51026,1,0
120,288,51137,1,0
104,256,51248,1,0
96,224,51359,2,8,B|80:120|160:64,1,180,8|0
232,72,52026,2,8,B|280:48|320:96,2,90,0|8|0
224,144,52692,1,8
224,144,52914,2,8,B|224:328,1,180,0|0
296,328,53581,2,2,B|344:368|440:368|496:328,1,180,4|8
456,200,54470,5,0
456,128,54692,1,0
416,72,54914,2,8,B|456:24,2,45,8|0|0
344,72,55359,1,10
272,72,55581,2,4,B|80:72,1,180,0|0
72,144,56248,5,2
80,176,56359,1,0
96,208,56470,1,0
120,232,56581,1,0
152,248,56692,2,2,B|344:248,1,180,8|2
408,248,57359,2,8,B|416:304|344:312,2,90,0|8|0
408,176,58026,1,0
408,104,58248,2,2,B|400:40|320:40,2,90
336,112,58914,5,4
192,112,59359,1,8
48,112,59803,6,8,B|48:48|120:48,2,90,0|0|0
48,184,60470,2,8,B|48:280,1,90,0|8
48,344,60914,1,0
256,344,61581,1,4
