osu file format v6

[General]
AudioFilename: Kingdom Hearts 2 - Scherzo Di Notte.mp3
AudioLeadIn: 1974
PreviewTime: 17771
Countdown: 1
SampleSet: Soft
StackLeniency: 0.7
Mode: 0
LetterboxInBreaks: 1

[Editor]
DistanceSpacing: 1
BeatDivisor: 4
GridSize: 16

[Metadata]
Title:Scherzo Di Notte
Artist:Yoko Shimomura
Creator:Kytoxid
Version:Normal
Source:Kingdom Hearts II
Tags:Game KH2 Hollow Bastion

[Difficulty]
HPDrainRate:3
CircleSize:4
OverallDifficulty:5
SliderMultiplier:1.2
SliderTickRate:2

[Events]
//Background and Video events
0,0,"kingdom-heart-halloween-town.jpg"
//Break Periods
//Storyboard Layer 0 (Background)
//Storyboard Layer 1 (Fail)
//Storyboard Layer 2 (Pass)
//Storyboard Layer 3 (Foreground)
//Storyboard Sound Samples
//Background Colour Transformations
3,100,0,0,0

[TimingPoints]
661,422.713822742004,3,2,0,51,1,0
13154,-100,4,2,0,41,0,0
17592,-100,4,2,0,51,0,0
28370,-100,4,2,0,41,0,0
33760,-100,4,2,0,50,0,0
59015,-100,4,2,0,29,0,0

[Colours]
Combo1 : 255,255,91
Combo2 : 255,128,64
Combo3 : 174,174,255

[HitObjects]
256,192,661,2,0,B|192:128,2,60,8|0|0
256,192,1295,2,0,B|320:256,2,60,8|0|0
256,192,1929,2,0,B|304:144,2,60,8|0|0
256,192,2563,2,0,B|208:240,2,60,8|0|0
256,192,3197,6,2,B|220:104|336:80,1,120,2|6
368,176,4042,1,8
256,192,4465,2,2,B|224:137|291:108,2,90,2|0|2
368,176,5522,5,0
368,176,5733,2,0,B|496:240,1,120,8|8
407,130,6578,2,0,B|343:130,1,60,8|0
286,130,7001,1,2
227,130,7213,1,0
167,130,7424,2,0,B|87:130,1,60,8|4
256,224,8269,6,0,B|256:256,4,30,2|0|0|0|2
338,148,9115,1,8
370,199,9326,1,0
370,258,9537,2,2,B|365:291|335:313,3,60,2|0|2|2
219,309,10594,5,8
162,293,10806,2,0,B|80:305|38:226|80:198,1,120,8|0
179,202,11651,1,8
239,202,11862,1,8
298,202,12074,2,2,B|378:202,3,60,2|0|0|2
352,64,13342,6,0,B|240:48|160:64|80:112|48:192,1,300
64,208,14610,2,0,B|144:272|176:224|192:144|272:160|336:224,1,300
384,240,15878,2,0,B|432:304|368:352|256:336|224:256|128:320,1,300
162,302,17146,1,2
384,80,18414,6,2,B|256:192,1,120
176,112,19260,2,0,B|128:96|112:128,5,60,8|0|8|0|0|8
160,240,20739,1,0
202,282,20951,2,0,B|282:330|362:298|426:234|394:138,1,300,8|0
372,99,22219,2,0,B|308:51|212:19|164:51|100:83|84:131,1,300,4|0
79,161,23487,6,2,B|111:225|191:225,1,120
224,128,24332,2,0,B|272:112|320:160,1,60,8|0
336,144,24755,2,2,B|416:208|400:272|336:304,1,180
242,334,25812,5,8
179,336,26023,2,0,B|99:304|112:224,1,120,8|0
138,120,26869,1,8
191,92,27080,1,0
250,79,27291,2,0,B|320:80|336:128|288:160,1,120,2|0
256,192,27926,1,4
241,326,28560,6,0,B|133:344|97:304|32:254|49:181,1,240
28,168,29616,1,2
43,110,29828,2,0,B|94:56|178:36|242:120|292:117|365:84,1,300,2|0
376,63,31096,6,0,B|447:94|483:170|475:256|452:307,1,240
436,320,32153,1,0
384,352,32364,2,0,B|291:281|176:384|64:288|144:176,1,360,2|0
160,144,33844,6,2,B|208:96,1,60,2|0
320,144,34478,2,0,B|368:96,1,60,2|0
416,80,34900,6,0,B|480:48,2,60,2|8|8
416,80,35534,2,0,B|475:119,2,60,2|8|8
256,192,36168,12,4,37437
256,192,38705,6,2,B|336:144|240:96,1,120
134,103,39550,2,8,B|90:104|82:166,1,60,2|0
102,195,39973,2,8,B|135:239|176:188,1,60,8|8
196,166,40396,2,0,B|205:140|175:103,1,60,2|0
300,62,41030,5,8
358,50,41241,2,0,B|398:104|309:152|409:192,1,120,8|0
427,270,42086,2,0,B|409:312|373:306,1,60,8|0
324,306,42509,1,2
264,306,42721,1,0
204,306,42932,2,0,B|164:306|147:278,1,60,8|4
321,225,43777,6,0,B|386:225|371:146|311:161,1,120,8|0
270,191,44411,2,2,B|99:191,1,120,2|0
100,225,45045,2,0,B|35:224|51:145|110:160,1,120,8|0
149,193,45680,2,0,B|208:134,2,60,2|0|0
100,158,46314,6,0,B|35:159|50:238|110:223,1,120,8|0
150,192,46948,2,0,B|321:192,1,120,2|0
320,159,47582,2,0,B|385:159|370:238|310:223,1,120,8|0
271,191,48216,2,0,B|213:250,2,60,2|0|4
229,148,48850,6,2,B|158:171|177:79|85:100,1,120
68,203,49695,2,2,B|29:232|77:272,1,60,2|0
115,277,50118,2,8,B|172:240|225:320|292:249,2,180,8|8|8
31,192,51809,5,4
98,93,52232,2,0,B|111:53|149:42,1,60,2|0
191,28,52654,2,0,B|261:17|332:59|340:112,2,180,8|0|12
206,147,54345,5,2
316,195,54768,2,0,B|240:246,1,60,8|0
217,262,55191,2,2,B|281:336|348:297|384:240,1,180
363,122,56247,5,8
311,91,56459,2,0,B|223:53|124:98|66:171|55:257,1,300,0|0
53,266,57727,2,0,B|124:292|141:229|138:193|175:162|223:124|312:165,1,300,0|4
256,192,58995,12,0,61531
