osu file format v6

[General]
AudioFilename: Kingdom Hearts 2 - Scherzo Di Notte.mp3
AudioLeadIn: 1974
PreviewTime: 17771
Countdown: 1
SampleSet: Soft
StackLeniency: 0.7
Mode: 0
LetterboxInBreaks: 1

[Editor]
DistanceSpacing: 1
BeatDivisor: 8
GridSize: 16

[Metadata]
Title:Scherzo Di Notte
Artist:Yoko Shimomura
Creator:Kytoxid
Version:Insane (Long Version)
Source:Kingdom Hearts II
Tags:Game KH2 Hollow Bastion

[Difficulty]
HPDrainRate:6
CircleSize:5
OverallDifficulty:8
SliderMultiplier:2
SliderTickRate:1

[Events]
//Background and Video events
0,0,"kingdom-heart-halloween-town.jpg"
//Break Periods
2,12908,17242
2,104665,108576
//Storyboard Layer 0 (Background)
//Storyboard Layer 1 (Fail)
//Storyboard Layer 2 (Pass)
//Storyboard Layer 3 (Foreground)
//Storyboard Sound Samples
//Background Colour Transformations
3,100,0,0,0

[TimingPoints]
661,422.713822742004,3,2,0,51,1,0
64942,422.713822742004,3,2,0,52,1,0
110663,422.713822742004,3,2,0,52,1,0
140325,-100,3,2,0,31,0,0

[Colours]
Combo1 : 255,255,91
Combo2 : 255,128,64
Combo3 : 174,174,255

[HitObjects]
160,192,661,1,8
208,108,872,1,0
304,108,1083,1,2
352,192,1295,1,8
304,275,1506,1,0
208,275,1717,1,2
208,275,1929,5,8
304,275,2140,1,0
352,192,2351,1,2
304,108,2563,1,8
208,108,2774,1,0
160,192,2985,1,2
256,192,3197,6,0,B|256:128,3,50,2|0|2|0
256,192,3619,6,0,B|336:192|416:128|400:32,1,200,2|0
464,160,4254,1,0
400,240,4465,1,2
320,304,4676,1,0
224,320,4888,1,0
128,288,5099,1,2
80,96,5522,6,0,B|96:32|192:32,1,100,0|2
416,288,6156,5,4
80,96,6578,5,0
168,50,6790,1,0
160,144,7001,1,2
203,120,7107,1,0
248,97,7213,1,0
240,192,7424,1,0
329,146,7635,1,2
112,336,8269,5,2
76,300,8375,1,0
60,253,8481,1,2
75,205,8586,1,0
111,170,8692,6,0,B|175:154|223:154|287:186|319:218,1,200,4|0
336,304,9326,1,0
336,304,9537,1,2
416,240,9749,1,0
416,240,9960,1,0
432,336,10172,2,0,B|256:160,1,200,2|0
290,194,10806,1,2
80,80,11228,5,4
80,320,11651,5,0
144,240,11862,1,0
208,320,12074,1,2
256,320,12179,1,0
304,320,12285,1,0
368,240,12496,1,0
432,320,12708,1,2
256,336,17992,5,8
206,331,18097,1,0
158,315,18203,1,8
123,280,18309,1,0
108,232,18414,1,2
130,187,18520,1,0
172,161,18626,1,0
219,148,18732,1,0
269,139,18837,6,0,B|269:75|237:11|157:11|125:11,1,200,2|0
73,83,19471,1,0
73,183,19683,2,0,B|169:279,1,100,2|0
144,253,20105,1,0
244,253,20317,2,0,B|276:333|436:333,1,200,2|0
440,236,20951,6,0,B|376:204|472:172|360:140,2,100,2|0|0
343,209,21585,1,0
288,128,21796,1,0
224,48,22008,1,0
128,64,22219,1,2
92,99,22325,1,0
83,148,22430,1,0
141,229,22642,1,0
256,208,22853,2,0,B|320:112|336:272|400:272|416:176,1,200,2|0
464,288,23487,5,2
416,256,23593,1,0
368,288,23698,1,2
320,256,23804,1,0
271,287,23910,6,0,B|207:255|287:223|287:223|175:223,1,200,2|0
158,320,24544,1,0
64,272,24755,2,0,B|144:192,1,100,2|0
134,201,25178,1,0
96,112,25389,2,0,B|160:32|192:144|240:144|288:64,1,200,2|0
368,48,26023,6,0,B|416:96|400:144|368:128|336:192|384:240,2,200,2|0|2
272,80,27080,1,0
208,160,27291,6,0,B|144:240,1,100,2|0
240,224,27714,2,0,B|160:320,1,100,0|0
96,240,28137,1,0
128,144,28348,1,0
80,48,28560,5,2
128,32,28665,1,0
176,48,28771,1,0
224,32,28877,1,0
272,48,28982,2,0,B|336:32|416:64|448:128|416:176,1,200
440,185,29511,1,0
433,234,29616,1,0
403,274,29722,1,0
367,303,29828,2,0,B|287:367,2,100,2|0|0
320,224,30462,2,0,B|208:176,1,100,0|0
228,184,30885,1,0
228,184,31096,6,0,B|224:127|157:124|129:164|127:219|188:250|252:203,2,200,2|0|2
272,208,32047,1,0
320,240,32153,1,0
368,272,32258,1,0
416,304,32364,2,0,B|512:384,2,100,2|0|0
320,240,32998,2,0,B|304:176|208:256|160:208|160:128,1,200,2|0
256,112,33632,5,4
416,240,33844,5,2
416,240,33949,1,0
416,240,34055,1,0
416,240,34161,1,2
416,240,34266,1,0
224,304,34478,5,2
224,304,34583,1,0
224,304,34689,1,2
224,304,34795,1,0
224,304,34900,6,0,B|112:256,1,100,2|0
132,264,35323,1,8
176,176,35534,2,0,B|288:224,1,100,2|0
267,215,35957,1,8
256,208,36168,12,0,37859
112,336,38705,5,2
160,336,38810,1,0
208,336,38916,1,2
256,336,39022,1,0
304,336,39127,6,0,B|416:352|496:288|400:240,1,200,2|0
352,176,39762,1,0
272,112,39973,1,2
208,176,40184,1,0
128,112,40396,1,0
64,176,40607,2,0,B|48:240|96:288|176:320|224:320,1,200,2|0
288,336,41241,6,0,B|368:256,3,100,2|0|0|0
400,176,42086,1,0
336,96,42298,1,0
240,80,42509,1,2
192,96,42615,1,0
160,128,42721,2,0,B|112:160|112:208|128:256|192:288,1,200,0|2
272,240,43355,2,0,B|304:160|288:112|256:64|192:96,1,200,0|8
160,176,43989,5,0
256,176,44200,1,0
352,176,44411,1,8
304,256,44623,1,0
208,256,44834,1,0
160,176,45045,5,8
256,176,45257,1,0
352,176,45468,1,0
304,256,45680,1,8
292,304,45785,1,0
257,339,45891,1,8
217,303,45997,1,0
208,256,46102,1,8
160,176,46314,5,8
208,96,46525,1,0
256,176,46736,1,0
352,176,46948,1,8
304,96,47159,1,0
256,176,47370,1,0
208,256,47582,5,8
304,256,47793,1,0
256,176,48004,1,0
352,176,48216,1,8
336,128,48321,1,0
304,96,48427,1,8
256,80,48533,1,0
208,96,48639,1,8
176,128,48744,1,0
160,176,48850,5,2
176,224,48956,1,0
208,256,49061,1,2
256,272,49167,1,0
304,256,49273,6,0,B|304:224|304:192|304:128|208:128|208:192|256:208,1,200,2|2
256,304,49907,1,0
304,224,50118,2,0,B|400:128,2,100,2|0|0
208,224,50752,2,0,B|64:80,1,200,2|0
144,16,51386,6,0,B|224:96,1,100,2|0
288,160,51809,2,0,B|288:272|192:176|144:208|160:288,1,200,2|0
256,304,52443,1,0
352,272,52654,1,2
387,236,52760,1,0
416,192,52866,1,0
368,96,53077,1,2
272,48,53288,2,0,B|192:80|160:144|224:192|288:144|256:96|208:112|224:144,1,200,2|0
128,128,53922,5,2
96,160,54028,1,0
80,208,54134,1,2
96,256,54239,1,0
128,288,54345,6,0,B|176:352|224:368|304:352|336:336,1,200,2|2
400,304,54979,1,0
304,256,55191,1,2
384,192,55402,1,0
304,256,55613,1,0
384,192,55825,2,0,B|288:208|304:96|272:80|208:112,1,200,2|0
144,160,56459,5,2
144,160,56564,1,0
144,160,56670,1,0
64,224,56881,2,0,B|80:288|144:352|240:336|256:336,1,200
304,320,57516,1,0
336,224,57727,1,2
371,259,57833,1,0
406,294,57938,1,0
477,365,58150,1,2
509,270,58361,2,0,B|493:158|365:158,1,200,2|0
267,158,58995,6,0,B|171:158|155:110|123:78|171:30,2,200,2|0|0
67,158,60263,6,0,B|67:238|115:286|211:318,2,200,2|0|0
256,208,61531,12,4,62799
48,192,63645,5,8
64,144,63751,1,8
91,102,63856,1,8
128,68,63962,1,0
171,44,64068,1,2
219,29,64173,1,0
268,20,64279,1,2
317,31,64385,1,0
352,66,64490,6,0,B|331:154|172:189,1,225
88,219,65153,1,0
188,219,65364,2,0,B|130:349,2,100,2|0|0
290,246,65998,2,0,B|345:291|379:193|420:196|480:272,1,200,2|0
464,160,66632,1,2
64,320,67055,5,4
352,48,67478,5,2
256,64,67689,1,0
160,112,67900,1,2
124,147,68006,1,0
96,192,68112,1,0
192,208,68323,1,0
288,192,68535,2,0,B|320:112|368:224|416:224|464:176,1,200,2|0
448,272,69169,5,2
416,304,69274,1,0
372,329,69380,1,2
324,342,69486,1,0
274,342,69591,6,0,B|198:342|156:306|105:261|112:213,1,200,2|0
112,144,70225,1,0
211,144,70437,1,2
211,43,70648,1,0
211,144,70859,1,0
311,144,71071,2,0,B|373:112|446:136|474:198|466:229,1,200,2|0
396,286,71705,5,2
199,321,72128,2,0,B|245:280|165:190|262:160|316:240|229:237,1,200,4|0
140,236,72762,1,0
208,144,72973,2,0,B|160:112|256:96|256:80|160:64,2,100,2|0|0
304,144,73607,2,0,B|288:112|256:144|272:192|320:208|384:160|448:112,1,200,2|0
443,232,74241,6,0,B|417:284|348:234|286:242|280:320,1,200,2|0
103,216,75087,2,0,B|45:179|68:105,1,100
135,64,75509,2,0,B|191:27|244:102,2,100,2|0|0
64,135,76143,2,0,B|62:180|112:245|202:268,1,200,2|0
291,303,76777,6,0,B|396:284|440:206|420:139,2,200,2|0|0
244,321,77729,1,0
193,326,77834,1,0
101,287,78046,1,2
65,251,78151,1,0
51,201,78257,1,0
77,104,78468,1,0
164,54,78680,2,0,B|247:52|154:141|191:186|305:172,1,200,2|0
432,304,79314,5,4
408,206,79525,5,2
379,165,79631,1,0
337,138,79736,1,0
288,149,79842,1,2
256,192,79948,1,0
103,177,80159,5,2
132,218,80265,1,0
174,245,80371,1,0
223,234,80476,1,2
256,192,80582,1,0
176,128,80793,1,0
256,192,81005,1,0
368,288,81216,1,10
256,192,81427,1,0
96,64,81639,1,0
256,192,81850,1,4
256,208,81956,12,4,83118
64,64,84386,5,2
64,64,84492,1,0
64,64,84598,1,2
64,64,84703,1,0
64,64,84809,6,0,B|64:112|16:96|16:32|64:0|112:32|128:64|128:112|80:112|48:128,1,200,2|0
32,208,85443,1,0
128,208,85654,1,2
80,288,85866,1,0
32,368,86077,1,0
128,368,86289,2,0,B|208:336|224:288|224:240|176:192,1,200,2|0
288,176,86923,2,0,B|288:240|304:304|384:336|416:320,1,200,2|0
393,323,87557,1,0
433,201,87768,5,0
448,96,87979,1,0
400,80,88085,1,0
352,64,88191,1,2
304,160,88402,1,0
208,160,88613,1,0
160,64,88825,1,2
112,80,88931,1,0
64,96,89036,1,0
78,201,89248,1,0
256,192,89459,5,8
336,144,89670,1,0
416,96,89882,1,0
416,192,90093,1,8
336,240,90304,1,0
256,288,90516,1,0
256,192,90727,5,8
336,144,90938,1,0
416,96,91150,1,0
416,192,91361,1,8
375,217,91467,1,0
336,240,91572,1,8
297,266,91678,1,0
256,288,91784,1,8
256,192,91995,5,8
176,144,92207,1,0
96,96,92418,1,0
96,192,92629,1,8
176,240,92841,1,0
256,288,93052,1,0
256,192,93263,5,8
176,144,93475,1,0
96,96,93686,1,0
96,192,93897,1,8
135,216,94003,1,0
176,240,94109,1,8
216,269,94214,1,0
256,288,94320,1,8
256,253,94426,5,0
256,204,94531,1,2
256,153,94637,1,0
256,103,94743,1,2
256,54,94849,1,0
304,40,94954,6,0,B|364:23|404:20|475:51|464:143,1,200,2|0
368,144,95588,1,0
432,224,95800,1,2
368,304,96011,1,0
304,224,96222,1,0
208,224,96434,2,0,B|160:176|96:288|0:192,1,200,2|0
96,144,97068,5,2
448,64,97490,5,4
224,336,97913,5,0
240,240,98125,1,0
224,144,98336,1,2
273,151,98442,1,0
320,176,98547,1,0
400,240,98759,1,0
448,336,98970,2,0,B|400:272|336:384|288:384|240:304,1,200,2|0
160,352,99604,5,2
132,309,99710,1,0
117,262,99815,1,2
133,215,99921,1,0
168,180,100027,6,0,B|220:231|237:195|272:176|290:155|352:214,1,200,2|0
444,206,100661,1,0
444,106,100872,1,2
359,158,101084,1,0
359,258,101295,1,0
273,309,101506,2,0,B|220:264|204:177|282:104,1,200,2|0
329,59,102140,1,2
38,311,102563,6,0,B|79:270|110:252|82:227|66:221|50:221|34:253|66:285|98:317,1,200,4|0
193,312,103197,1,0
294,312,103408,1,2
271,267,103514,1,0
242,226,103620,1,0
193,312,103831,1,0
93,312,104043,2,0,B|66:285|34:253|50:221|66:221|82:227|110:252|79:270|38:311,1,200,2|0
256,192,109326,5,8
256,192,109432,1,8
256,192,109538,1,8
256,192,109643,1,0
256,192,109749,1,2
256,192,109855,1,0
256,192,109961,1,2
256,192,110066,1,0
256,192,110172,6,0,B|304:128|352:192|384:240|432:240|452:216,1,200,2|0
432,118,110874,1,0
335,97,111085,2,0,B|335:-7|335:-7|245:17|250:79,1,200,2|0
156,43,111719,2,0,B|141:5|77:-11|77:-11|79:90,1,200,2|0
79,190,112353,1,2
99,236,112459,1,0
142,262,112565,1,0
189,279,112670,1,0
235,288,112776,6,0,B|304:328|388:364|438:278|410:256,1,200,2|0
413,187,113410,1,0
342,116,113621,2,0,B|242:210,2,100,2|0|0
242,116,114256,2,0,B|85:275,1,200,2|0
172,329,114890,5,2
221,319,114995,1,0
264,293,115101,1,2
299,258,115207,1,0
327,217,115312,6,0,B|371:213|363:256|301:290|257:235|334:128|399:135,1,200,2|0
267,142,115946,1,0
167,142,116158,1,2
131,177,116263,1,0
96,212,116369,1,0
25,142,116580,1,0
25,142,116792,1,2
25,142,117003,1,0
96,71,117215,5,0
167,142,117426,1,2
202,177,117532,1,0
237,212,117637,1,0
308,141,117849,1,0
238,71,118060,1,0
167,141,118271,1,0
167,241,118483,1,0
167,341,118694,5,2
167,241,118905,1,0
167,141,119117,1,0
167,41,119328,2,0,B|236:20|223:112|239:120|304:76|320:79|340:132,1,200,2|0
416,176,119962,6,0,B|432:230|410:294|401:292,1,100,2|0
318,309,120385,2,0,B|247:366|141:359|147:261,1,200,2|0
114,258,120913,1,0
78,223,121019,1,0
39,121,121230,1,2
93,37,121442,1,0
190,13,121653,1,0
290,13,121864,2,0,B|309:75|432:114|497:53,1,200,2|0
461,125,122393,1,0
464,176,122498,6,0,B|390:202|367:266,1,100,2|0
384,336,122921,2,0,B|304:336|272:256,1,100
304,192,123344,2,0,B|224:192|192:272,1,100
112,224,123767,2,0,B|32:224|0:144,1,100,2|0
81,107,124189,1,0
116,71,124295,1,0
169,58,124401,2,0,B|295:12|384:36|388:45,1,200,2|0
453,83,125035,5,8
447,182,125246,5,2
411,218,125352,1,0
376,253,125457,1,0
341,288,125563,1,2
305,324,125669,1,0
205,324,125880,5,2
170,288,125986,1,0
135,253,126092,1,0
99,218,126197,1,2
64,182,126303,1,0
134,112,126514,5,0
205,41,126726,1,0
276,112,126937,2,0,B|282:167|224:196,2,100,2|0|0
256,208,127571,12,4,129685
256,192,130107,5,2
214,163,130213,1,0
169,142,130319,1,2
119,142,130424,1,0
80,181,130530,6,0,B|136:266|205:300|284:292,1,200,2|0
328,247,131164,1,0
360,342,131375,1,2
445,291,131587,1,0
418,195,131798,1,0
368,108,132010,2,0,B|259:154|178:129|164:76,1,200,2|0
96,144,132644,1,2
416,320,133066,5,4
96,144,133489,5,2
144,64,133700,1,0
240,64,133912,1,2
222,110,134017,1,0
192,144,134123,1,0
144,224,134334,1,0
80,304,134546,2,0,B|128:352|176:304|208:256|240:256|288:288,1,200,2|0
352,304,135180,5,8
400,224,135391,1,0
352,144,135603,1,0
256,144,135814,1,8
208,224,136025,1,0
256,304,136237,1,0
304,224,136448,6,0,B|304:96,2,100,8|0|0
256,304,137082,1,8
208,336,137188,1,0
160,304,137293,1,8
160,256,137399,1,0
208,224,137505,1,8
160,304,137716,5,8
112,224,137928,1,0
160,144,138139,1,0
256,144,138350,1,8
304,224,138562,1,0
256,304,138773,1,0
208,224,138984,6,0,B|208:96,2,100,8|0|0
256,304,139618,1,8
304,336,139724,1,0
352,304,139830,1,8
352,256,139935,1,0
304,224,140041,1,8
256,256,140147,1,0
303,280,140252,5,4
256,208,140358,12,0,142789
