osu file format v6

[General]
AudioFilename: Kingdom Hearts 2 - Scherzo Di Notte.mp3
AudioLeadIn: 1974
PreviewTime: 17771
Countdown: 1
SampleSet: Soft
StackLeniency: 0.7
Mode: 0
LetterboxInBreaks: 1

[Editor]
DistanceSpacing: 0.5
BeatDivisor: 2
GridSize: 16

[Metadata]
Title:Scherzo Di Notte
Artist:Yoko Shimomura
Creator:Kytoxid
Version:Easy
Source:Kingdom Hearts II
Tags:Game KH2 Hollow Bastion

[Difficulty]
HPDrainRate:1
CircleSize:3
OverallDifficulty:3
SliderMultiplier:1.2
SliderTickRate:1

[Events]
//Background and Video events
0,0,"kingdom-heart-halloween-town.jpg"
//Break Periods
2,12907,16552
2,43343,46776
//Storyboard Layer 0 (Background)
//Storyboard Layer 1 (Fail)
//Storyboard Layer 2 (Pass)
//Storyboard Layer 3 (Foreground)
//Storyboard Sound Samples
//Background Colour Transformations
3,100,0,0,0

[TimingPoints]
661,422.713822742004,3,2,0,52,1,0
59015,-100,4,2,0,20,0,0

[Colours]
Combo1 : 255,255,91
Combo2 : 255,128,64
Combo3 : 174,174,255

[HitObjects]
256,192,661,1,8
215,111,1295,1,0
128,87,1929,1,8
64,150,2563,1,0
83,239,3197,5,8
125,281,3619,2,2,B|189:313|269:281,1,120,2|0
240,224,4465,2,0,B|208:192|176:224,3,60,2|0|0|2
316,245,5522,6,0,B|383:233,1,60,0|8
418,192,6156,1,8
418,132,6578,1,0
376,89,7001,2,0,B|356:56|289:50,3,60,8|0|0|4
237,57,8269,6,2,B|172:60|214:132,2,60,2|0|2
249,116,9115,1,0
291,158,9537,2,2,B|352:221,3,60,2|0|0|2
291,244,10594,6,0,B|219:245,1,60,8|0
170,244,11228,1,8
128,202,11651,2,0,B|71:144,5,60,8|0|8|0|0|4
256,192,17992,5,4
315,192,18414,2,2,B|363:128|315:80,1,120
258,83,19260,1,8
198,83,19683,2,2,B|150:163|182:227|214:259,2,180
138,83,21373,5,8
96,125,21796,1,0
122,179,22219,2,0,B|42:243,3,60,8|0|0|4
139,280,23487,6,2,B|203:312|283:280,1,120
311,265,24332,1,8
341,213,24755,1,2
316,127,25389,1,2
252,63,26023,6,0,B|156:159,1,120,8|0
141,202,26869,1,0
158,260,27291,2,0,B|206:340|282:349|331:334,1,180,8|4
256,192,28560,12,2,32998
256,192,33632,5,8
149,136,34478,1,8
107,179,34900,6,0,B|108:266|152:319|208:347|273:339|348:328|383:247,3,360,2|0|0|4
384,222,39127,5,2
354,171,39550,1,0
300,143,39973,2,2,B|236:63|156:63|92:79,1,180
89,97,41030,2,0,B|41:129|41:193,1,60,0|2
35,200,41664,5,8
62,254,42086,1,0
112,286,42509,1,8
208,320,43143,1,4
256,192,48216,12,4,49273
256,192,50118,6,2,B|288:112|352:96|448:144,2,180
213,234,51809,2,0,B|165:282|85:250,1,120,8|0
59,213,52654,2,0,B|11:149|43:85|107:37,1,180,8|4
177,54,53922,6,2,B|257:22|321:54,1,120
336,86,54768,1,0
364,140,55191,2,2,B|476:124,3,60,2|0|0|2
406,188,56247,5,8
406,188,56459,2,0,B|454:252|406:300|342:316,3,120,8|0|0|8
314,334,58361,1,4
256,192,58995,12,4,61531
