osu file format v5

[General]
AudioFilename: 2d09072c408879890f97133599b86f2d.mp3
AudioLeadIn: 1996
PreviewTime: -1
Countdown: 1
SampleSet: Soft
StackLeniency: 0.7
Mode: 0
LetterboxInBreaks: 1
EditorBookmarks: 26296,62625

[Metadata]
Title:Popple and Rookie
Artist:Yoko Shimomura
Creator:Mifune24
Version:Normal
Source:
Tags:

[Difficulty]
HPDrainRate:5
CircleSize:4
OverallDifficulty:5
SliderMultiplier:1.8
SliderTickRate:2

[Events]
//Background and Video events
0,0,"popple and rookie.jpg"
//Break Periods
2,62498,66615
//Storyboard Layer 0 (Background)
//Storyboard Layer 1 (Failing)
//Storyboard Layer 2 (Passing)
//Storyboard Layer 3 (Foreground)
//Storyboard Sound Samples
//Background Colour Transformations
3,100,163,162,255

[TimingPoints]
317,648.999459167117,4,2,0,50,1

[Colours]
Combo1 : 255,255,0
Combo2 : 5,240,5
Combo3 : 5,5,240
Combo4 : 240,5,5

[HitObjects]
128,64,317,1,0
235,66,803,2,0,B|297:67|300:138,1,90
300,226,1614,1,0
192,226,2101,2,0,B|133:224|134:301,1,90
236,319,2912,5,0
343,321,3399,2,0,B|403:324|428:243,1,90
405,167,4210,2,2,B|406:107|353:119,3,45
224,288,5508,5,0
156,203,5995,1,0
141,132,6320,1,0
148,12,6806,1,0
255,15,7293,1,0
416,64,8104,5,2
466,159,8591,2,2,B|501:220|472:256,1,90
427,317,9402,1,2
323,346,9889,2,2,B|269:367|199:346|187:326,1,135
160,256,10700,5,0
268,256,11187,1,0
327,215,11512,1,0
358,108,11998,1,0
249,109,12485,2,0,B|176:108|162:177,1,90
96,192,13296,5,2
166,273,13783,1,2
224,314,14108,1,2
299,236,14594,2,4,B|200:203|172:105|213:28|314:35,1,270
341,35,15892,5,2
405,122,16379,1,2
428,190,16704,1,2
413,297,17190,2,4,B|377:331|358:310,3,45
184,284,18488,5,2
89,231,18975,1,2
67,162,19300,1,2
110,60,19786,2,4,B|167:59|166:98,3,45
256,224,21084,5,0
192,256,21409,1,0
224,320,21733,1,0
288,320,22058,1,0
320,256,22382,1,0
256,32,23680,5,0
320,64,24005,1,0
288,128,24329,1,0
224,128,24654,1,0
192,64,24978,1,0
256,192,26276,12,0,30819
127,75,31468,6,2,B|266:14|400:78,1,270
456,96,32766,1,8
497,154,33091,1,8
510,224,33415,1,8
486,292,33740,1,8
418,315,34064,6,2,B|286:371|149:314,1,270
89,287,35362,1,8
49,226,35687,1,8
25,157,36011,1,8
49,89,36336,1,8
128,64,36660,6,0,B|220:64,3,90
224,128,37958,2,0,B|128:128,3,90
128,192,39256,2,2,B|256:192,3,90
224,256,40554,2,4,B|64:256,1,135
64,96,41852,5,0
135,99,42177,2,0,B|71:195,1,90
157,174,42826,2,0,B|221:78,1,90
278,102,43475,2,0,B|214:198,1,90
352,256,44448,5,0
280,260,44773,2,0,B|216:164,1,90
158,193,45422,2,0,B|224:288,1,90
137,270,46071,2,0,B|73:174,1,90
384,320,47044,5,2
277,318,47531,2,2,B|215:317|212:246,1,90
212,158,48342,1,2
320,160,48829,1,2
320,160,49154,1,2
276,65,49640,5,2
169,63,50127,2,2,B|109:60|84:141,1,90
107,217,50938,2,4,B|106:277|159:265,3,45
288,96,52236,5,0
356,181,52723,1,0
371,252,53048,1,0
364,372,53534,1,0
255,370,54021,1,0
96,320,54832,5,2
46,225,55319,2,2,B|11:164|40:128,1,90
85,67,56130,1,2
186,29,56617,2,4,B|273:29|326:80,1,135
362,119,57428,5,0
244,128,57915,1,0
185,169,58240,1,0
154,276,58726,1,0
263,275,59213,2,0,B|336:276|350:207,1,90
416,192,60024,5,2
343,112,60511,1,2
277,82,60836,1,2
188,143,61322,2,4,B|254:238|148:332|73:332|25:307,1,270
160,128,67812,5,0
96,160,68137,1,0
128,224,68461,1,0
192,224,68786,1,0
224,160,69110,1,0
384,128,70408,5,0
448,160,70733,1,0
416,224,71057,1,0
352,224,71382,1,0
320,160,71706,1,0
256,192,73004,12,0,77547
385,309,78196,6,2,B|246:370|112:306,1,270
56,288,79494,1,8
15,230,79819,1,8
2,160,80143,1,8
26,92,80468,1,8
94,69,80792,6,2,B|226:13|363:70,1,270
423,97,82090,1,8
463,158,82415,1,8
487,227,82739,1,8
463,295,83064,1,8
384,320,83388,6,0,B|292:320,3,90
295,247,84686,2,0,B|391:248,3,90
383,175,85984,2,2,B|287:175,3,90
288,96,87282,2,4,B|448:96,1,135
147,314,88580,5,0
147,241,88905,2,0,B|196:198|132:154,1,90
218,162,89554,2,0,B|257:203|208:260,1,90
292,248,90203,2,0,B|333:189|266:138,1,90
437,160,91176,5,0
439,87,91501,2,0,B|388:35|455:-1,1,90
365,11,92150,2,0,B|322:50|374:97,1,90
293,92,92799,2,0,B|259:44|292:6,1,90
256,192,93772,12,4,98315
