osu file format v5

[General]
AudioFilename: 2d09072c408879890f97133599b86f2d.mp3
AudioLeadIn: 1996
PreviewTime: -1
Countdown: 1
SampleSet: Soft
StackLeniency: 0.7
Mode: 0
LetterboxInBreaks: 1
EditorBookmarks: 26296,62625

[Metadata]
Title:Popple and Rookie
Artist:Yoko Shimomura
Creator:Mifune24
Version:Insane
Source:
Tags:

[Difficulty]
HPDrainRate:7
CircleSize:5
OverallDifficulty:7
SliderMultiplier:2.6
SliderTickRate:2

[Events]
//Background and Video events
0,0,"popple and rookie.jpg"
//Break Periods
2,62663,66765
//Storyboard Layer 0 (Background)
//Storyboard Layer 1 (Failing)
//Storyboard Layer 2 (Passing)
//Storyboard Layer 3 (Foreground)
//Storyboard Sound Samples
//Background Colour Transformations
3,100,163,162,255

[TimingPoints]
317,648.999459167117,4,2,0,50,1

[Colours]
Combo1 : 255,255,0
Combo2 : 5,240,5
Combo3 : 5,5,240
Combo4 : 240,5,5

[HitObjects]
162,97,317,5,0
200,62,479,1,0
251,59,641,1,0
287,95,803,1,0
351,176,1128,1,0
383,257,1452,1,0
346,293,1614,1,0
294,293,1777,1,0
242,294,1939,1,0
205,257,2101,1,0
185,154,2426,1,0
185,154,2588,1,0
183,71,2912,5,0
209,26,3075,1,0
234,71,3237,1,0
263,28,3399,1,0
340,122,3724,1,0
376,273,4210,1,0
350,318,4373,1,0
325,272,4535,1,0
298,316,4697,1,0
237,231,5022,1,0
237,231,5184,1,0
237,231,5346,1,0
215,183,5508,5,2
188,138,5671,1,2
161,182,5833,1,2
141,133,5995,2,2,B|81:199|149:284,1,130
215,308,6806,1,2
241,352,6969,1,2
267,307,7131,1,2
291,352,7293,1,2
385,310,7618,1,4
385,310,7780,1,4
385,310,7942,1,4
383,258,8104,5,0
423,225,8267,1,0
374,207,8429,1,0
416,177,8591,2,0,B|406:108|316:107,1,130
167,81,9402,1,0
208,112,9565,1,0
160,132,9727,1,0
203,160,9889,1,0
197,263,10214,1,0
197,263,10376,1,0
197,263,10538,1,0
238,231,10700,5,0
284,254,10863,1,0
244,284,11025,1,0
203,315,11187,2,0,B|268:351|340:326,2,130
151,308,11998,1,0
104,285,12161,1,0
148,258,12323,1,0
101,234,12485,2,0,B|30:167|58:111|139:59,1,195
241,43,13296,5,2
291,52,13459,1,2
336,78,13621,1,2
375,111,13783,1,2
433,196,14108,1,2
387,345,14594,1,2
338,327,14757,1,2
294,298,14919,1,2
258,260,15081,1,2
200,173,15406,1,4
200,173,15568,1,4
200,173,15730,1,4
148,173,15892,5,0
167,124,16055,1,0
198,82,16217,1,0
242,54,16379,2,0,B|308:25|392:69,1,130
460,190,17190,1,0
454,241,17353,1,0
424,283,17515,1,0
376,304,17677,1,0
272,296,18002,1,2
272,296,18164,1,2
272,296,18326,1,2
223,275,18488,5,0
174,255,18651,1,0
135,220,18813,1,0
98,182,18975,2,0,B|41:123|76:62,1,130
203,152,19786,2,0,B|244:152|268:107,3,65
308,37,20598,1,0
308,37,20760,1,0
308,37,20922,1,0
256,36,21084,5,0
167,90,21409,1,0
100,169,21733,1,0
131,268,22058,1,0
207,338,22382,1,0
307,363,22707,1,0
392,303,23031,1,0
446,214,23356,1,0
420,113,23680,6,0,B|386:51|315:41,1,130
213,37,24329,2,0,B|129:32|81:137,1,130
101,199,24978,2,0,B|100:282|196:303,1,130
275,301,25627,2,0,B|364:304|375:215,1,130
256,192,26276,12,0,30819
97,66,31468,5,2
148,66,31631,1,2
200,63,31793,1,2
251,63,31955,1,2
354,64,32280,1,2
457,67,32604,1,0
457,119,32766,2,0,B|458:228,1,65
458,235,33091,2,0,B|459:334,1,65
406,302,33415,2,0,B|403:210,1,65
405,184,33740,2,0,B|403:110,1,65
351,120,34064,5,2
299,120,34227,1,2
247,120,34389,1,2
194,121,34551,1,2
90,121,34876,1,2
91,224,35200,1,0
91,224,35362,2,0,B|162:223,1,65
208,223,35687,2,0,B|284:224,1,65
273,279,36011,2,0,B|201:278,1,65
155,277,36336,2,0,B|89:277,1,65
93,331,36660,5,0
135,360,36823,1,0
185,372,36985,1,0
237,370,37147,2,0,B|313:367|358:323,1,130
412,256,37796,1,0
380,215,37958,1,0
336,186,38121,1,0
284,178,38283,1,0
238,203,38445,2,0,B|182:254|96:188,1,130
122,54,39256,5,0
163,22,39419,1,0
214,12,39581,1,0
263,28,39743,2,0,B|372:64|388:140,1,130
459,225,40554,1,2
422,188,40717,1,2
375,164,40879,1,2
329,188,41041,1,2
258,354,41852,5,0
258,302,42015,2,0,B|158:301,1,65
193,249,42339,2,0,B|276:250,1,65
257,197,42664,2,0,B|185:195,1,65
196,143,42988,2,0,B|277:144,1,65
260,91,43313,2,0,B|189:90,1,65
198,37,43637,2,0,B|270:38,1,65
314,41,43962,1,2
314,41,44124,1,2
314,41,44286,1,2
365,41,44448,5,0
364,92,44611,2,0,B|364:190,1,65
415,159,44935,2,0,B|414:83,1,65
466,94,45260,2,0,B|469:183,1,65
467,210,45584,2,0,B|373:211,1,65
404,262,45909,2,0,B|479:263,1,65
469,315,46233,2,0,B|390:318,1,65
352,315,46558,1,2
352,315,46720,1,2
352,315,46882,1,2
307,287,47044,5,0
278,243,47207,1,0
253,288,47369,1,0
225,243,47531,1,0
126,207,47856,1,0
226,182,48180,1,0
253,137,48342,1,0
279,181,48505,1,0
306,137,48667,1,0
331,182,48829,1,0
331,182,49154,1,0
150,57,49640,5,0
105,83,49803,1,0
78,127,49965,1,0
59,175,50127,2,0,B|23:238|69:300,1,130
140,368,50938,1,2
184,341,51101,1,2
224,308,51263,1,2
241,258,51425,1,2
259,155,51750,1,4
259,155,51912,1,4
259,155,52074,1,4
310,152,52236,6,0,B|380:153|400:115,3,65
458,81,53048,1,0
311,27,53534,2,0,B|251:25|250:84,3,65
288,139,54346,1,0
288,139,54508,1,0
288,139,54670,1,0
241,161,54832,5,2
206,200,54995,1,2
212,251,55157,1,2
234,298,55319,1,2
325,347,55644,1,2
472,295,56130,1,2
495,248,56293,1,2
502,196,56455,1,2
482,147,56617,1,2
422,62,56942,1,4
378,33,57104,1,4
328,17,57266,1,4
276,18,57428,5,0
224,22,57591,1,0
171,22,57753,2,0,B|87:20|37:79|39:140,1,195
37,239,58564,1,0
56,287,58726,1,0
90,325,58889,1,0
137,347,59051,1,0
186,363,59213,1,0
289,363,59538,1,0
426,290,60024,5,2
376,275,60187,1,2
325,260,60349,1,2
275,245,60511,2,2,B|198:249|164:188,1,130
122,55,61322,1,2
167,28,61485,1,2
218,20,61647,1,2
263,44,61809,1,2
363,71,62134,1,4
363,71,62296,1,4
363,71,62458,1,4
257,354,67812,5,0
344,298,68137,1,0
413,220,68461,1,0
375,123,68786,1,0
295,56,69110,1,0
195,25,69435,1,0
105,77,69759,1,0
47,163,70084,1,0
106,248,70408,6,0,B|125:317|207:348,1,130
294,345,71057,2,0,B|408:342|419:238,1,130
415,185,71706,2,0,B|415:90|299:75,1,130
241,78,72355,2,0,B|145:74|104:182,1,130
256,192,73004,12,0,77547
258,37,78196,5,2
222,74,78359,1,2
186,112,78521,1,2
151,150,78683,1,2
84,230,79008,1,2
145,313,79332,1,0
145,313,79494,2,0,B|246:314,1,65
261,315,79819,2,0,B|354:316,1,65
328,263,80143,2,0,B|259:262,1,65
211,262,80468,2,0,B|143:262,1,65
146,209,80792,5,2
183,173,80955,1,2
219,135,81117,1,2
254,96,81279,1,2
330,25,81604,1,2
407,94,81928,1,0
407,94,82090,2,0,B|409:202,1,65
408,210,82415,2,0,B|409:310,1,65
356,272,82739,2,0,B|357:197,1,65
357,155,83064,2,0,B|357:78,1,65
311,64,83388,5,0
271,98,83551,1,0
221,113,83713,1,0
173,91,83875,2,0,B|136:39|74:64|61:103,1,130
63,213,84524,1,0
101,177,84686,1,0
151,165,84849,1,0
198,186,85011,1,0
234,223,85173,2,0,B|290:267|356:226,1,130
449,351,85984,5,0
408,317,86147,1,0
356,318,86309,1,0
313,347,86471,1,0
208,345,86796,1,0
52,346,87282,1,2
81,302,87445,1,2
115,263,87607,1,2
157,233,87769,1,2
257,35,88580,5,0
222,73,88743,2,0,B|155:130,1,65
202,157,89067,2,0,B|257:112,1,65
293,147,89392,2,0,B|237:193,1,65
277,227,89716,2,0,B|335:179,1,65
366,218,90041,2,0,B|295:281,1,65
351,300,90365,2,0,B|410:250,1,65
441,225,90690,1,2
441,225,90852,1,2
441,225,91014,1,2
477,187,91176,5,0
441,149,91339,2,0,B|383:91,1,65
354,136,91663,2,0,B|403:186,1,65
361,217,91988,2,0,B|299:153,1,65
274,202,92312,2,0,B|325:253,1,65
286,287,92637,2,0,B|227:233,1,65
199,278,92961,2,0,B|253:328,1,65
284,358,93286,1,2
284,358,93448,1,2
284,358,93610,1,2
256,192,93772,12,0,96044
228,28,96368,5,0
280,28,96531,1,0
258,75,96693,1,0
309,76,96855,1,0
364,164,97180,1,0
317,312,97666,1,2
264,312,97829,1,2
292,268,97991,1,2
240,268,98153,1,2
136,304,98478,1,4
136,304,98640,1,4
136,304,98802,1,4
