osu file format v5

[General]
AudioFilename: 2d09072c408879890f97133599b86f2d.mp3
AudioLeadIn: 1996
PreviewTime: -1
Countdown: 1
SampleSet: Soft
StackLeniency: 0.7
Mode: 0
LetterboxInBreaks: 1
EditorBookmarks: 62625

[Metadata]
Title:Popple and Rookie
Artist:Yoko Shimomura
Creator:Mifune24
Version:Hard
Source:
Tags:

[Difficulty]
HPDrainRate:7
CircleSize:5
OverallDifficulty:6
SliderMultiplier:1.8
SliderTickRate:2

[Events]
//Background and Video events
0,0,"popple and rookie.jpg"
//Break Periods
2,62021,66624
//Storyboard Layer 0 (Background)
//Storyboard Layer 1 (Failing)
//Storyboard Layer 2 (Passing)
//Storyboard Layer 3 (Foreground)
//Storyboard Sound Samples
//Background Colour Transformations
3,100,163,162,255

[TimingPoints]
317,648.999459167117,4,2,0,50,1

[Colours]
Combo1 : 255,255,0
Combo2 : 5,240,5
Combo3 : 5,5,240
Combo4 : 240,5,5

[HitObjects]
144,233,317,1,0
240,184,803,2,0,B|297:141|345:212,1,90
416,236,1614,1,0
331,302,2101,2,0,B|299:342|249:313,1,90
195,366,2912,5,0
136,275,3399,2,0,B|85:217|167:174,1,90
221,131,4210,1,0
303,194,4697,2,0,B|377:270|284:348,1,135
280,281,5508,5,2
225,234,5833,1,2
201,261,5995,1,2
149,310,6320,1,2
87,221,6806,1,2
142,175,7131,1,2
169,152,7293,1,2
281,177,8104,5,0
336,221,8429,1,0
366,239,8591,2,0,B|428:247|456:206,1,90
453,106,9402,1,4
358,76,9889,1,4
299,102,10700,5,0
244,55,11025,2,0,B|201:36|193:78,1,45
150,107,11512,1,0
150,107,11836,2,0,B|89:157|58:182|51:246|74:318|113:350|189:358,1,315
251,319,13296,5,2
219,254,13621,1,2
222,218,13783,1,2
265,160,14108,1,2
342,89,14594,1,2
429,77,15081,2,4,B|479:138|445:214,1,135
421,270,15892,5,0
380,329,16217,1,0
346,342,16379,1,0
279,337,16704,2,0,B|220:356|135:282,1,135
103,247,17515,1,0
103,247,17677,1,0
184,87,18488,5,2
247,54,18813,1,2
283,56,18975,1,2
344,99,19300,1,2
403,188,19786,2,4,B|469:272|399:340,1,135
342,297,21084,5,0
277,328,21409,1,0
204,327,21733,1,0
147,282,22058,1,0
106,222,22382,1,0
108,150,22707,1,0
157,97,23031,1,0
216,57,23356,1,0
288,57,23680,6,0,B|357:58|379:121,1,90
375,165,24329,2,0,B|377:238|304:264,1,90
284,289,24978,2,0,B|243:325|171:278,1,90
137,257,25627,2,0,B|75:207|129:144,1,90
256,192,26276,12,0,30819
129,64,31468,5,2
131,170,31955,1,2
132,241,32280,1,2
131,312,32604,1,2
131,312,32766,2,4,B|231:313,3,90
292,314,34064,5,2
290,205,34551,1,2
287,133,34876,1,2
284,61,35200,1,4
284,61,35362,2,4,B|389:61,3,90
427,109,36660,5,0
486,199,37147,1,0
416,179,37472,1,0
345,193,37796,2,0,B|279:150|205:172|172:247,1,180
173,292,38770,1,0
96,295,39256,5,0
13,225,39743,1,0
84,214,40068,1,0
41,114,40554,2,0,B|78:55|126:46|168:59,1,135
256,63,41852,5,0
257,98,42015,2,0,B|198:100,1,45
256,198,42664,2,0,B|319:196,1,45
256,295,43313,2,0,B|205:295,1,45
102,296,43962,1,2
102,296,44124,1,2
102,296,44286,1,2
102,224,44611,2,0,B|101:160,1,45
209,181,45260,2,0,B|210:244,1,45
317,227,45909,2,0,B|316:169,1,45
424,180,46558,1,2
424,180,46720,1,2
424,180,46882,1,2
424,180,47044,5,0
415,287,47531,2,0,B|376:321|309:295,1,90
258,293,48180,1,0
224,278,48342,1,0
162,240,48667,1,0
140,211,48829,2,0,B|101:148|149:92,1,90
200,44,49640,6,2,B|254:18|318:39,1,90
322,42,50127,1,2
377,88,50452,1,2
436,178,50938,2,4,B|469:243|428:294|354:307|286:226|224:246,1,270
161,307,52236,5,2
121,246,52561,1,2
105,213,52723,1,2
117,141,53048,1,2
138,35,53534,2,4,B|196:5|245:29|272:48,1,135
246,134,54832,5,2
304,93,55157,1,2
339,101,55319,1,2
398,140,55644,1,2
375,245,56130,2,4,B|332:281|317:241,3,45
440,193,57428,6,0,B|440:107|379:95,1,90
383,88,57915,1,0
337,143,58240,1,0
292,199,58564,1,0
258,213,58726,1,0
188,193,59051,2,0,B|147:167|121:130|106:80,1,135
110,235,60024,5,2
71,295,60349,1,2
98,317,60511,1,2
159,354,60836,1,2
228,271,61322,2,4,B|290:233|283:149,1,135
256,65,67812,5,0
192,97,68137,1,0
148,154,68461,1,0
132,224,68786,1,0
166,287,69110,1,0
216,338,69435,1,0
285,355,69759,1,0
350,325,70084,1,0
399,272,70408,6,0,B|444:224|384:157,1,90
371,126,71057,2,0,B|341:70|264:57,1,90
233,55,71706,2,0,B|153:57|132:118,1,90
120,151,72355,2,0,B|86:209|138:252,1,90
256,192,73004,12,0,77547
125,66,78196,5,2
230,65,78683,1,2
302,65,79008,1,2
373,66,79332,1,4
373,66,79494,2,4,B|473:65,3,90
463,137,80792,5,2
355,135,81279,1,2
283,137,81604,1,2
210,135,81928,1,4
210,135,82090,2,4,B|112:133,3,90
74,188,83388,5,0
77,296,83875,1,0
123,240,84200,1,0
167,183,84524,2,0,B|217:143|271:290|323:127,1,180
256,104,85498,1,0
350,52,85984,5,2
421,57,86309,1,2
441,86,86471,1,2
466,153,86796,1,2
441,258,87282,2,4,B|427:286|394:283,3,45
256,352,88580,5,0
256,320,88743,2,0,B|192:320,1,45
219,212,89392,2,0,B|292:212,1,45
262,103,90041,2,0,B|198:104,1,45
108,102,90690,1,2
108,102,90852,1,2
108,102,91014,1,2
109,173,91339,2,0,B|110:229,1,45
217,221,91988,2,0,B|217:159,1,45
325,178,92637,2,0,B|325:229,1,45
433,224,93286,1,2
433,224,93448,1,2
433,224,93610,1,2
256,192,93772,12,4,98640
