osu file format v5

[General]
AudioFilename: 2d09072c408879890f97133599b86f2d.mp3
AudioLeadIn: 1996
PreviewTime: -1
Countdown: 1
SampleSet: Soft
StackLeniency: 0.7
Mode: 0
LetterboxInBreaks: 1
EditorBookmarks: 26296,62625

[Metadata]
Title:Popple and Rookie
Artist:Yoko Shimomura
Creator:Mifune24
Version:Easy
Source:
Tags:

[Difficulty]
HPDrainRate:2
CircleSize:4
OverallDifficulty:5
SliderMultiplier:1.5
SliderTickRate:2

[Events]
//Background and Video events
0,0,"popple and rookie.jpg"
//Break Periods
2,62015,66495
//Storyboard Layer 0 (Background)
//Storyboard Layer 1 (Failing)
//Storyboard Layer 2 (Passing)
//Storyboard Layer 3 (Foreground)
//Storyboard Sound Samples
//Background Colour Transformations
3,100,163,162,255

[TimingPoints]
317,648.999459167117,4,2,0,50,1

[Colours]
Combo1 : 255,255,0
Combo2 : 5,240,5
Combo3 : 5,5,240
Combo4 : 240,5,5

[HitObjects]
192,96,317,5,0
288,96,803,1,0
288,256,1614,1,0
192,256,2101,1,0
192,96,2912,6,0,B|256:32|352:128|320:192,1,187.5
352,256,4210,2,0,B|320:320|256:320|192:288|192:224|224:192,1,225
256,160,5508,5,2
320,96,5995,1,2
256,224,6806,1,2
192,288,7293,1,2
96,160,8104,6,0,B|96:96|192:64|224:96|256:128,1,187.5
256,192,9402,2,0,B|320:256|416:256|448:160,1,225
384,128,10700,5,0
288,96,11187,2,0,B|224:64|160:128,1,112.5
128,160,11998,1,0
192,224,12485,2,0,B|256:192|288:224,1,75
256,288,13296,5,2
160,288,13783,1,2
256,352,14594,1,4
352,352,15081,1,4
256,256,15892,6,0,B|160:256|96:192|128:96,1,225
192,128,17190,1,0
288,128,17677,1,0
448,128,18488,2,0,B|448:224|384:288|288:288,1,225
256,288,19786,1,2
160,288,20273,1,2
183,139,21084,6,2,B|264:84|348:158,3,150
329,258,23680,2,2,B|254:309|164:245,3,150
256,192,26276,12,0,30819
128,96,31468,5,2
128,192,31955,1,2
128,256,32280,1,2
128,320,32604,1,4
384,320,34064,5,2
384,224,34551,1,2
384,160,34876,1,2
256,64,36660,5,0
192,128,37147,1,0
160,192,37472,2,0,B|128:256|192:320,1,112.5
256,352,38445,1,0
256,352,38770,1,0
320,288,39256,5,0
384,224,39743,2,0,B|416:192|384:128,1,75
352,64,40554,1,0
352,64,41041,1,0
256,96,41852,5,0
256,96,42177,2,0,B|320:160,4,75
256,192,43962,1,2
256,192,44124,1,2
256,192,44286,1,2
256,256,44611,2,0,B|192:320,5,75
320,288,47044,5,0
224,288,47531,1,0
224,224,47856,1,0
224,128,48342,1,0
320,128,48829,1,0
384,128,49154,1,0
320,288,49640,6,2,B|256:352|160:256|192:192,1,187.5
160,128,50938,2,4,B|192:64|256:64|320:96|320:160|288:192,1,225
256,224,52236,5,2
192,288,52723,1,2
192,224,53048,1,2
256,160,53534,1,2
352,160,54021,1,2
416,224,54832,6,0,B|416:288|320:320|288:288|256:256,1,187.5
256,192,56130,2,0,B|192:128|96:128|64:224,1,225
128,256,57428,5,2
224,288,57915,2,2,B|288:320|352:256,1,112.5
384,224,58726,1,2
288,192,59213,2,2,B|224:224|192:192,1,75
256,128,60024,5,2
352,128,60511,1,2
352,64,60836,1,2
256,64,61322,1,4
160,64,61809,1,4
64,128,67812,5,2
192,128,68461,1,2
320,128,69110,1,2
448,128,69759,1,2
448,256,70408,5,2
320,256,71057,1,2
192,256,71706,1,2
64,256,72355,1,2
256,192,73004,12,0,77547
384,288,78196,5,2
384,192,78683,1,2
320,192,79008,1,2
256,192,79332,1,4
128,64,80792,5,2
128,160,81279,1,2
192,160,81604,1,2
256,320,83388,5,0
320,256,83875,1,0
352,192,84200,2,0,B|384:128|320:64,1,112.5
256,32,85173,1,0
256,96,85498,1,0
160,96,85984,5,0
96,160,86471,2,0,B|64:192|96:256,1,75
96,320,87282,1,4
192,352,87769,1,4
256,288,88580,5,0
256,288,88905,2,0,B|192:224,4,75
256,192,90690,1,2
256,192,90852,1,2
256,192,91014,1,2
256,128,91339,2,0,B|320:64,5,75
352,32,93286,1,2
352,32,93448,1,2
352,32,93610,1,2
256,192,93772,12,4,98315
